#TITLE:Gymnopedie -kors k mix-;
#SUBTITLE:;
#ARTIST:kors k;
#TITLETRANSLIT:;
#SUBTITLETRANSLIT:;
#ARTISTTRANSLIT:;
#GENRE:;
#CREDIT:;
#MENUCOLOR:;
#METERTYPE:DDR;
#BANNER:Gymnopedie -kors k mix-.png;
#BACKGROUND:Gymnopedie -kors k mix--bg.png;
#LYRICSPATH:;
#CDTITLE:;
#MUSIC:Gymnopedie -kors k mix-.mp3;
#OFFSET:-0.032;
#SAMPLESTART:60.015;
#SAMPLELENGTH:12.000;
#SELECTABLE:YES;
#LISTSORT:;
#DISPLAYBPM:128.000;
#BPMS:0.000=128.000,46.000=64.000,47.000=128.000;
#STOPS:;
#BGCHANGES:;
#ATTACKS:;

//---------------dance-single - ----------------
#NOTES:
     dance-single:
     :
     Hard:
     10:
     0.377,0.471,0.089,0.078,0.089:
0000
0000
0000
0000
,
0000
0000
0000
0000
,
0000
0000
0000
0000
,
1000
0100
0001
0010
,
1001
0010
0100
0100
,
0001
1000
0100
0100
,
0010
0001
1000
1000
,
0010
0100
0001
0001
,
2000
0100
0000
3100
,
0020
0001
0000
0031
,
2000
0010
0000
3010
,
0100
0000
0001
0000
1000
1000
1000
0000
,
0010
0100
0001
0010
,
0100
1000
0000
0100
0010
0000
0001
0000
,
0100
1000
0000
0100
0001
0000
1000
0000
,
0010
0000
0100
0100
0100
0000
0001
0000
,
1000
0000
0001
0100
0001
0000
0010
0000
,
0100
0000
1000
0001
1000
0000
0010
0000
,
0100
0000
0001
0100
1000
0000
0100
0100
,
0000
0000
0000
0000
0000
0001
0000
1000
0001
0000
0000
0000
0200
0000
0000
0000
,
1000
0010
0301
2000
,
0010
0001
3100
0020
,
0001
0100
1030
0002
,
0100
1000
0013
1100
,
0010
0000
0001
0000
0100
0010
1000
0000
,
0100
0000
0001
0000
0100
1000
0010
0000
,
0100
0000
0000
0001
0000
0000
0010
0000
0000
0000
0000
0000
0001
0000
0000
1000
0000
0000
0001
0000
0100
0000
0001
0000
,
1000
0100
1000
0001
0100
0001
0010
0000
0000
0110
0000
0000
,
0001
0000
0010
0000
1000
0100
0011
0000
,
1000
0000
0100
0000
0001
0010
1100
0000
,
0010
0100
1001
0000
1000
0001
1000
0001
,
1000
0000
0000
0100
0000
0000
0010
0000
0001
0000
0010
0000
0100
0000
1000
0000
0100
0000
0010
0000
0000
0000
0000
0000
,
0001
0000
0100
1000
0000
0100
0001
0000
,
0100
1000
0000
0001
0100
0000
0010
0000
,
0100
0001
0000
1000
0100
0000
0010
0000
,
0100
1000
0000
0001
0100
0000
0010
1000
,
0000
0001
0000
0010
0100
1000
0000
0001
,
0000
0100
0000
0010
0100
0001
0000
1000
,
0000
0100
0000
0010
0100
1000
0001
1000
,
0000
0100
0010
0000
0001
0000
1001
0000
,
0100
0000
0001
1000
0110
0000
0001
0000
,
1000
0100
0000
0001
0100
0000
0010
0000
,
0001
0100
0000
1000
0100
0000
0001
0000
,
1000
0000
0100
0100
0100
0000
0010
0100
,
1000
0000
0010
0100
0001
0000
0010
0100
,
1000
0000
0010
0100
0001
0100
0000
0010
,
0000
1000
0000
0000
0100
0000
0000
0010
0000
0000
0001
0000
0000
0100
0000
0000
,
0010
0000
1000
0001
0000
0000
0000
0000
0000
0000
0000
0000
0000
0000
0000
0000
;

//---------------dance-single - ----------------
#NOTES:
     dance-single:
     :
     Medium:
     6:
     0.238,0.288,0.089,0.222,0.000:
0000
0000
0000
0000
,
0000
0000
0000
0000
,
0000
0000
0000
0000
,
0000
0000
0000
0000
,
1000
0100
0100
0000
,
0001
0100
0100
0000
,
1000
0010
0010
0000
,
0001
0010
0010
0000
,
2000
0000
0002
3003
,
0002
0000
2000
3003
,
2000
0000
0002
3003
,
0020
0000
0130
0100
,
0001
0010
0000
0100
,
1000
0010
0000
0100
,
0000
0001
0000
1000
,
0100
0100
0000
0010
,
0010
0010
0000
0100
,
0100
0100
0000
1000
,
0001
0100
0000
0001
,
1000
0100
0100
0200
,
0000
1000
0300
0020
,
0000
0001
0030
0002
,
0000
1000
0003
2000
,
0000
0001
3000
0110
,
0000
0010
0000
0100
,
0000
0001
1000
0100
,
0000
0010
0000
0001
,
0000
1000
0010
0110
,
0000
0001
0000
1001
,
0000
1000
0000
1010
,
0000
0110
0000
1000
,
0100
0020
0032
1003
,
0001
0000
0000
0010
0000
0000
0001
0000
,
0000
1000
0000
0000
0010
0000
0100
0000
,
0000
0001
0000
0000
0010
0000
0100
0000
,
0000
1000
1000
1000
,
0001
0000
1000
0001
,
1000
0001
1000
0010
,
0010
0010
0100
0010
,
0010
0020
0030
2002
,
3003
0010
0100
1001
,
0100
0010
0001
1000
,
0000
0100
0000
0010
,
0001
1000
0010
2000
,
0000
3200
0000
0320
,
0000
0032
0000
1003
,
0001
0100
0010
0100
,
0001
1001
0000
0000
;

//---------------dance-single - ----------------
#NOTES:
     dance-single:
     :
     Easy:
     5:
     0.197,0.236,0.078,0.044,0.000:
0000
0000
0000
0000
,
0000
0000
0000
0000
,
0000
0000
0000
0000
,
0000
0000
0000
0000
,
1000
0001
0000
0001
,
0000
0010
0000
0010
,
0000
1000
0000
1000
,
0000
0001
0000
0000
,
0010
0000
0001
0000
,
1000
0000
0010
0000
,
0100
0100
0100
0000
,
0010
0010
0020
0030
,
0100
0000
0100
0000
,
0010
0000
0010
1000
,
0000
0001
0000
1000
,
1000
1000
0000
0001
,
0000
0100
0000
0001
,
0001
0001
0000
1000
,
0000
0100
0000
1000
,
1000
1000
0000
0010
,
0000
0100
0000
0001
,
0000
1000
0000
0100
,
0000
0010
0000
0100
,
0000
1000
0001
1001
,
0000
0001
0000
1000
,
0000
0010
0000
0100
,
0000
0001
0000
0010
,
0100
1000
0001
1001
,
0000
0010
0100
0110
,
0000
1000
0001
1001
,
0000
0110
0000
0001
,
0010
0200
2300
3001
,
0000
0001
0000
1000
,
0000
0100
0000
0010
,
0010
0010
0000
0001
,
0000
1000
0000
0010
,
0100
0001
0000
1000
,
0100
0010
0000
1000
,
0100
0010
0001
1000
,
0010
0010
0000
0200
,
0310
0100
0110
0001
,
0000
1000
0000
0100
,
0010
0001
0000
0100
,
0100
0100
0000
0010
,
0100
0010
0000
0100
,
0010
0100
0000
0001
,
0000
0001
0000
0001
,
1000
1001
0000
0000
;

//---------------dance-single - ----------------
#NOTES:
     dance-single:
     :
     Beginner:
     2:
     0.108,0.131,0.067,0.033,0.000: // measure 1
0000
0000
0000
0000
,  // measure 2
0000
0000
0000
0000
,  // measure 3
0000
0000
0000
0000
,  // measure 4
0000
0000
0000
0000
,  // measure 5
1000
0000
1000
0000
,  // measure 6
0001
0000
0001
0000
,  // measure 7
1000
0000
1000
0000
,  // measure 8
0001
0000
0000
0000
,  // measure 9
0100
0000
0000
0000
,  // measure 10
0010
0000
0000
0000
,  // measure 11
0100
0000
0000
0000
,  // measure 12
0010
0000
0000
0000
,  // measure 13
0000
1000
0000
1000
,  // measure 14
0000
0000
0000
0001
,  // measure 15
0000
0001
0000
0001
,  // measure 16
0000
0000
0000
1000
,  // measure 17
0000
1000
0000
1000
,  // measure 18
0000
0000
0000
0001
,  // measure 19
0000
0001
0000
0001
,  // measure 20
0000
0000
0000
1001
,  // measure 21
0000
0000
0000
0001
,  // measure 22
0000
0000
0000
1000
,  // measure 23
0000
0000
0000
0010
,  // measure 24
0000
0000
0000
1001
,  // measure 25
0000
0000
0000
0010
,  // measure 26
0000
0000
0000
1000
,  // measure 27
0000
1000
0000
2000
,  // measure 28
0000
0000
3000
1001
,  // measure 29
0000
0000
0000
0110
,  // measure 30
0000
0000
0000
1001
,  // measure 31
0000
0001
0000
1000
,  // measure 32
0000
2000
0000
3000
,  // measure 33
0000
0001
0000
0001
,  // measure 34
0000
0000
0000
1000
,  // measure 35
0000
1000
0000
1000
,  // measure 36
0000
0000
0000
0001
,  // measure 37
0000
0000
0000
1000
,  // measure 38
0000
0000
0000
0001
,  // measure 39
0000
0000
0000
0100
,  // measure 40
0000
0100
0000
0200
,  // measure 41
0300
0100
0100
0100
,  // measure 42
0000
0000
0000
0001
,  // measure 43
0000
0001
0000
0001
,  // measure 44
0000
0000
0000
1000
,  // measure 45
0000
0000
0000
1000
,  // measure 46
0000
0000
0000
0001
,  // measure 47
0000
0000
0000
1001
,  // measure 48
0000
0010
0000
0000
;
