#TITLE:Destiny Sword;
#SUBTITLE:;
#ARTIST:CAPACITY GATE;
#TITLETRANSLIT:;
#SUBTITLETRANSLIT:;
#ARTISTTRANSLIT:;
#GENRE:;
#CREDIT:;
#MENUCOLOR:;
#METERTYPE:DDR;
#BANNER:Destiny Sword.png;
#BACKGROUND:Destiny Sword-bg.png;
#LYRICSPATH:;
#CDTITLE:cdtitle.png;
#MUSIC:Destiny Sword.mp3;
#OFFSET:-0.633;
#SAMPLESTART:6.780;
#SAMPLELENGTH:11.980;
#SELECTABLE:YES;
#LISTSORT:;
#BPMS:0.000=155.000;
#STOPS:236.000=0.194
,236.250=0.194
,236.500=0.194
,236.750=0.194
,237.000=0.194
,249.500=0.194
,249.750=0.194
,250.000=0.194
;
#BGCHANGES:;
#ATTACKS:;

//---------------dance-single - ----------------
#NOTES:
     dance-single:
     :
     Challenge:
     16:
     0.952,1.000,1.000,1.000,0.865:
0000
0000
0000
0000
,
0000
0000
0000
0000
,
0000
0000
0000
0000
,
0000
0000
0000
0000
,
1000
0000
0001
0000
1000
0010
0000
2000
0000
0000
3002
0000
0000
0000
1003
0100
,
1000
0000
0000
0101
0000
0000
2002
0000
0000
0000
3003
0000
0000
0000
0010
1000
,
0100
0000
0000
1010
0000
0000
0002
0000
1003
0000
0000
1100
0000
0000
0010
0000
,
2002
0000
0000
0000
3003
0000
0010
2000
0000
3001
0100
0001
1000
0001
0010
0001
,
1000
0000
1001
0000
0010
2000
0000
3001
0000
0000
0201
0000
0000
0000
0310
1000
,
0100
0000
0000
0101
0000
0000
2200
0000
0000
0000
3300
0000
0000
0000
0001
1000
,
0010
0000
0000
1100
0000
0000
0001
0000
0110
0000
0000
1010
0000
0000
1000
0000
,
2020
0000
0000
0000
3030
0000
0100
0010
2002
0000
0000
0000
3003
0000
0000
0000
,
1010
0000
0101
0000
0010
1000
0100
0020
0000
0030
2002
0000
3003
0000
0010
1000
,
0200
0000
0020
0300
0002
0030
2000
0003
0000
0000
3002
0000
2000
0003
0020
3000
,
0100
0030
1010
0000
0100
0001
0010
0200
0000
0300
2020
0000
3030
0000
0001
1000
,
0020
0000
2000
0030
0002
3000
0020
0003
0000
0000
0032
0000
2000
0003
0020
3000
,
0100
0030
0011
0000
0010
1000
0100
0020
0000
0030
2020
0000
3030
0000
0001
0100
,
0002
0000
0020
0003
0200
0030
2000
0300
0000
0000
3020
0000
0200
0030
2000
0300
,
0100
3000
0101
0000
0001
0010
0100
2000
0000
3000
0202
0000
0303
0000
0010
1000
,
0101
0000
0000
1010
0000
0000
0220
0000
0330
0000
0001
1000
0001
0100
0000
0000
,
1001
0000
0000
0000
0000
0000
0110
0000
0000
0000
0000
0000
0010
0000
0000
1000
0000
0000
0000
0000
0000
0101
0000
0000
0000
0000
0000
0000
0000
0000
2020
0000
0000
0000
0000
0000
3030
0000
0000
0000
0000
0000
1000
0000
0100
0000
0010
0000
,
0002
0000
0000
1003
0000
0000
0202
0000
0000
0000
0000
0000
0303
0000
0010
1000
,
0010
0000
0000
1100
0000
0000
0001
0000
0110
0000
0000
1001
0000
0000
0010
0000
,
2200
0000
0000
0000
3300
0000
0001
1000
0000
0010
0100
0010
1000
0100
0010
0001
,
1000
0000
0000
0000
0000
0000
0101
0000
0000
0000
0000
0000
0010
0000
0000
1000
0000
0000
0000
0000
0000
0101
0000
0000
0000
0000
0000
0000
0000
0000
2020
0000
0000
0000
0000
0000
3030
0000
0000
0000
0000
0000
0001
0000
0100
0000
0010
0000
,
1000
0000
0000
0101
0000
0000
2020
0000
0000
0000
0000
0000
3030
0000
0001
1000
,
0020
0000
0000
2000
0030
0000
0002
3000
0200
0003
0000
0020
0300
0000
1030
0000
,
1001
0000
0000
1010
0000
0000
0110
0000
0000
0101
0000
0000
0220
0000
0330
0000
,
1001
0000
1100
0000
0010
0100
0000
1000
0000
0010
0100
0000
0001
0000
1000
0000
,
1010
0000
0110
0000
0001
1000
0000
0010
0000
0100
0001
0000
0010
0000
0100
0000
,
1010
0000
0110
0000
0100
0001
0000
0010
0000
0001
0100
0000
0010
0000
1000
0000
,
0101
0000
0011
0000
0100
1000
0000
0010
0000
0100
0002
0000
0013
0000
1000
0000
,
0011
0000
0101
0000
0100
0010
0000
1000
0000
0010
0100
0000
1000
0000
0100
0000
,
0101
0000
1010
0000
0010
0100
0000
0010
0000
1000
0100
0000
0010
0000
0001
0000
,
0110
0000
1001
0000
1000
0100
0000
0001
0000
0100
1000
0000
0010
0000
0100
0000
,
0101
0000
0000
1010
0000
0000
0110
0000
0000
1001
0000
0000
1010
0000
0011
0000
,
1100
0000
0101
0000
1000
0010
0000
0100
0000
0001
0010
0100
1000
0001
0100
0010
,
1000
0000
0101
0000
0010
1000
0000
0101
0000
0220
0000
0330
0001
0000
1000
0000
,
0110
0000
1010
0000
1000
0100
0000
0110
0000
0010
0001
0010
0100
1000
0100
0010
,
0001
0000
1001
0000
1000
0010
0000
0100
0000
0002
0200
0303
1010
0000
0110
0000
,
0101
0000
0100
0000
0001
1000
0000
0010
0000
1000
0100
0010
0001
1000
0010
0100
,
0001
0000
0000
1000
0000
0000
0000
0000
0000
0001
0000
0000
0000
0000
0000
1000
0000
0000
0100
0000
0000
0010
0000
0000
0001
0000
0010
0000
0100
0000
1000
0000
0001
0000
0010
0000
0100
0000
1000
0000
0001
0000
0010
0000
0100
0000
1000
0000
,
0001
0000
0000
1001
0000
0000
0010
1000
0200
0000
0000
0000
0300
0000
0000
0000
,
0010
0001
1000
0000
0001
0000
1000
0010
0000
0100
0001
0000
0010
0000
1100
0000
,
0101
0000
0011
0000
0010
0001
0000
1000
0000
0100
1000
0000
0010
0000
0101
0000
,
0010
0000
1010
0000
0100
0001
0000
0010
0000
0100
0010
0000
0001
0000
0100
0000
,
0110
0000
1010
0000
0100
1000
0000
0001
0000
0100
0010
0000
1000
0000
0100
0000
,
2020
0000
0000
0000
3030
0000
1000
0001
0000
0100
0010
0100
1000
0100
0001
0010
,
0100
0000
1100
0000
0001
0100
0000
0010
0000
1000
0100
0000
0001
0000
1100
0000
,
0101
0000
0010
0000
1000
0100
0000
0001
0000
0100
1000
0010
0100
0000
0010
1000
,
0100
0000
1100
0000
0010
0000
0001
0010
0200
0000
0000
2300
0000
0000
3001
0000
,
2200
0000
3300
0000
0001
1000
0000
0220
0000
0000
0030
0000
0300
0000
0000
0000
,
1001
0000
0000
0000
0000
0000
1010
0000
0000
0000
0000
0000
0100
0000
0000
0001
0000
0000
0000
0000
0000
2010
0000
0000
0000
0000
0000
0000
0000
0000
3020
0000
0000
0000
0000
0000
0030
0000
0000
0000
0000
0000
1000
0000
0001
0000
1000
0000
,
0001
0000
0000
1010
0000
0000
0202
0000
0000
0000
0303
0000
0000
0000
1000
0100
,
0002
0000
0000
0200
0003
0000
0302
0000
0200
0003
0000
2000
0300
0000
3020
0000
,
0230
0000
0300
0000
0110
0000
0100
0001
0000
1000
0010
0100
0001
0010
0100
1000
,
0001
0000
0000
0000
0000
0000
1010
0000
0000
0000
0000
0000
0100
0000
0000
0001
0000
0000
0000
0000
0000
1020
0000
0000
0000
0000
0000
0000
0000
0000
0230
0000
0000
0000
0000
0000
0300
0000
0000
0000
0000
0000
0010
0000
1000
0000
0001
0000
,
0200
0000
0000
0320
0000
0000
2030
0000
0000
0000
3000
0000
0000
0000
0001
1000
,
0002
0000
0000
2000
0003
0000
3020
0000
0230
0000
0000
0002
0300
0000
1003
0000
,
0101
0110
1010
1100
2020
3030
1010
0000
0001
1000
0010
0100
0001
0010
0100
0000
,
2002
0000
3003
0000
0010
0000
1100
0000
0001
1000
0010
0000
0220
0000
0330
0000
,
0001
0000
1100
0000
0010
0000
0101
0000
0010
1000
0000
0001
0100
0010
0000
1000
,
0100
0010
0001
1000
0010
1000
0001
0110
1001
0000
0010
1000
0010
0100
0000
0001
,
2002
0000
0000
0000
,
0000
0000
0000
0000
,
3003
0000
0000
0000
;

//---------------dance-single - ----------------
#NOTES:
     dance-single:
     :
     Hard:
     15:
     0.770,0.937,0.372,0.697,0.809: // measure 1
0000
0000
0000
0000
,  // measure 2
0000
0000
0000
0000
,  // measure 3
0000
0000
0000
0000
,  // measure 4
0000
0000
0000
0000
,  // measure 5
0001
0000
1000
0000
0010
0100
0000
0002
0000
0000
0013
0000
0000
0000
0100
1000
,  // measure 6
0100
0000
0000
1100
0000
0000
0202
0000
0000
0000
0303
0000
0000
0000
0010
1000
,  // measure 7
0020
0000
0000
0230
0000
0000
0001
0000
0320
0000
0000
2030
0000
0000
0010
0000
,  // measure 8
3200
0000
0000
0000
0300
0000
0010
0001
0000
1000
0100
0010
0001
1000
0010
0100
,  // measure 9
0001
0000
1000
0000
0010
0100
0000
0002
0000
0000
1003
0000
0000
0000
0010
1000
,  // measure 10
0010
0000
0000
0011
0000
0000
2020
0000
0000
0000
3030
0000
0000
0000
0001
1000
,  // measure 11
0020
0000
0000
1000
0000
0000
0230
0000
0001
0000
0000
1000
0300
0000
0100
0000
,  // measure 12
0200
0000
0000
0000
0300
0000
0001
0010
0200
0000
0000
0000
0300
0000
0000
0000
,  // measure 13
0001
0000
1000
0000
0010
0100
0010
1000
0000
0000
1001
0000
0000
0000
0001
1000
,  // measure 14
0001
0010
0100
1001
0000
0010
1000
0100
,  // measure 15
0010
0000
0010
0000
0001
0100
0010
1000
0000
0000
1001
0000
0000
0000
0010
1000
,  // measure 16
0100
0010
0001
0110
0000
0110
1000
0100
,  // measure 17
0001
0000
0100
0000
1000
0010
0100
0001
0000
0000
1001
0000
0000
0000
0010
0100
,  // measure 18
0010
1000
0001
1010
0000
0100
0001
0010
,  // measure 19
0100
0000
1000
0000
0010
0100
0001
0010
0000
0000
0110
0000
0000
0000
0100
1000
,  // measure 20
0010
0000
0000
1100
0000
0000
0202
0000
0000
0300
1003
0000
0001
1000
0000
0001
,  // measure 21
1000
0000
0010
0000
0100
0001
0000
0101
0000
0000
1010
0000
0000
0000
0010
1000
,  // measure 22
0001
0000
0000
2010
0000
0000
0002
0000
0000
0000
3003
0000
0000
0000
0010
1000
,  // measure 23
0200
0000
0000
0320
0000
0000
0032
0000
0203
0000
0000
2300
0000
0000
3020
0000
,  // measure 24
0032
0000
0000
0000
0003
0000
1000
0010
0000
0100
0001
0010
0100
0010
0001
0100
,  // measure 25
0010
0000
1000
0000
0010
0100
0000
0110
0000
0000
1001
0000
0000
0000
0010
1000
,  // measure 26
0001
0000
0000
2010
0000
0000
0002
0000
0000
0000
3003
0000
0000
0000
0010
1000
,  // measure 27
0002
0000
0000
0100
0000
0000
0023
0000
0001
0000
0000
0230
0000
0000
1000
0000
,  // measure 28
0310
0000
0000
1001
0000
0000
0110
0000
0000
1010
0000
0000
0101
0000
0000
0000
,  // measure 29
1001
0000
0010
0000
0010
1000
0000
0001
0000
0001
0100
0000
0010
0000
1000
0000
,  // measure 30
0100
0000
0010
0000
0001
0100
0000
0010
0000
0010
1000
0000
0100
0000
0001
0000
,  // measure 31
0100
0000
1000
0000
0010
0100
0000
0001
0000
0100
0010
0000
1000
0000
0100
0000
,  // measure 32
0010
0000
0001
0000
0010
0100
0000
1000
0000
0100
0020
0000
0031
0000
0100
0000
,  // measure 33
0210
0000
0310
0000
1000
0100
0000
1000
0000
0010
0100
0000
0001
0000
0010
0000
,  // measure 34
0100
0000
1000
0000
0010
0100
0000
0001
0000
0100
0010
0000
1000
0000
0100
0000
,  // measure 35
0010
0000
0100
0000
1000
0010
0000
0100
0000
0001
0010
0000
0100
0000
1000
0000
,  // measure 36
2001
0000
0000
3020
0000
0000
0230
0000
0000
0302
0000
0000
0103
0000
0100
0000
,  // measure 37
0010
0000
0010
0000
1000
0100
0000
1000
0000
0001
0010
0100
1000
0100
0010
0001
,  // measure 38
1000
0000
1000
0000
0001
0100
0000
0100
0000
0010
0000
0000
0010
0000
1000
0000
,  // measure 39
0001
0000
0001
0000
1000
0010
0000
0010
0000
1000
0010
0100
0010
1000
0100
0010
,  // measure 40
0001
0000
0001
0000
1000
0010
0000
0010
0000
1000
0000
0000
0001
0000
0010
0000
,  // measure 41
0100
0000
1000
0000
0010
0100
0000
0100
0000
0001
1000
0001
1000
0010
0100
0010
,  // measure 42
0100
0010
0000
0010
0000
1000
0100
0010
0001
1000
0100
0010
0001
1000
0010
0100
,  // measure 43
0001
0000
0000
1000
0000
0000
1000
0001
0200
0000
0000
0000
0300
0000
0000
0000
,  // measure 44
0010
1000
0010
0000
0010
0000
0100
0001
0000
0100
0010
0000
0100
0000
0001
0000
,  // measure 45
0010
0000
0100
0000
1000
0010
0000
2000
0000
0000
3001
0000
0000
0000
0001
1000
,  // measure 46
0002
0000
0000
0203
0000
0000
0320
0000
0000
0000
0030
0000
0000
0000
1000
0001
,  // measure 47
2000
0000
0000
0010
0000
0000
0001
0000
3200
0000
0000
0010
0000
0000
0001
0000
,  // measure 48
2300
0000
0000
0000
3000
0000
0001
1000
0000
0001
1000
0001
0010
0100
1000
0010
,  // measure 49
0100
0000
0100
0000
0001
1000
0000
0002
0000
0000
0013
0000
0000
0000
0100
1000
,  // measure 50
0200
0000
0000
0320
0000
0000
0032
0000
0000
0000
0003
0000
0000
0000
1000
0001
,  // measure 51
2000
0000
0000
0000
3000
0000
0001
1000
0002
0000
0000
0023
0000
0000
0130
0000
,  // measure 52
0220
0000
0330
0000
1000
0001
0000
2002
0000
0000
0000
0000
3003
0000
0000
0000
,  // measure 53
1001
0000
1000
0000
0001
0100
0000
0001
0000
0000
1001
0000
0000
0000
0001
1000
,  // measure 54
0100
0000
0000
0101
0000
0000
0220
0000
0000
0000
0330
0000
0000
0000
1000
0001
,  // measure 55
0200
0000
0000
0010
0000
0000
0302
0000
0100
0000
0000
2003
0000
0000
0100
0000
,  // measure 56
0002
0000
0000
0000
3003
0000
1000
0001
0000
1000
0001
1000
0010
0100
0001
0010
,  // measure 57
0100
0000
0000
0000
0000
0000
0110
0000
0000
0000
0000
0000
0010
0000
0000
0001
0000
0000
0000
0000
0000
0200
0000
0000
0000
0000
0000
0000
0000
0000
0310
0000
0000
0000
0000
0000
0000
0000
0000
0000
0000
0000
1000
0000
0100
0000
0010
0000
,  // measure 58
0001
0000
0000
1001
0000
0000
0220
0000
0000
0000
0330
0000
0000
0000
1000
0001
,  // measure 59
0200
0000
0000
0320
0000
0000
2030
0000
3200
0000
0000
0320
0000
0000
0032
0000
,  // measure 60
1003
0101
1100
0011
1010
0000
0001
0000
1000
0100
0010
0001
1000
0100
0020
0000
,  // measure 61
0031
0000
0000
0000
1000
0000
0010
0000
0100
0001
0010
0000
0100
0000
0000
0000
,  // measure 62
1000
0000
0001
0000
1000
0000
0010
0000
0100
0001
0000
0100
0001
0100
0000
0010
,  // measure 63
1000
0100
0010
0001
0010
0100
2000
0001
3001
0000
1000
0001
1000
0001
0000
2000
,  // measure 64
0002
0000
0000
0000
,  // measure 65
0000
0000
0000
0000
,  // measure 66
3003
0000
0000
0000
;

//---------------dance-single - ----------------
#NOTES:
     dance-single:
     :
     Medium:
     10:
     0.487,0.604,0.149,0.297,0.056:
0000
0000
0000
0000
,
0000
0000
0000
0000
,
0000
0000
0000
0000
,
0000
0000
0000
0000
,
0001
1000
0001
0000
0020
0000
0230
0000
,
1300
0010
1000
0000
1001
0000
0000
0000
,
0001
1000
0001
0000
1000
0001
1000
0000
,
2010
3200
0320
0032
,
1003
0010
1000
0000
0200
0000
0320
0000
,
0031
1000
0001
0000
0101
0000
0000
0000
,
0010
1000
0010
0000
0100
0001
0100
0000
,
0020
0000
0230
0000
,
0310
0010
0100
0100
,
0001
0000
0001
0000
1000
0001
1000
0000
,
0010
1000
0010
1000
,
0001
0000
0100
0000
0001
0010
0100
1000
,
0001
0001
1000
1000
,
0010
0000
0100
0000
0010
1000
0010
0000
,
0100
0001
1000
0010
,
0110
0000
0000
0110
0000
0000
0000
0000
,
1000
0010
0200
0000
0001
0000
0001
0000
,
0301
0010
0100
1000
1001
0000
0000
0000
,
1000
0001
1000
0000
0001
0100
0001
0010
,
0200
1000
1000
1300
,
0010
0001
0100
0000
0010
1000
0100
0000
,
1000
0001
1000
0001
1001
0000
0000
0000
,
0010
1000
0001
0000
0010
0001
1000
0000
,
0001
0000
0000
0001
0000
0000
0001
0000
0000
0001
0000
0000
0001
0000
0000
0000
,
1000
0010
0100
0001
0000
1000
0000
0010
,
0100
0010
1000
0100
0000
0010
0000
0001
,
0100
0001
0010
0100
0000
1000
0000
0010
,
0100
0001
1000
0010
0000
1000
0000
0001
,
0010
0001
1000
0100
0000
0010
0000
0001
,
1000
0010
0100
0001
0000
1000
0000
0010
,
0100
0010
1000
0100
0000
0010
0000
0001
,
1000
0000
0000
1000
0000
0000
1000
0000
0000
1000
0000
0000
1000
0000
1000
0000
,
1000
0000
0001
0000
1000
0000
0000
0001
0000
0000
1000
0000
0001
0000
0010
0000
,
0100
0000
1000
0000
0010
0000
0000
0100
0000
0000
0001
0000
1000
0000
0001
0000
,
1000
0000
0010
0000
0100
0000
0000
0001
0000
0000
0100
0000
0010
0000
1000
0000
,
0100
0000
0010
0000
0001
0000
0000
1000
0000
0000
0100
0000
0010
0000
0001
0000
,
1000
0000
0010
0000
1000
0000
0000
0010
0000
0000
0010
0000
1000
0000
0001
0000
,
0110
0000
0001
1000
0010
0100
0001
0010
,
1001
0000
0001
1000
1001
0000
0000
0000
,
0010
1000
0010
0000
2000
0000
3002
0000
,
1003
0010
1000
0010
1000
0000
0001
0000
,
1000
0100
1000
0000
1001
0000
0000
0000
,
0001
0010
0100
0000
0001
0010
0100
0000
,
2000
3200
0302
0023
,
1030
0100
1000
0100
0010
0000
0001
0000
,
1000
0010
0100
0000
1001
0000
0000
0001
,
2000
0000
0000
3001
0200
0000
0010
0300
,
0010
1000
0100
0010
1001
0000
0000
0000
,
0001
1000
0001
0100
0001
0000
1000
0000
,
1000
0100
1000
0000
1001
0000
0000
0000
,
0010
1000
0100
0000
0100
1000
0010
0000
,
0200
0302
0023
2030
,
3100
0001
0100
0000
0020
0000
2030
0000
,
3100
0010
0001
0000
2002
0000
3003
0000
,
0010
1000
0010
1000
0001
0100
0001
0100
,
0020
1000
1000
1000
1030
0000
1000
0000
0001
0000
0100
0000
0001
0000
0100
0000
,
0010
0000
1000
0001
1000
0100
0010
0000
,
0001
1000
0001
1000
0000
0001
1000
0001
,
0000
0000
1000
0000
0000
0000
0002
1000
1003
0000
0001
0000
1000
0000
0000
0000
,
2002
0000
0000
0000
,
0000
0000
0000
0000
,
3003
0000
0000
0000
;

//---------------dance-single - ----------------
#NOTES:
     dance-single:
     :
     Easy:
     8:
     0.359,0.423,0.084,0.297,0.000:
0000
0000
0000
0000
,
0000
0000
0000
0000
,
0000
0000
0000
0000
,
0000
0000
0000
0000
,
1000
1000
0001
0001
,
1000
0001
1000
0000
1001
0000
0000
0000
,
0010
1000
0010
1000
,
0100
0010
0001
0010
,
0100
0100
0010
0010
,
0100
1000
0100
0000
1100
0000
0000
0000
,
0001
1000
0001
0001
,
2000
0000
3002
0000
,
1003
1000
0100
0100
,
0001
0001
0010
0010
,
0001
0001
0100
0100
,
1000
0000
1000
0000
0010
0100
0010
0100
,
0010
1000
0001
0010
,
0001
1000
0100
1000
,
0010
0100
0010
1000
,
2002
0000
0000
3003
0000
0000
1000
0000
,
0001
1000
0010
0010
,
0100
0001
0100
0000
1010
0000
0000
0000
,
0001
0100
0010
1000
,
0100
1000
0010
0000
0100
0001
0010
0000
,
0001
0001
1000
1000
,
0010
1000
0010
0000
0110
0000
0000
0000
,
0010
1000
0001
0100
,
0002
0000
0000
1000
0000
0000
1003
0000
,
0010
0010
1000
1000
,
0001
0100
0001
0100
,
0010
0010
0100
0100
,
0001
0010
0001
0010
,
0100
0100
1000
1000
,
0010
0100
0010
0100
,
0001
0001
1000
1000
,
0010
0000
0000
0010
0000
0000
0010
0000
,
1000
0001
2000
0000
,
3001
1000
0002
0000
,
1003
0010
2000
0000
,
3001
0010
0002
0000
,
0103
0001
0100
0010
,
1000
0100
1000
0010
,
1000
0001
1000
0000
0001
1000
0001
0000
,
2000
0001
0001
3001
,
0010
1000
0010
0100
,
0002
0023
0230
0300
,
1000
0010
0100
0010
,
2000
3200
0320
0030
,
0001
0100
0001
0010
,
0200
2300
3020
0030
,
0100
0001
0100
0010
,
1000
0001
1000
0000
0110
0000
0000
0000
,
0001
1000
0001
0000
1000
0010
1000
0000
,
0002
2003
3002
0003
,
0001
0010
0001
0000
1000
0100
1000
0000
,
0020
2030
3200
0310
,
0001
0100
0001
0000
1000
0001
1000
0000
,
0020
2030
3002
0003
,
1001
0000
0110
0000
,
1001
0001
0001
2000
0000
0000
0000
3001
,
0000
0000
0000
0002
0000
0000
0000
1003
,
0000
0000
0000
0010
0000
1000
0000
0001
,
0000
0100
0000
0002
1003
0000
0000
0000
,
0002
0000
0000
0000
,
0000
0000
0000
0000
,
0003
0000
0000
0000
;

//---------------dance-single - ----------------
#NOTES:
     dance-single:
     :
     Beginner:
     3:
     0.161,0.176,0.074,0.065,0.000:
0000
0000
0000
0000
,
0000
0000
0000
0000
,
0000
0000
0000
0000
,
0000
0000
0000
0000
,
0001
0000
0001
0000
,
1000
0000
1000
0000
,
0010
0000
0010
0000
,
0100
0000
0000
0000
,
1000
0000
1000
0000
,
0001
0000
0001
0000
,
0010
0000
0010
0000
,
0100
0000
1000
0000
,
0010
0000
0010
0000
,
1000
0000
1000
0000
,
0001
0000
0001
0000
,
1000
0000
0001
0000
,
1000
0000
0010
0000
,
0100
0000
0001
0000
,
0010
0000
0001
0000
,
0200
0000
0000
0300
0000
0000
0000
0000
,
0010
0000
0010
0000
,
1000
0000
1000
0000
,
0001
0000
0001
0000
,
0200
0000
0300
0000
,
0010
0000
1000
0000
,
0001
0000
0100
0000
,
0010
0000
1000
0000
,
0200
0000
0000
0300
,
0010
0000
0010
0000
,
0100
0000
0100
0000
,
1000
0000
0001
0000
,
1000
0000
0001
0000
,
0010
0000
0010
0000
,
0100
0000
0100
0000
,
1000
0000
0001
0000
,
1000
0000
0001
0000
,
1001
0000
0000
0000
,
1001
0000
0000
0000
,
0110
0000
0000
0000
,
0110
0000
0000
0000
,
0002
0000
0003
0000
,
2000
0000
3000
0000
,
0010
0000
0100
0000
,
0010
0000
1000
0000
,
0001
0000
0001
0000
,
1000
0000
1000
0000
,
0010
0000
1000
0000
,
0001
0000
0100
0000
,
0010
0000
1000
0000
,
0010
0000
0100
0000
,
0010
0000
1000
0000
,
0200
0000
0300
0000
,
1001
0000
0100
0000
,
0010
0000
1000
0000
,
0001
0000
0100
0000
,
0020
0000
0030
0000
,
1000
0000
1000
0000
,
0001
0000
0001
0000
,
0100
0000
0100
0000
,
0010
0000
0000
1000
0000
0000
0000
1000
,
0000
0000
0000
0001
0000
0000
0000
0001
,
0000
0000
0000
1001
0000
0000
0000
0000
,
0000
0000
0000
1001
0000
0000
0000
0000
,
1001
0000
0000
0000
;
