#TITLE:FLY WITH YOU;
#SUBTITLE:;
#ARTIST:DJ FADE;
#TITLETRANSLIT:;
#SUBTITLETRANSLIT:;
#ARTISTTRANSLIT:;
#GENRE:HAPPY HARDCORE;
#CREDIT:Single (2003)/Dancemania SPEED 10 (2002);
#BANNER:FLY WITH YOU.png;
#BACKGROUND:FLY WITH YOU-bg.png;
#LYRICSPATH:FLY WITH YOU.lrc;
#CDTITLE:;
#MUSIC:FLY WITH YOU.ogg;
#OFFSET:-2.828996;
#SAMPLESTART:22.594000;
#SAMPLELENGTH:15.000000;
#LASTBEATHINT:348.000000;
#SELECTABLE:YES;
#BPMS:0.000000=170.000000
,184.000000=85.000000
,216.000000=170.000000
;
#STOPS:
;
#BGCHANGES:;
#KEYSOUNDS:;
#ATTACKS:;

//---------------dance-single - ----------------
#NOTES:
     dance-single:
     Riakodoadm:
     Easy:
     6:
     0.372755,0.433857,0.462588,0.000000,0.000000,361.000000,297.000000,64.000000,0.000000,0.000000,0.000000,0.372755,0.433857,0.462588,0.000000,0.000000,361.000000,297.000000,64.000000,0.000000,0.000000,0.000000:
0000
0000
0000
0000
,
0000
0000
0000
0000
,
0000
0000
0000
0000
,
0000
0000
0000
0000
,
0000
0000
0000
0000
,
0000
0000
0000
0000
,
1000
0001
1000
0001
,
1001
1000
1001
0000
,
0010
0100
0010
0100
,
1001
0001
1001
0000
,
0001
1000
0001
1000
,
1001
1000
1001
0000
,
0100
0010
0100
0010
,
1001
0001
1001
0000
,
0001
0100
0010
1000
,
1001
1001
1001
0000
,
1000
0100
0010
0001
,
1001
1001
1001
0000
,
0001
0010
0100
1000
,
0110
0110
0110
0000
,
1000
0010
0100
0001
,
0110
0110
0110
0000
,
1000
0100
0010
0001
,
1000
0100
0010
0001
,
0100
0100
0010
0010
,
0100
0100
0010
0100
,
0001
0100
0010
1000
,
0001
0100
0010
1000
,
0100
0100
0010
0010
,
0100
0100
0010
0100
,
1000
0010
0100
0001
,
1000
0010
0100
0001
,
0010
0010
0100
0100
,
0010
0010
0100
0010
,
0001
0010
0100
1000
,
0001
0010
0100
1000
,
0010
0010
0100
0100
,
0010
0010
0100
0010
,
0001
0001
1001
1000
,
0001
1000
1001
0001
,
0100
0100
0110
0010
,
0100
0010
0110
0100
,
0001
0001
0101
0100
,
0001
0100
0101
0001
,
1000
1000
1100
0100
,
1000
0100
1100
1000
,
1001
0010
0100
0010
,
1001
0100
0001
0010
,
1001
0100
0010
0100
,
1001
0100
1000
0010
,
1010
0100
0001
0100
,
0011
0100
1000
0100
,
1100
1000
0010
0001
,
0101
0001
0010
1000
,
0010
0000
0001
0000
,
1000
0000
0100
0000
,
0010
0000
1000
0000
,
0001
0000
0100
0000
,
1000
1000
0001
0000
,
0001
0001
1000
0000
,
1000
0100
0010
0001
,
0100
0010
1000
0000
,
1000
0100
0001
0100
,
1001
1001
0110
0000
,
0001
0100
1000
0100
,
1001
1001
0110
0000
,
1000
0010
0100
0001
,
0110
0110
1001
0000
,
0001
0010
0100
1000
,
0110
0110
1001
0000
,
1000
0100
0001
0010
,
0110
1001
0110
1001
,
0001
0100
1000
0010
,
0110
1001
0110
1001
,
1000
0010
0001
0100
,
1001
0110
1001
0110
,
0001
0010
1000
0100
,
0110
1001
0110
1001
,
1000
0100
0001
0100
,
1000
0100
0001
0100
,
1000
0010
0001
0010
,
1000
0010
0001
0010
,
0001
0100
1000
0100
,
0001
0100
1000
0100
,
0001
0010
1000
0010
,
0001
0010
1000
0010
;

//---------------dance-single - ----------------
#NOTES:
     dance-single:
     Riakodoadm:
     Hard:
     15:
     0.750673,0.935115,0.368625,0.448132,0.462588,727.000000,676.000000,51.000000,62.000000,0.000000,0.000000,0.750673,0.935115,0.368625,0.448132,0.462588,727.000000,676.000000,51.000000,62.000000,0.000000,0.000000:
// measure 0
0000
0000
0000
0000
,  // measure 1
0000
0000
0000
0000
,  // measure 2
0000
1000
0000
0001
0000
1000
0000
0001
,  // measure 3
0000
0100
0000
0010
0000
0100
0000
0010
,  // measure 4
0000
1000
0000
0100
0000
0010
0000
0001
,  // measure 5
0000
0100
0000
0010
0000
1000
0000
0001
,  // measure 6
0000
1000
0100
0000
0000
1000
0100
0000
0000
0010
0001
0000
0000
0010
0001
0000
,  // measure 7
1000
0001
1000
0001
2000
3020
0230
0300
,  // measure 8
0000
0001
0100
0000
0000
0001
0100
0000
0000
0010
1000
0000
0000
0010
1000
0000
,  // measure 9
0001
1000
0001
1000
0002
0023
0230
0300
,  // measure 10
0000
1000
0010
0000
0000
1000
0010
0000
0000
0100
0001
0000
0000
0100
0001
0000
,  // measure 11
1000
0010
1000
0001
0020
0230
2300
3000
,  // measure 12
0000
0001
0010
0000
0000
0001
0010
0000
0000
0100
1000
0000
0000
0100
1000
0000
,  // measure 13
0001
0010
0001
1000
0020
0230
0302
0003
,  // measure 14
1000
0100
1000
0000
0001
0100
0001
0000
1000
0100
1000
0000
0001
0100
0001
0000
,  // measure 15
1000
0100
0001
0100
2000
3002
2003
3000
,  // measure 16
0001
0100
0001
0000
1000
0100
1000
0000
0001
0100
0001
0000
1000
0100
1000
0000
,  // measure 17
0001
0100
1000
0100
0002
2003
3002
0003
,  // measure 18
1000
0010
1000
0000
1000
0100
1000
0000
0001
0010
0001
0000
0001
0100
0001
0000
,  // measure 19
1000
0010
0001
0010
2000
3200
0320
0030
,  // measure 20
0001
0010
0001
0000
0001
0100
0001
0000
1000
0010
1000
0000
1000
0100
1000
0000
,  // measure 21
0001
0010
1000
0010
0002
0203
0320
0030
,  // measure 22
1000
0100
1000
0100
0010
0100
0010
0100
,  // measure 23
0010
0001
0010
0001
0100
0001
0100
0001
,  // measure 24
1000
0100
1000
0100
0001
0100
0001
0100
,  // measure 25
1000
0010
0001
0010
1000
0010
0100
0001
,  // measure 26
0001
0100
0001
0100
0010
0100
0010
0100
,  // measure 27
0010
1000
0010
1000
0100
1000
0100
1000
,  // measure 28
0001
0100
0001
0100
1000
0100
1000
0100
,  // measure 29
0001
0010
1000
0010
0001
0010
0100
1000
,  // measure 30
1000
0000
0000
0100
1000
0000
0001
0000
0100
0000
0000
0010
0100
0000
0001
0000
,  // measure 31
0010
0000
0000
0001
0100
0000
1000
0000
0100
0000
0000
0100
0010
0000
1000
0000
,  // measure 32
0001
0000
0000
0100
0001
0000
1000
0000
0100
0000
0000
0010
0100
0000
1000
0000
,  // measure 33
0010
0000
0000
1000
0100
0000
0001
0000
0100
0000
0000
0010
0100
0000
1000
0000
,  // measure 34
0010
0000
0000
0100
0001
0000
0010
0000
1000
0000
0000
0010
0001
0000
0100
0000
,  // measure 35
0010
0000
0000
1000
0100
0000
0010
0000
0100
0000
0000
0100
1000
0000
0001
0000
,  // measure 36
0010
0000
0000
0001
0100
0000
1000
0000
0100
0000
0000
0010
0100
0000
0001
0000
,  // measure 37
0010
0000
0000
0001
0100
0000
0010
0000
1000
0000
0000
1000
0100
0000
0010
0000
,  // measure 38
0001
1000
0100
0010
0110
0000
0011
0000
,  // measure 39
0001
0100
0000
0010
0110
0000
1010
0000
,  // measure 40
0010
0100
0001
0010
0110
0000
1100
0000
,  // measure 41
0100
1000
0000
0010
0110
0000
0101
0000
,  // measure 42
1000
0001
0100
0010
0110
0000
1010
0000
,  // measure 43
1000
0100
0000
0010
0110
0000
0011
0000
,  // measure 44
0010
0100
1000
0010
0110
0000
0101
0000
,  // measure 45
0100
0001
0000
0010
0110
0000
1100
0100
,  // measure 46
1002
0000
0000
0100
0100
0000
0000
0010
0013
0000
0100
1000
0001
0010
0100
1000
,  // measure 47
1020
0000
0000
1000
1000
0000
0000
0100
0130
0000
0010
1000
0001
0010
0100
1000
,  // measure 48
2001
0000
0000
0100
0100
0000
0000
0010
3010
0000
0100
0001
1000
0010
0100
0001
,  // measure 49
0021
0000
0000
0001
0001
0000
0000
0100
0130
0000
0010
0001
1000
0100
0010
0001
,  // measure 50
0021
0000
0000
0130
0210
0000
0000
1300
1100
0000
1000
0100
0010
0001
0100
0010
,  // measure 51
1020
0000
0000
0130
0210
0000
0000
0301
0101
0000
0001
0100
0010
1000
0001
1000
,  // measure 52
2100
0000
0000
3001
1002
0000
0000
0103
0101
0000
0100
1000
0100
0001
0010
0001
,  // measure 53
0021
0000
0000
0031
2001
0000
0000
3010
1010
0000
0010
0001
0010
1000
0100
0010
,  // measure 54
0001
0000
0100
0001
1000
1001
0000
0100
,  // measure 55
0110
0000
0010
1001
0000
1001
0100
0000
,  // measure 56
0001
1000
0000
1000
0001
1001
0000
0010
,  // measure 57
1100
1000
0000
0010
0101
0001
0000
0001
,  // measure 58
1000
0100
1000
0100
0010
0001
0010
0001
,  // measure 59
0100
0001
0100
0001
1000
0010
1000
0010
,  // measure 60
1000
0100
1000
0000
0010
0000
0100
0000
0001
0100
0001
0000
0010
0000
0100
0000
,  // measure 61
1000
0010
1000
0000
0001
0010
0001
0000
1000
0100
1000
0001
0100
0001
1000
0001
,  // measure 62
1000
0100
0010
0000
0001
0100
0010
0000
1000
0100
0010
0000
0001
0100
0010
0000
,  // measure 63
1000
1000
0001
0001
0200
0320
2030
3000
,  // measure 64
0001
0100
0010
0000
1000
0100
0010
0000
0001
0100
0010
0000
1000
0100
0010
0000
,  // measure 65
0001
0001
1000
1000
0020
0230
0302
0003
,  // measure 66
1000
0010
0100
0000
0001
0010
0100
0000
1000
0010
0100
0000
0001
0010
0100
0000
,  // measure 67
1000
1000
0001
0001
0020
0230
2300
3000
,  // measure 68
0001
0010
0100
0000
1000
0010
0100
0000
0001
0010
0100
0000
1000
0010
0100
0000
,  // measure 69
0001
0001
1000
1000
0200
0320
0032
0003
,  // measure 70
1000
0001
0010
0000
0100
1000
0010
0000
0100
0001
0010
0000
0001
1000
0010
0000
,  // measure 71
1000
1000
0100
0100
0020
0032
2003
3000
,  // measure 72
0001
1000
0100
0000
0010
0001
0100
0000
0010
1000
0100
0000
1000
0001
0100
0000
,  // measure 73
0001
0001
0100
0100
0020
2030
3002
0003
,  // measure 74
1000
0100
0010
0000
0010
0001
0100
0000
0001
0100
0010
0000
0010
1000
0100
0000
,  // measure 75
1000
1000
0001
0001
0200
2300
3200
0300
,  // measure 76
0001
0100
0010
0000
0010
1000
0100
0000
1000
0100
0010
0000
0010
0001
0100
0000
,  // measure 77
0001
0001
1000
1000
0200
0302
0203
0300
,  // measure 78
1000
0100
0001
0100
1000
0001
0101
0000
,  // measure 79
0001
1000
0000
0100
0110
0000
0011
0000
,  // measure 80
0001
0100
1000
0100
0001
1000
1100
0000
,  // measure 81
1000
0001
0000
0100
0110
0000
1010
0000
,  // measure 82
1000
0100
0010
0001
1000
0100
0011
0000
,  // measure 83
0010
0100
0000
0100
1100
0000
1001
0000
,  // measure 84
0001
0100
0010
1000
0001
0100
1010
0000
,  // measure 85
0010
0100
0000
0100
0101
0000
2002
0000
,  // measure 86
0000
3003
0000
0000
;

//---------------dance-single - ----------------
#NOTES:
     dance-single:
     Riakodoadm:
     Medium:
     11:
     0.535900,0.682769,0.455360,0.028912,0.115647,519.000000,456.000000,63.000000,4.000000,0.000000,0.000000,0.535900,0.682769,0.455360,0.028912,0.115647,519.000000,456.000000,63.000000,4.000000,0.000000,0.000000:
0000
0000
0000
0000
,
0000
0000
0000
0000
,
0000
0000
0000
0000
,
0000
0000
0000
0000
,
0000
0000
0000
0000
,
0000
0000
0000
0000
,
0000
1000
0000
0100
0000
0010
0000
0001
,
1000
0000
0100
0000
0010
0001
0100
0000
,
0000
0001
0000
0100
0000
0010
0000
1000
,
0001
0000
0100
0000
0010
1000
0100
0000
,
0000
1000
0000
0010
0000
0100
0000
0001
,
1000
0000
0010
0000
0100
0001
1000
0000
,
0000
0001
0000
0010
0000
0100
0000
1000
,
0001
0000
0010
0000
0100
1000
0001
0000
,
1000
0001
0000
0010
0000
0001
0000
0100
,
0010
0100
0010
0000
1000
0001
1000
0000
,
0001
1000
0000
0010
0000
1000
0000
0100
,
0010
0100
0010
0000
0001
1000
0001
0000
,
1000
0100
0000
0001
0000
0100
0000
1000
,
0010
0100
0010
0000
0100
0001
0010
0000
,
0001
0100
0000
1000
0000
0100
0000
0001
,
0010
0100
0010
0000
0100
1000
0010
0000
,
1000
0100
0010
1001
,
1000
0100
0001
0110
,
0100
0001
0010
1001
,
0001
0000
0100
0000
1000
0000
1000
0001
,
0001
0100
0010
1001
,
0001
0100
1000
0110
,
0100
1000
0010
1001
,
1000
0000
0100
0000
0001
0000
0001
1000
,
1100
0000
0000
1000
0100
0000
0000
0000
1100
0000
0000
0100
1000
0000
0000
0000
,
0101
0000
0000
0001
0100
0000
0000
0000
0101
0000
0000
0100
0001
0000
0000
0000
,
1010
0000
0000
1000
0010
0000
0000
0000
1010
0000
0000
0010
1000
0000
0000
0000
,
0011
0000
0000
0001
0010
0000
0000
0000
0011
0000
0000
0010
0001
0000
0000
0000
,
0101
0000
0000
0010
1000
0000
0000
0000
1010
0000
0000
1000
0100
0000
0000
0000
,
1100
0000
0000
0010
0001
0000
0000
0000
0011
0000
0000
0001
0100
0000
0000
0000
,
0110
0000
0000
0010
1000
0000
0000
0000
0101
0000
0000
0001
0010
0000
0000
0000
,
0110
0000
0000
0010
0001
0000
0000
0000
1100
0000
0000
1000
0001
0000
1000
0000
,
1000
0100
0100
0010
0010
0000
1001
0000
,
0100
0010
0000
0100
0010
0000
0110
0000
,
0000
0010
0010
0100
0100
0000
1001
0000
,
0010
0100
0000
0010
0100
0000
0110
0000
,
0000
1000
1000
0100
0100
0000
0101
0000
,
0100
0010
0000
1000
0001
0000
1001
0000
,
0000
0001
0001
0100
0100
0000
1100
0000
,
0100
0010
0000
0001
1000
0000
0001
0001
,
1010
0000
0000
0000
1100
0000
0000
1000
0100
0000
0100
0000
0010
0001
0010
0000
,
0011
0000
0000
0000
0101
0000
0000
0001
0100
0000
0100
0000
0010
1000
0010
0000
,
1010
0000
0000
0000
0101
0000
0000
0100
0001
0000
0001
0000
1000
0010
1000
0000
,
0011
0000
0000
0000
1100
0000
0000
0100
1000
0000
1000
0000
0001
0010
0001
0000
,
1001
0000
0000
0000
0011
0000
0000
0001
0010
0000
0010
0000
0100
1000
0100
0000
,
1001
0000
0000
0000
1010
0000
0000
1000
0010
0000
0010
0000
0100
0001
0100
0000
,
1010
0000
0000
0000
1100
0000
0000
1000
0100
0000
0010
0000
0001
1000
0100
0000
,
0011
0000
0000
0000
0101
0000
0000
0001
0100
0000
0010
0000
1000
0001
0100
0000
,
0001
0000
0001
0000
0001
1000
1000
0000
,
1001
0000
0000
1100
0000
0011
0000
0000
,
1000
0000
1000
0000
1000
0001
0001
0000
,
1001
0000
0000
0001
1001
0000
0000
1000
,
1001
0000
0100
0000
0010
0001
0100
0000
,
1000
0000
0100
0000
0010
1000
0100
0000
,
0010
0001
0100
0010
1000
0100
0010
0001
,
1000
0100
0010
0001
0010
0100
1000
0010
,
1000
0100
0001
0100
,
0010
0100
0010
0100
1000
0010
0100
0000
,
0001
0100
1000
0100
,
0010
0100
0010
0100
0001
0010
0100
0000
,
0010
0001
0100
1000
,
0010
1000
0010
1000
0010
0100
0001
0000
,
0010
1000
0100
0001
,
0010
0001
0010
0001
0010
0100
1000
0000
,
1000
0100
0010
0001
1000
0100
0010
0001
,
1000
1000
0001
0001
0010
0100
0020
0030
,
0001
0100
0010
1000
0001
0100
0010
1000
,
0001
0001
1000
1000
0100
0010
0200
0300
,
1000
0010
0100
0001
1000
0010
0100
0001
,
1000
1000
0001
0001
0010
0100
0020
0030
,
0001
0010
0100
1000
0001
0010
0100
1000
,
0001
0001
1000
1000
0100
0010
0200
0300
,
1001
0000
1000
0001
1000
0000
1100
0000
,
0100
0010
0000
0100
0010
0000
0011
0000
,
0101
0000
0001
0100
0010
0000
0110
0000
,
0010
1000
0000
0100
0001
0000
0110
0000
,
1001
0000
0001
1000
0001
0000
0101
0000
,
0100
0010
0000
0100
0010
0000
1010
0000
,
1100
0000
1000
0100
0010
0000
0110
0000
,
0010
0001
0000
0100
0000
1000
0000
1001
;

//---------------dance-single - ----------------
#NOTES:
     dance-single:
     Riakodoadm:
     Beginner:
     4:
     0.204447,0.340888,0.202382,0.202382,0.000000,198.000000,170.000000,28.000000,28.000000,0.000000,0.000000,0.204447,0.340888,0.202382,0.202382,0.000000,198.000000,170.000000,28.000000,28.000000,0.000000,0.000000:
0000
0000
0000
0000
,
0000
0000
0000
0000
,
0000
0000
0000
0000
,
0000
0000
0000
0000
,
0000
0000
0000
0000
,
0000
0000
0000
0000
,
2000
0000
0000
3000
,
1000
1000
1000
0000
,
0002
0000
0000
0003
,
0001
0001
0001
0000
,
2000
0000
0000
3000
,
1000
0001
1000
0000
,
0002
0000
0000
0003
,
1000
0001
1000
0000
,
1001
0000
0000
0000
,
0100
0100
0100
0000
,
1001
0000
0000
0000
,
0010
0010
0010
0000
,
0110
0000
0000
0000
,
1000
0100
1000
0000
,
0110
0000
0000
0000
,
0001
0100
0001
0000
,
1000
0000
1000
0000
,
0001
0000
0001
0000
,
0100
0000
1000
0000
,
0100
0000
0001
0000
,
1000
0000
1000
0000
,
0001
0000
0001
0000
,
0010
0000
1000
0000
,
0010
0000
0001
0000
,
1000
2000
3000
0000
,
0001
0002
0003
0000
,
1000
0002
0003
0000
,
0001
2000
3000
0000
,
0100
0200
0300
0000
,
0010
0020
0030
0000
,
0100
0020
0030
0000
,
0010
0200
0300
0000
,
1000
1000
1000
1000
,
1000
0000
0000
0000
,
0001
0001
0001
0001
,
0001
0000
0000
0000
,
1000
0001
1000
0001
,
1000
0000
0000
0000
,
0001
1000
0001
1000
,
0001
0000
0000
0000
,
2002
0000
3003
0000
,
2002
0000
3003
0000
,
0220
0000
0330
0000
,
0220
0000
0330
0000
,
2002
0000
3003
0000
,
0220
0000
0330
0000
,
2002
0000
3003
0000
,
0220
0000
0330
0000
,
1000
0000
0001
0000
,
0100
0000
0100
0000
,
0001
0000
1000
0000
,
0100
0000
0100
0000
,
1000
0001
1000
0000
,
0100
0000
0100
0000
,
0001
1000
0001
0000
,
0100
0000
0100
0000
,
0010
0000
0000
0000
,
1000
1000
1001
0000
,
0010
0000
0000
0000
,
0001
0001
1001
0000
,
1000
0000
0000
0000
,
0100
0100
0110
0000
,
0001
0000
0000
0000
,
0010
0010
0110
0000
,
0010
0000
0010
0000
,
1001
1001
1001
0000
,
1000
0000
1000
0000
,
0110
0110
0110
0000
,
0100
0000
0100
0000
,
1001
1001
1001
0000
,
0001
0000
0001
0000
,
0110
0110
0110
0000
,
1000
1000
1000
1000
,
1000
0000
0100
0000
,
0001
0001
0001
0001
,
0001
0000
0100
0000
,
1000
0001
1000
0001
,
1000
0000
0100
0000
,
0001
1000
0001
1000
,
0001
0000
0000
0100
;

//---------------dance-double - ----------------
#NOTES:
     dance-double:
     Riakodoadm:
     Hard:
     15:
     0.741380,0.935115,0.332485,0.448132,0.440904,718.000000,672.000000,46.000000,62.000000,0.000000,0.000000,0.741380,0.935115,0.332485,0.448132,0.440904,718.000000,672.000000,46.000000,62.000000,0.000000,0.000000:
00000000
00000000
00000000
00000000
,
00000000
00000000
00000000
00000000
,
00000000
10000000
00000000
01000000
00000000
00100000
00000000
00010000
,
00000000
00001000
00000000
00000100
00000000
00000010
00000000
00000001
,
00000000
00000001
00000000
00000100
00000000
00000010
00000000
00001000
,
00000000
00010000
00000000
01000000
00000000
00100000
00000000
10000000
,
00000000
10000000
01000000
00000000
00000000
10000000
01000000
00000000
00000000
00100000
00010000
00000000
00000000
00100000
00010000
00000000
,
00100000
00001000
00100000
00001000
00020000
00032000
00003020
00000030
,
00000000
00000001
00000100
00000000
00000000
00000001
00000100
00000000
00000000
00000010
00001000
00000000
00000000
00000010
00001000
00000000
,
00000010
00010000
00000010
00010000
00002000
00023000
02030000
03000000
,
00000000
10000000
00100000
00000000
00000000
10000000
00100000
00000000
00000000
01000000
00010000
00000000
00000000
01000000
00010000
00000000
,
10000000
00100000
01000000
00010000
00002000
00003200
00000320
00000030
,
00000000
00000001
00000010
00000000
00000000
00000001
00000010
00000000
00000000
00000100
00001000
00000000
00000000
00000100
00001000
00000000
,
00000001
00000010
00000100
00001000
00020000
02030000
03200000
00300000
,
10000000
01000000
10000000
00000000
00010000
01000000
00010000
00000000
10000000
01000000
10000000
00000000
00010000
01000000
00010000
00000000
,
10000000
01000000
00100000
00010000
02000000
03002000
00023000
00030000
,
00001000
01000000
00001000
00000000
00010000
00000100
00010000
00000000
00001000
01000000
00001000
00000000
00010000
00000100
00010000
00000000
,
00000100
00010000
00001000
00010000
00000200
00000320
00000032
00000003
,
00000001
00000100
00000001
00000000
00001000
00000100
00001000
00000000
00000001
00000100
00000001
00000000
00001000
00000100
00001000
00000000
,
00000001
00000100
00000010
00001000
00000200
00020300
00032000
00003000
,
00010000
00000010
00010000
00000000
00001000
00100000
00001000
00000000
00010000
00000010
00010000
00000000
00001000
00100000
00001000
00000000
,
00100000
00001000
00010000
00001000
02000000
03200000
20300000
30000000
,
10000000
01000000
10000000
01000000
00100000
01000000
00100000
01000000
,
00100000
00010000
00100000
00010000
00001000
00010000
00001000
00010000
,
01000000
00010000
01000000
00010000
00100000
00001000
00100000
00001000
,
00010000
00000010
00001000
00000100
00001000
00000010
00000100
00000001
,
00000001
00000100
00000001
00000100
00000010
00000100
00000010
00000100
,
00000010
00001000
00000010
00001000
00010000
00001000
00010000
00001000
,
00000100
00001000
00000100
00001000
00000010
00010000
00000010
00010000
,
00001000
00100000
00010000
01000000
00010000
00100000
01000000
10000000
,
10000000
00000000
00000000
01000000
10000000
00000000
00100000
00000000
00010000
00000000
00000000
00001000
00100000
00000000
01000000
00000000
,
00010000
00000000
00000000
01000000
00100000
00000000
00010000
00000000
01000000
00000000
00000000
00100000
00010000
00000000
00001000
00000000
,
00000010
00000000
00000000
00000100
00001000
00000000
00000010
00000000
00000100
00000000
00000000
00000001
00000010
00000000
00001000
00000000
,
00000010
00000000
00000000
00001000
00010000
00000000
00001000
00000000
00010000
00000000
00000000
00100000
00010000
00000000
00100000
00000000
,
10000000
00000000
00000000
01000000
10000000
00000000
00100000
00000000
01000000
00000000
00000000
00001000
00010000
00000000
01000000
00000000
,
10000000
00000000
00000000
00100000
00010000
00000000
00001000
00000000
00000100
00000000
00000000
00000010
00001000
00000000
00000100
00000000
,
00000010
00000000
00000000
00000001
00000100
00000000
00001000
00000000
00010000
00000000
00000000
00000100
00000010
00000000
00000001
00000000
,
00000010
00000000
00000000
00000001
00000100
00000000
00000010
00000000
00001000
00000000
00000000
00000100
00001000
00000000
00000001
00000000
,
00000001
00000100
00001000
00010000
00100000
00000000
10100000
00000000
,
00010000
01000000
00000000
00100000
01100000
00000000
10100000
00000000
,
00100000
01000000
00010000
00100000
00101000
00000000
01010000
00000000
,
01000000
00100000
00000000
10000000
11000000
00000000
01010000
00000000
,
10000000
01000000
00010000
00001000
00000010
00000000
00000011
00000000
,
00000001
00000100
00000000
00000010
00000110
00000000
00001010
00000000
,
00000010
00000100
00000001
00000010
00000110
00000000
00001100
00000000
,
00000100
00001000
00000000
00000010
00001010
00000000
00000010
00010000
,
00021000
00000000
00000000
00000100
00000100
00000000
00000000
00000010
00030010
00000000
00010000
00001000
00000010
00000001
00000100
00000010
,
00002010
00000000
00000000
00000001
00000001
00000000
00000000
00000100
00003100
00000000
00001000
00000100
00000010
00000001
00000100
00001000
,
00012000
00000000
00000000
01000000
01000000
00000000
00000000
00100000
00103000
00000000
00001000
00010000
01000000
10000000
00100000
01000000
,
01020000
00000000
00000000
10000000
10000000
00000000
00000000
01000000
01030000
00000000
00010000
01000000
00100000
10000000
01000000
00010000
,
00021000
00000000
00000000
00030100
00010200
00000000
00000000
00001300
00001100
00000000
00001000
00000100
00000010
00000001
00000100
00000010
,
00001020
00000000
00000000
00000130
00000210
00000000
00000000
00000301
00000101
00000000
00000100
00001000
00010000
00001000
01000000
00001000
,
00012000
00000000
00000000
00103000
00201000
00000000
00000000
00310000
00110000
00000000
00100000
10000000
00100000
00010000
01000000
00010000
,
00210000
00000000
00000000
00310000
20010000
00000000
00000000
31000000
11000000
00000000
01000000
00010000
01000000
10000000
00100000
00010000
,
00001000
00000000
01000000
00010000
10000000
11000000
00000000
01000000
,
01100000
00000000
00100000
00001000
00000000
00011000
00001000
00000000
,
00010000
00001000
00000000
00001000
00000100
00000010
00000000
00000010
,
00010010
00010000
00001000
00100000
00101000
00001000
00010000
00100000
,
10000000
01000000
00100000
01000000
00010000
00001000
00010000
01000000
,
00010000
00001000
00000100
00001000
00010000
00001000
00000100
00000010
,
00001000
00000100
00001000
00000000
00000010
00000000
00000100
00000000
00000001
00000100
00000001
00000000
00001000
00000000
00001000
00000000
,
00000001
00000100
00001000
00010000
00100000
10000000
00010000
00010000
,
10000000
01000000
00100000
00000000
00010000
01000000
00100000
00000000
10000000
01000000
00100000
00000000
00010000
01000000
00100000
00000000
,
10000000
10000000
00010000
00010000
00002000
00003200
00000320
00000030
,
00000001
00000100
00000010
00000000
00001000
00000100
00000010
00000000
00000001
00000100
00000010
00000000
00001000
00000100
00000010
00000000
,
00000001
00000001
00001000
00001000
00020000
00230000
02300000
03000000
,
10000000
00100000
01000000
00000000
00010000
00100000
01000000
00000000
10000000
00100000
01000000
00000000
00010000
00100000
01000000
00000000
,
10000000
10000000
00010000
00010000
00002000
00003020
00000230
00000300
,
00000001
00000010
00000100
00000000
00001000
00000010
00000100
00000000
00000001
00000010
00000100
00000000
00001000
00000010
00000100
00000000
,
00000001
00000001
00001000
00001000
00020000
02030000
03200000
00300000
,
10000000
00010000
00100000
00000000
01000000
00100000
00001000
00000000
00010000
00001000
00100000
00000000
00001000
00010000
00000100
00000000
,
00001000
00001000
00000100
00000100
00000020
00000032
00002003
00003000
,
00000001
00001000
00000100
00000000
00000010
00000001
00000100
00000000
00000010
00010000
00000100
00000000
00001000
00000100
00000010
00000000
,
00000001
00000001
00000100
00000100
00002000
00023000
00032000
00003000
,
00000100
00000010
00001000
00000000
00000100
00010000
00001000
00000000
00100000
00001000
00010000
00000000
00001000
01000000
00100000
00000000
,
10000000
10000000
00010000
00010000
02000000
23000000
32000000
03000000
,
00001000
00100000
00010000
00000000
01000000
00100000
10000000
00000000
00100000
10000000
01000000
00000000
00100000
00010000
10000000
00000000
,
00010000
00010000
00001000
00001000
00000002
00000203
00000320
00000030
,
00001000
00000100
00000001
00000100
00001000
00000001
00000101
00000000
,
00000100
00000010
00000000
00000010
00001010
00000000
00011000
00000000
,
00010000
00001000
00000100
00001000
00010000
01000000
01010000
00000000
,
00010000
00001000
00000000
00100000
00101000
00000000
00110000
00000000
,
10000000
01000000
00100000
00010000
10000000
01000000
00110000
00000000
,
00100000
00001000
00000000
00010000
00011000
00000000
00010100
00000000
,
00000100
00000010
00000001
00000100
00000010
00001000
00001100
00000000
,
00000100
00010000
00000000
00001000
01001000
00000000
02000200
00000000
,
00000000
03000300
00000000
00000000
;

//---------------dance-double - ----------------
#NOTES:
     dance-double:
     Riakodoadm:
     Medium:
     12:
     0.597854,0.685751,0.534868,0.534868,0.101191,579.000000,505.000000,74.000000,74.000000,0.000000,0.000000,0.597854,0.685751,0.534868,0.534868,0.101191,579.000000,505.000000,74.000000,74.000000,0.000000,0.000000:
00000000
00000000
00000000
00000000
,
00000000
00000000
00000000
00000000
00000000
00000000
00000000
00001000
,
00000000
00000100
00000000
00000001
00000000
00000010
00000000
00001000
,
00000000
00000010
00000000
00000001
00000000
00000100
00000000
00001000
,
00000000
00010000
00000000
00100000
00000000
10000000
00000000
01000000
,
00000000
00010000
00000000
01000000
00000000
10000000
00000000
00100000
,
00000000
00010000
00000000
00010100
00000000
00001000
00000000
00010100
,
00000100
00000010
00000100
00000010
00000002
00000203
00000320
00000030
,
00000000
00001000
00000000
00010100
00000000
00001000
00000000
00011000
,
00010000
01000000
00010000
01000000
00200000
02300000
03020000
00030000
,
00000000
00001000
00000000
01001000
00000000
00010000
00000000
01001000
,
01000000
00100000
01000000
00100000
20000000
32000000
03200000
00300000
,
00000000
00010000
00000000
01001000
00000000
00010000
00000000
00011000
,
00001000
00000100
00001000
00000100
00000020
00000230
00002300
00003000
,
00010000
00010000
00001000
00001000
00010000
00010000
00001000
00001000
,
00010000
01000000
10000000
01000000
00010000
01000000
20000000
30000000
,
00100000
00100000
01000000
01000000
00100000
00100000
01000000
01000000
,
00100000
00010000
00001000
00010000
00100000
00010000
00002000
00000000
,
00013000
00010000
00001000
00001000
00010000
00010000
00001000
00001000
,
00000100
00000001
00000100
00001000
00000100
00000001
00000020
00000030
,
00000100
00000100
00000010
00000010
00000100
00000100
00000010
00000010
,
00000001
00000100
00000010
00000100
00001000
00010000
00002000
00003000
,
00010000
01000000
10000000
01100000
,
00010000
00100000
10000000
10010000
,
00010000
00100000
00001000
00011000
,
00010000
00000010
00000100
00000101
,
00000001
00000100
00001000
00000110
,
00001000
00000010
00000001
00001001
,
00000001
00000010
00000100
00010100
,
00010000
00001000
01000000
01100000
,
01001000
00000000
00000000
00010000
00001000
00000000
00000000
00000000
01001000
00000000
00000000
00010000
00001000
00000000
00000000
00000000
,
00010100
00000000
00000000
00001000
00010000
00000000
00000000
00000000
00010100
00000000
00000000
00001000
00010000
00000000
00000000
00000000
,
00110000
00000000
00000000
00001000
00010000
00000000
00000000
00000000
00110000
00000000
00000000
00001000
00010000
00000000
00000000
00000000
,
00001010
00000000
00000000
00010000
00001000
00000000
00000000
00000000
00001010
00000000
00000000
00010000
00001000
00000000
00000000
00000000
,
00010010
00000000
00000000
00001000
00010000
00000000
00000000
00000000
00010010
00000000
00000000
00001000
00010000
00000000
00000000
00000000
,
00101000
00000000
00000000
00010000
00001000
00000000
00000000
00000000
00101000
00000000
00000000
00010000
00001000
00000000
00000000
00000000
,
00001100
00000000
00000000
00010000
00001000
00000000
00000000
00000000
00001100
00000000
00000000
00010000
00001000
00000000
00000000
00000000
,
01010000
00000000
00000000
00001000
00010000
00000000
00000000
00000000
01010000
00000000
00000000
00001000
00010000
00000000
00000000
00000000
,
00001000
00000100
00000010
00000100
00000001
00000000
00000101
00000000
,
00000100
00000000
00000010
00010000
00001000
00000000
00011000
00000000
,
00010000
01000000
00100000
01000000
10000000
00000000
10010000
00000000
,
00010000
00000000
01000000
00100000
00010000
00000000
00011000
00000000
,
00001000
00000100
00000001
00000010
00000100
00000000
00000110
00000000
,
00000010
00000000
00000001
00000100
00001000
00000000
00011000
00000000
,
00010000
01000000
10000000
00100000
01000000
00000000
01100000
00000000
,
00100000
00000000
10000000
01000000
00010000
00000000
00011000
00000000
,
00002200
00000000
00003300
00000000
00000202
00000000
00000303
00000000
00000001
00000000
00000010
00000000
00000100
00010000
00000100
00000000
,
00002200
00000000
00003300
00000000
00020020
00000000
00030030
00000000
00010000
00000000
00001000
00000000
00000100
00001000
00010000
00000000
,
02020000
00000000
03030000
00000000
22000000
00000000
33000000
00000000
10000000
00000000
00100000
00000000
01000000
00001000
01000000
00000000
,
02020000
00000000
03030000
00000000
00202000
00000000
00303000
00000000
00001000
00000000
00010000
00000000
01000000
00010000
00001000
00000000
,
00202000
00000000
00303000
00000000
02200000
00000000
03300000
01000000
10000000
00000000
00100000
00000000
00010000
00001000
00100000
00000000
,
02200000
00000000
03300000
00000000
00022000
00000000
00033000
00001000
00000100
00000000
00000001
00000000
00000010
00000100
00010000
00000000
,
00020020
00000000
00030030
00000000
00000220
00000000
00000330
00000100
00000001
00000000
00000010
00000000
00001000
00010000
00000010
00000000
,
00000220
00000000
00000330
00000000
00022000
00000000
00033000
00010000
01000000
00000000
10000000
00000000
00100000
01000000
00001000
00000000
,
00011000
00000000
00000100
00000000
00000000
00000110
00000000
00000000
,
00001001
00000000
00000000
00000101
00000000
00001100
00000000
00000000
,
00011000
00000000
00010000
00000000
01000000
01100000
00000000
10000000
,
10010000
00000000
00000000
00100000
01100000
00000000
00000000
00010000
,
10010000
10000000
01000000
00010000
,
00001000
00000010
00000001
00000100
,
00001000
00010000
00001000
00000000
00100000
01000000
00100000
00000000
,
00001000
00010000
00000010
00000100
00000001
00000100
00001000
00000000
,
00100000
00100000
00001000
00001000
00100000
00100000
00001000
00001000
,
00010000
01000000
10000000
01000000
00200000
00302000
00023000
00030000
,
00001000
00001000
00000100
00000100
00001000
00001000
00000100
00000100
,
00000001
00000100
00000010
00000100
00000002
00000023
00002030
00003000
,
00010000
00010000
01000000
01000000
00010000
00010000
01000000
01000000
,
00010000
00001000
00010000
00000100
00000020
00000032
00000203
00000300
,
00000001
00000001
00000010
00000010
00000001
00000001
00000010
00000010
,
00001000
00010000
00010000
00001000
00000200
00000302
00002003
00003000
,
00000010
00000010
00010000
00010000
00000010
00000010
00010000
00010000
,
00001000
00000100
00000001
00000100
00000020
00020030
00032000
00003000
,
00010000
00010000
01000000
01000000
00010000
00010000
01000000
01000000
,
10000000
01000000
00100000
01000000
20000000
30200000
00320000
00030000
,
00001000
00001000
00000100
00000100
00001000
00001000
00000100
00000100
,
00000001
00000010
00001000
00010000
02000000
23000000
30200000
00300000
,
10000000
10000000
00100000
00100000
10000000
10000000
00100000
00100000
,
00010000
00001000
00001000
00000100
00000002
00000023
00002030
00003000
,
00010000
00000010
00010000
00000100
00010000
00000000
00001100
00000000
,
00000100
00000000
00000010
00000001
00000100
00000000
00000110
00000000
,
00000010
00000001
00000010
00000100
00000010
00000000
00001010
00000000
,
00001000
00000000
00000100
00000010
00001000
00000000
00011000
00000000
,
00001000
00100000
00001000
01000000
00001000
00000000
01010000
00000000
,
01000000
00000000
00100000
10000000
01000000
00000000
01100000
00000000
,
00100000
10000000
00100000
01000000
00100000
00000000
00110000
00000000
,
00010000
00000000
01000000
00100000
00010000
00000000
00022000
00000000
,
00000000
00033000
00000000
00000000
;

//---------------para-single - ----------------
#NOTES:
     para-single:
     riak:
     Hard:
     4:
     0.472914,0.557816,0.686654,0.260206,0.028912,458.000000,363.000000,95.000000,36.000000,0.000000,0.000000,0.472914,0.557816,0.686654,0.260206,0.028912,458.000000,363.000000,95.000000,36.000000,0.000000,0.000000:
00000
00000
00000
00000
,
00000
00000
00000
00000
,
02020
00000
00000
00000
,
00000
00000
00000
00000
,
03030
00000
00000
00000
,
00000
00000
00000
00000
,
00100
01010
10001
00000
00000
00000
00000
00000
,
10010
01001
00100
00L00
,
00100
01010
10001
00000
00000
00000
00000
00000
,
01001
10010
00100
00L00
,
00100
01010
10001
00000
00000
00000
00000
00000
,
10010
01001
00100
00L00
,
00100
01010
10001
00000
00000
00000
00000
00000
,
01001
10010
00100
00L00
,
00001
10000
00001
10000
,
00020
01030
0L0L0
00100
,
10000
00001
10000
00001
,
00010
00001
00010
00000
01000
10000
01000
00000
,
00001
10000
00001
10000
,
00020
01030
0L0L0
00100
,
10000
00001
10000
00001
,
10000
01000
10000
00000
00001
00010
00001
00000
,
00100
00L00
00002
00000
,
00100
00L00
20000
30003
,
L000L
10001
01010
10100
,
01010
00101
01010
10001
,
L000L
00000
02020
00000
,
00000
00000
03030
00000
,
00010
000L0
00010
000L0
,
01000
0L000
01000
0L000
,
00100
00L00
00002
00000
,
00100
00L00
20000
30003
,
L000L
10001
01010
10100
,
01010
00101
01010
10001
,
L000L
00000
02020
00000
,
00000
00000
03030
00000
,
00010
000L0
00010
000L0
,
01000
0L000
01000
0L000
,
00001
00010
00001
00000
0000L
00000
02001
00000
,
0000L
00000
03010
00000
00100
01010
00100
00000
,
10000
01000
10000
00000
L0000
00000
10020
00000
,
L0000
00000
01030
00000
00100
01010
00100
00000
,
00001
00010
00001
00000
0000L
00000
02001
00000
,
0000L
00000
03010
00000
00100
01010
00100
00000
,
10000
01000
10000
00000
L0000
00000
10020
00000
,
L0000
00000
01030
00000
00100
01010
00100
00000
,
20000
00000
00000
00000
00002
00000
30003
00000
L000L
00000
00100
00000
01000
00100
00010
00000
,
00002
00000
00000
00000
02000
00000
03003
00000
0L00L
00000
10000
00000
00010
00100
01000
00000
,
00002
00000
00000
00000
20000
00000
30003
00000
L000L
00000
00100
00000
00010
00100
01000
00000
,
20000
00000
00000
00000
00020
00000
30030
00000
L00L0
00000
00001
00000
01000
00100
00010
00000
,
20000
00000
00000
00000
00002
00000
30003
00000
L000L
00000
00100
00000
01000
00100
00010
00000
,
00002
00000
00000
00000
02000
00000
03003
00000
0L00L
00000
10000
00000
00010
00100
01000
00000
,
00002
00000
00000
00000
20000
00000
30003
00000
L000L
00000
00100
00000
00010
00100
01000
00000
,
20000
00000
00000
00000
00020
00000
30030
00000
L00L0
00000
00001
00000
01000
00100
00010
00000
,
10001
00000
00100
00000
00L00
01010
00000
0L0L0
,
10001
00000
00000
10010
00000
01001
00000
00000
,
10001
00000
00100
00000
00L00
01010
00000
00000
,
00011
000LL
11000
LL000
,
10100
L0L00
00101
00L0L
,
10010
L00L0
01001
0L00L
,
01000
10100
01000
00000
00010
00101
00010
00000
,
00001
00010
00100
01000
10000
01000
00100
00010
,
00001
10000
00001
10000
,
00020
01030
0L0L0
00100
,
10000
00001
10000
00001
,
00010
00001
00010
00000
01000
10000
01000
00000
,
00001
10000
00001
10000
,
00020
01030
0L0L0
00100
,
10000
00001
10000
00001
,
10000
01000
10000
00000
00001
00010
00001
00000
,
10000
00001
10000
00001
,
02000
03010
0L0L0
00100
,
00001
10000
00001
10000
,
01000
10000
01000
00000
00010
00001
00010
00000
,
10000
00001
10000
00001
,
02000
03010
0L0L0
00100
,
00001
10000
00001
10000
,
00001
00010
00001
00000
10000
01000
10000
00000
,
00001
10000
00010
01000
10001
00000
01010
00000
,
0L0L0
00000
00100
00010
00001
00000
1000L
00000
,
00001
10000
00010
01000
00100
00000
01010
00000
,
0L0L0
00000
10000
01000
00100
00000
00L10
00000
,
10000
00001
01000
00010
10001
00000
01010
00000
,
0L0L0
00000
00100
01000
10000
00000
L0001
00000
,
10000
00001
01000
00010
00100
00000
01010
00000
,
0L0L0
00000
00001
00010
00100
00000
01L00
00000
;

//---------------para-single - ----------------
#NOTES:
     para-single:
     riak:
     Challenge:
     7:
     0.713501,1.053653,0.650515,0.520412,0.469816,691.000000,601.000000,90.000000,72.000000,0.000000,0.000000,0.713501,1.053653,0.650515,0.520412,0.469816,691.000000,601.000000,90.000000,72.000000,0.000000,0.000000:
00000
00000
00000
00000
,
00000
00000
00000
00000
,
02020
00000
00000
00000
,
00000
00000
00000
00000
,
03030
00000
00000
00000
,
00000
00000
00000
00000
,
00010
00100
01000
20000
00000
00000
00000
00000
00000
00000
00000
00000
00000
00000
00000
00000
,
00100
00L00
00010
000L0
00100
30010
01001
00000
,
01000
00100
00010
00002
00000
00000
00000
00000
00000
00000
00000
00000
00000
00000
00000
00000
,
00100
00L00
01000
0L000
00100
01003
10010
00000
,
00010
00100
01000
20000
00000
00000
00000
00000
00000
00000
00000
00000
00000
00000
00000
00000
,
00100
00L00
00010
000L0
00100
30010
01001
00000
,
01000
00100
00010
00002
00000
00000
00000
00000
00000
00000
00000
00000
00000
00000
00000
00000
,
00100
00L00
01000
0L000
00100
01003
10010
00000
,
00100
00010
00001
00000
00100
01000
10000
00000
00100
00010
00001
00000
00010
00100
01000
10000
,
00010
01000
00010
01000
00100
00010
00002
00003
,
10000
01000
00100
00000
00001
00010
00100
00000
10000
01000
00100
00000
00010
00100
01000
10000
,
00001
01000
00001
01000
00100
01000
20000
30000
,
00100
01000
10000
00000
00100
00010
00001
00000
00100
01000
10000
00000
01000
00100
00010
00001
,
01000
00010
01000
00010
00100
01000
20000
30000
,
00001
00010
00100
00000
10000
01000
00100
00000
00001
00010
00100
00000
01000
00100
00010
00001
,
10000
00010
10000
00010
00100
00010
00002
00003
,
10000
01000
00100
00010
00002
00000
00000
00000
,
00000
00010
00100
01000
20000
00000
00000
00003
,
0000L
00000
30010
01001
00200
00000
00002
00300
,
00L00
00000
02003
00010
00200
03000
20000
00300
,
00L00
30000
L0020
00000
02000
00000
00000
00000
,
00000
00000
00000
03030
,
00201
00010
00001
0F0F0
,
10000
01000
10000
0F3F0
,
00001
00010
00100
01000
20000
00000
00000
00000
,
00000
01000
00100
00010
00002
00000
00000
30000
,
L0000
00000
01003
10010
00200
00000
20000
00300
,
00L00
00000
30020
01000
00200
00030
00002
00300
,
00L00
00003
0200L
00000
00020
00000
00000
00000
,
00000
00000
00000
03030
,
10200
01000
10000
0F0F0
,
00001
00010
00001
0F3F0
,
00001
10000
00010
01000
10001
00000
01010
00000
,
0L0L0
00000
00100
00010
00001
00000
1000L
00000
,
00001
10000
00010
01000
00100
00000
01010
00000
,
0L0L0
00000
10000
01000
00100
00000
00L10
00000
,
10000
00001
01000
00010
10001
00000
01010
00000
,
0L0L0
00000
00100
01000
10000
00000
L0001
00000
,
10000
00001
01000
00010
00100
00000
01010
00000
,
0L0L0
00000
00001
00010
00100
00000
01L00
10000
,
02002
00000
03003
0L00L
20020
00000
30030
L00L0
01000
00000
00100
00010
10001
01000
00100
00010
,
00202
00000
00303
00L0L
02020
00000
03030
0L0L0
10000
00000
01000
00100
01010
00100
00010
00001
,
20020
00000
30030
L00L0
02002
00000
03003
0L00L
00010
00000
00100
01000
10001
00010
00100
01000
,
20200
00000
30300
L0L00
02020
00000
03030
0L0L0
00001
00000
00010
00100
01010
00100
01000
10000
,
02002
00000
03003
0L00L
20020
00000
30030
L00L0
01000
00000
00100
00010
10001
01000
00100
00010
,
00202
00000
00303
00L0L
02020
00000
03030
0L0L0
10000
00000
01000
00100
01010
00100
00010
00001
,
20020
00000
30030
L00L0
02002
00000
03003
0L00L
00010
00000
00100
01000
10001
00010
00100
01000
,
20200
00000
30300
L0L00
02020
00000
03030
0L0L0
00001
00000
00010
00100
01010
00100
01000
10000
,
01010
00000
00100
00000
00L00
01010
00000
0L0L0
,
10001
L000L
00000
10010
00000
01001
00000
00000
,
10001
00000
00100
00000
00L00
01010
00100
00L00
,
00010
00001
00000
00000
00100
00000
00L00
00000
01000
10000
00000
00000
00100
00000
00L00
00000
,
01000
00100
00010
00000
00100
00010
00001
00000
00010
00100
01000
00000
00100
01000
10000
00000
,
01000
00100
00010
00000
00100
00010
00001
00000
00010
00100
01000
00000
00100
01000
10000
00000
,
00100
00010
00001
00000
10000
01000
00100
00000
00010
00001
10000
00000
01000
10000
00001
00000
,
00010
00100
01000
10000
00001
00010
00100
01000
00100
00010
00001
10000
01000
00100
00010
00001
,
10000
01000
00100
00000
00001
00010
00100
00000
01000
00100
00010
00000
00001
00010
00100
01000
,
10000
01000
00001
00010
00100
00010
00002
00003
,
00010
00100
01000
00000
00100
00010
00001
00000
00010
00100
01000
00000
10000
01000
00100
00010
,
00001
00010
00001
10000
01000
00100
00020
00030
,
00001
10000
01000
00000
00100
01000
10000
00000
01000
00100
00010
00000
01000
00100
00010
00001
,
01000
00100
00010
00100
01000
10000
02000
03000
,
00100
00010
00001
00000
00010
00100
01000
00000
00100
01000
10000
00000
01000
00100
00010
00001
,
10000
01000
00100
00010
00001
20000
00002
30003
,
00001
00010
00100
00000
10000
01000
00100
00000
00010
00100
01000
00000
10000
01000
00100
00010
,
00001
0000L
10000
L0000
00100
01000
20000
30000
,
01000
00100
00010
00000
00100
01000
10000
00000
01000
00100
00010
00000
00001
00010
00100
01000
,
10000
L0000
00001
0000L
00010
00100
02000
03000
,
10000
00001
00010
00000
00100
00010
00001
00000
00010
00100
01000
00000
00010
00100
01000
10000
,
00010
000L0
01000
0L000
00010
00001
00020
00030
,
00100
01000
10000
00000
01000
00100
00010
00000
00100
00010
00001
00000
00010
00100
01000
10000
,
00001
0000L
00100
00L00
10000
00002
20000
30003
,
00010
00100
01000
00100
00010
000L0
10001
00000
,
L0010
01000
00100
01000
10100
00000
L0001
00000
,
01000
00100
00010
00001
00010
000L0
00101
00000
,
00L10
01000
00100
00010
01001
00000
1000L
00000
,
01000
00100
00010
00100
01000
0L000
10001
00000
,
0100L
00010
00100
00010
00101
00000
1000L
00000
,
00010
00100
01000
10000
01000
0L000
10100
00000
,
01L00
00010
00100
01000
10010
00000
L0001
00000
;

//---------------dance-single - ----------------
#NOTES:
     dance-single:
     Riakodoadm:
     Challenge:
     17:
     0.906590,1.122138,0.549323,0.534868,0.719180,878.000000,802.000000,76.000000,74.000000,0.000000,0.000000,0.906590,1.122138,0.549323,0.534868,0.719180,878.000000,802.000000,76.000000,74.000000,0.000000,0.000000:
0000
0000
0000
0000
,
0000
0000
0000
0000
,
0000
1000
0100
0000
0000
0100
0010
0000
0000
0010
0001
0000
0000
0001
1000
0000
,
0000
1000
0001
0000
0000
0001
0100
0000
0000
0100
0010
0000
0000
0010
1000
0000
,
0000
1000
0001
0000
0000
0001
0010
0000
0000
0010
0100
0000
0000
0100
1000
0000
,
0000
1000
0001
0000
0000
0001
0100
0000
0000
0100
0010
0000
0000
0010
1000
0000
,
0001
0100
0001
0000
0001
0010
0001
0000
0001
0100
0001
0000
0001
0010
0001
0000
,
1000
1000
0001
0001
2000
3020
0230
0300
,
0010
0100
0010
0000
1000
0001
1000
0000
0100
0010
0100
0000
1000
0001
1000
0000
,
0001
0001
1000
1000
0020
2030
3200
0300
,
1000
0100
1000
0000
1000
0010
1000
0000
1000
0100
1000
0000
1000
0010
1000
0000
,
0001
0001
1000
1000
0002
0023
0230
0300
,
0010
0100
0010
0000
0001
1000
0001
0000
0100
0010
0100
0000
0001
1000
0001
0000
,
1000
1000
0001
0001
0020
0032
0203
0300
,
0001
0100
0010
0000
1000
0100
0010
0000
0001
0100
0010
0000
1000
0010
0100
0001
,
0010
0001
0001
0010
0002
0023
0230
0300
,
0010
0001
1000
0000
0001
0010
0100
0000
0010
0001
1000
0000
0010
0100
0001
0010
,
0100
0100
1000
1000
0020
0230
0302
0003
,
1000
0100
0010
0000
0001
0100
0010
0000
1000
0100
0010
0000
0001
0010
0100
1000
,
0010
1000
1000
0010
2000
3020
0230
0300
,
0010
1000
0001
0000
1000
0010
0100
0000
0010
1000
0001
0000
0010
0100
1000
0010
,
0100
0100
0001
0001
0200
0302
2003
3000
,
0001
0100
0001
0000
0100
0000
0010
0000
0100
0010
0100
0000
0010
0000
0001
0000
,
0010
0001
0010
0000
0100
0000
0010
0000
1000
0010
1000
0000
0010
0000
0100
0000
,
1000
0100
1000
0000
0100
0000
0001
0000
0100
0001
0100
0000
0010
0000
1000
0000
,
0001
0010
0001
0000
0010
0000
0100
0000
0001
0100
0001
0000
0100
0000
1000
0000
,
0100
0001
0100
0000
0010
0000
0100
0000
0010
1000
0010
0000
0100
0000
1000
0000
,
0001
0010
0001
0000
0100
0000
0010
0000
0001
0010
0001
0000
0010
0000
1000
0000
,
0010
0100
0010
0000
0100
0000
1000
0000
0001
0010
0001
0000
0010
0000
1000
0000
,
0001
0010
0001
0000
0010
0000
1000
0000
0001
0100
0001
0000
0100
0000
1000
0000
,
0001
0100
0001
0000
0100
0000
0100
0000
1000
0100
1000
0000
0100
0000
0100
0000
,
0001
0010
0001
0000
0010
0000
0010
0000
1000
0010
1000
0000
0010
0000
0010
0000
,
0001
0010
0100
0000
0010
0000
0010
0000
1000
0010
0100
0000
0010
0000
0010
0000
,
0001
0100
0010
0000
0100
0000
0100
0000
1000
0100
0010
0000
0100
0000
0100
0000
,
0010
1000
0010
0000
0100
0000
0010
0000
0100
0001
0100
0000
0010
0000
0001
0000
,
1000
0100
1000
0000
0100
0000
0001
0000
0010
1000
0010
0000
1000
0000
0001
0000
,
0100
1000
0100
0000
0010
0000
0001
0000
1000
0100
1000
0000
0100
0000
0001
0000
,
1000
0010
1000
0000
0010
0000
0001
0000
1000
0010
1000
0000
0010
0000
0100
0000
,
0001
0100
0010
0100
0101
0000
1100
0000
,
0001
0010
0100
1000
1001
0000
0101
0000
,
0100
1000
0100
0001
1001
0000
1100
0000
,
0100
0010
0001
0100
0110
0000
1010
0010
,
1000
0100
0010
0100
1100
0000
0101
0000
,
1000
0010
0100
0001
1001
0000
1100
0000
,
0100
0001
0100
1000
1001
0000
0101
0000
,
0100
0010
1000
0100
0110
0000
0011
0010
,
0021
0000
0000
0130
0210
0000
0000
1300
1100
0000
1000
0100
0010
0001
0100
0010
,
1020
0000
0000
0130
0210
0000
0000
0301
0101
0000
0001
0100
0010
1000
0001
1000
,
2100
0000
0000
3001
1002
0000
0000
0103
0101
0000
0100
1000
0100
0001
0010
0001
,
0021
0000
0000
0031
2001
0000
0000
3010
1010
0000
0010
0001
0010
1000
0100
0010
,
0022
0000
0033
0110
0220
0000
0330
1100
1100
0000
0100
1000
1010
0010
0100
0001
,
0202
0000
0303
0011
0022
0000
0033
1100
1100
0000
0100
0010
0011
0001
0100
0010
,
2020
0000
3030
1010
2002
0000
3003
1001
0011
0000
0001
0010
0110
0100
1000
0010
,
2020
0000
3030
1010
0202
0000
0303
0101
0011
0000
0010
0100
1100
1000
0010
0100
,
0101
0000
0100
0001
1000
1001
0000
0100
,
0110
0000
0010
1001
0000
1001
0100
0000
,
0001
1000
0000
1000
0001
1001
0000
0100
,
1100
0000
1000
0000
0010
0000
0100
0000
0101
0000
0001
0000
1000
0000
0010
0100
,
0001
0010
0001
0000
1000
0100
1000
0000
0001
0100
0001
0000
1000
0010
1000
0000
,
0010
0100
0001
0000
0010
0100
1000
0000
0100
0010
0001
0000
0100
0010
1000
0000
,
0001
0010
0100
1000
0001
0010
0100
0000
1000
0010
0100
0001
1000
0010
0100
0000
,
0001
0100
0010
0100
0001
1000
0100
0010
0100
1000
0001
0010
0100
1000
0010
0100
,
0001
0100
0010
0000
0001
0010
0100
0000
0001
0100
0010
0000
0001
0010
1000
0001
,
0010
0100
0100
0010
2000
3020
0032
0003
,
1000
0010
0100
0000
0010
1000
0100
0000
1000
0010
0100
0000
0010
1000
0100
0010
,
0001
0001
0010
0010
0200
0302
0203
0300
,
1000
0100
0010
0000
1000
0010
0100
0000
1000
0100
0010
0000
1000
0010
0001
0100
,
0010
0100
0100
0010
0002
0023
2030
3000
,
0001
0010
0100
0000
0010
0001
0100
0000
0001
0010
0100
0000
0010
0001
0100
0010
,
0001
0001
0010
0010
2000
3200
2300
3000
,
0001
0010
0100
1000
0001
0010
0100
1000
0001
0010
0100
1000
0010
0100
0010
1000
,
0001
0001
0010
0010
2000
3020
0032
0003
,
1000
0010
0100
0001
1000
0010
0100
0001
1000
0010
0100
0001
0010
0100
0010
0001
,
0010
0010
0100
0100
0002
0203
2300
3000
,
0001
0010
0100
1000
0010
0100
0001
0010
0100
1000
0100
0010
1000
0010
0100
1000
,
0001
0001
0100
0100
0020
0032
0023
0030
,
1000
0010
0100
0001
0010
0100
1000
0010
0100
0001
0100
0010
0001
0010
0100
0001
,
1000
1000
0100
0100
0020
2030
3020
0030
,
0001
0010
0100
1000
1010
0010
0101
0100
,
0010
1000
0001
0010
0110
0100
1100
1000
,
0010
0100
1000
0100
0101
0001
1100
1000
,
0010
0100
0001
0010
0011
0001
1100
0001
,
1000
0010
0100
0001
0011
0010
1100
0100
,
0010
0001
1000
0010
0110
0100
0101
0001
,
0010
0100
0001
0100
1100
1000
0101
0001
,
0010
0100
1000
0010
1010
1000
0102
2000
,
0000
3003
0000
0000
;
