#TITLE:UNLIMITED FIRE-Try to Sing Ver.-;
#ARTIST:TAG rejected by DJ YOSHITAKA;
#MUSIC:UNLIMITED FIRE-Try to Sing Ver.-.ogg;
#BANNER:UNLIMITED FIRE-Try to Sing Ver.-.png;
#BACKGROUND:UNLIMITED FIRE-Try to Sing Ver.--bg.png;
#CDTITLE:./CDTitles/RB colette -Spring-.png;
#SAMPLESTART:61.862;
#SAMPLELENGTH:15;
#SELECTABLE:YES;
#OFFSET:-0.362;
#BPMS:0.000=160;

//--------------- dance-single - XLev450X-bSP ----------------
#NOTES:
     dance-single:
     XLev450X:
     Beginner:
     3:
     0,0,0,0,0:
0000
0000
0000
0000
,
0000
0000
0000
0000
,
0000
0000
0000
0000
,
0000
0000
0000
0000
,
0000
0000
0000
0000
,
0001
0001
0001
0000
,
1000
1000
1000
0000
,
0010
0001
1000
0010
,
0100
0000
0001
0000
,
1000
0001
0100
0000
,
0010
0100
0001
0000
,
0001
1000
0010
0000
,
0100
0001
1000
0000
,
0010
1000
0001
0000
,
0100
0010
0001
0000
,
0101
0000
1010
0000
,
0220
0000
0000
0000
0000
0000
0000
0330
,
0001
1000
0010
0000
,
0100
0001
1000
0000
,
0010
1000
0001
0000
,
0100
0010
1000
0000
,
0001
0100
0010
0000
,
0001
1000
0010
0000
,
0100
0001
1000
0000
,
0001
0010
1000
0000
,
0001
0001
1000
0000
,
0010
0010
0100
0000
,
0001
0010
1000
0000
,
0001
0100
0010
1000
,
0001
0100
0010
0000
,
0001
1000
0010
0000
,
1000
0001
0100
0000
,
0010
0100
0001
0100
,
2002
0000
0000
0000
,
0000
0000
0000
0000
0000
0000
0000
3003
,
2002
0000
0000
0000
,
0000
0000
0000
3003
1000
0000
0001
0000
,
0100
0000
0010
0000
,
1000
0000
0001
0000
,
0100
0000
0010
0000
,
0001
1000
0010
0100
,
2002
0000
0000
0000
,
0000
0000
0000
0000
0000
0000
0000
3003
,
1000
0001
0100
0000
,
0010
0001
1000
0000
,
0010
0100
0001
1000
,
0010
0000
1000
0000
,
0001
0100
0010
0000
,
0001
1000
0010
0000
,
0100
1000
0001
0100
,
0010
0000
1000
0000
,
0001
0010
0001
0000
,
1000
0010
0100
0000
,
0001
0010
0100
0000
,
1000
0010
0100
0000
,
0001
1000
0010
0000
,
0100
0001
1000
0000
,
0001
0100
0010
1000
,
0001
0000
0100
0000
,
0001
0000
0010
2002
,
0000
0000
0000
0000
,
3003
0000
0000
0000
;

//--------------- dance-single - XLev450X-BSP ----------------
#NOTES:
     dance-single:
     XLev450X:
     Easy:
     7:
     0,0,0,0,0:
0000
0000
0000
0000
,
0000
0000
0000
0000
,
0000
0000
0000
0000
,
0000
0000
0000
0000
,
0000
0000
0000
0000
,
1000
0001
0100
0010
,
0001
0000
1000
0000
0001
0100
0010
0000
,
0001
0000
1000
0000
0001
0100
0010
0202
,
0303
2020
3030
0220
0330
2002
0000
3003
,
0001
1000
0001
0100
,
0010
0000
1000
0001
,
0100
0010
0001
0000
1000
0000
0100
0000
,
0001
0010
0100
0000
,
0001
1000
0001
0100
,
0010
1000
0100
0001
,
0010
0001
0010
0000
1000
0010
0100
0020
,
0000
0000
0000
0000
0000
0000
0000
0030
,
1000
0001
0010
0000
,
0100
0001
1000
0010
,
0100
1000
0001
0000
,
0100
0000
0001
0000
0010
0001
0010
0000
,
1000
0001
0100
0000
,
0010
1000
0001
0100
,
0010
0001
0010
0000
1000
0000
0001
0000
,
0100
0010
1000
0001
,
0010
0000
1000
0000
,
0010
0100
0001
0000
,
1000
0000
0010
0000
,
0100
0000
0001
0000
0010
0001
0010
0000
,
1000
0000
0010
0000
,
0100
0001
1000
0000
,
0001
0000
0100
0000
,
0010
0000
1000
0000
0001
0100
0010
1000
,
0202
0000
0000
0000
,
0000
0000
0000
0303
,
2002
0000
0000
0000
,
0000
3003
0010
0100
,
0002
0000
2003
0000
,
3020
0000
0230
0000
,
0302
0003
2000
3000
0020
0030
0200
0300
,
0002
0003
2000
3000
0002
0003
0200
0300
,
0020
0000
2030
0000
,
3002
0000
0000
0000
0000
0000
0000
0003
,
0001
0000
1000
0000
0010
0100
0001
0000
,
0010
0000
0001
0000
1000
0010
0100
0000
,
0001
0000
0010
0000
1000
0001
0100
0000
,
0010
0001
1000
0000
,
0001
0100
0010
1000
,
0001
0100
0010
1000
,
0001
0100
0010
0000
0001
0100
1000
0010
,
0000
0100
0000
0001
0100
0010
1000
0000
,
0001
1000
0001
0000
,
0100
0000
0010
0000
0001
1000
0010
0000
,
0100
0001
0010
0000
,
0100
0000
0001
0000
1000
0001
0100
0000
,
0010
1000
0001
0100
,
0010
0001
0010
0000
1000
0000
0001
0000
,
0100
0010
1000
0000
0001
0100
0010
0000
,
1000
0001
0100
0010
,
0101
0000
0000
1010
0000
0000
0110
2002
,
0000
0000
0000
0000
,
3003
0000
0000
0000
;

//--------------- dance-single - XLev450X-DSP ----------------
#NOTES:
     dance-single:
     XLev450X:
     Medium:
     11:
     0,0,0,0,0:
0000
0000
0000
0000
,
0000
0000
0000
0000
,
0000
0000
0000
0000
,
0000
0000
0000
0000
,
0000
0000
0000
0000
,
1000
0001
0100
0000
0010
0001
0010
0000
,
1000
0010
0100
0000
0001
0010
0001
0000
,
1000
0001
0100
0010
1000
0001
1000
0202
,
0303
2020
3030
0220
0330
2002
0000
3003
,
0001
0000
1000
0000
0001
0100
0010
0000
,
0010
0001
0010
0000
1000
0010
0100
0000
,
0001
0000
1000
0000
0001
0100
0010
0000
,
0001
0000
1000
0000
0202
0000
0000
0303
,
1000
0001
0100
0000
0010
1000
0010
0000
,
0100
0001
0100
0000
0010
1000
0001
0000
,
0100
0000
0010
1000
0000
0001
0000
0100
,
0000
0001
0010
0000
1000
0001
0100
0010
,
0001
0000
1000
0000
0010
0001
0010
0000
,
1000
0000
0010
0000
0100
0001
1000
0001
,
0100
0000
0010
0000
0001
1000
0001
0000
,
1000
0001
0100
0010
,
0001
0010
0001
0000
1000
0000
0001
0000
,
0100
0000
0001
0000
1000
0001
0100
0000
,
0010
0000
0001
0000
1000
0010
0100
0001
,
1000
0000
0001
0000
0100
0010
1000
0001
,
1000
0000
0000
0001
0000
0000
0100
0000
0000
0010
0000
0000
0001
0000
1000
0000
,
0010
0000
0000
0100
0000
0000
0001
0000
0000
0010
0000
0000
1000
0000
0001
0000
,
0100
0000
0000
0010
0000
0000
0001
0000
0000
0000
1000
0000
0001
0000
0100
0000
,
0010
1000
0010
0001
,
1000
0000
0000
0001
0000
0000
0100
0000
0000
0010
0000
0000
1000
0000
0001
0000
,
0100
0000
0000
0010
0000
0000
1000
0000
0000
0001
0000
0000
0100
0000
0010
0000
,
1000
0000
0000
0001
0000
0000
0100
0000
0000
0010
0000
0000
0001
0000
1000
0000
,
0010
0000
0100
0000
0001
1000
0010
0100
,
2002
0000
0000
0000
,
0000
0000
0000
3003
,
0001
0000
0000
1000
0000
0000
0000
0000
0001
0000
0000
0000
1000
0000
0000
0000
,
0010
0100
0001
1000
0010
0000
1000
0000
,
0101
0000
1010
0000
,
0110
0000
0101
0000
,
1010
0110
1010
1001
,
0010
0000
0000
1000
0000
0000
0001
0000
0000
0100
0000
0000
0010
0000
1000
0000
,
0002
0000
0000
0003
0220
0000
0000
0330
,
2002
0000
0000
0000
0000
0000
3003
0000
0100
0001
0100
0000
0010
1000
0010
0000
,
0001
1000
0010
0000
0100
0000
0001
0000
,
0010
0001
0010
0000
1000
0001
0100
0010
,
1000
0000
0001
0000
0010
0001
0010
0000
,
1000
0001
0100
0010
1000
0001
0100
0000
,
0001
0010
0001
0000
1000
0001
0100
0000
,
1000
0001
0100
0010
1000
0001
0100
0000
,
0010
0000
1000
0000
0001
0100
0010
1000
,
0000
0001
0000
0100
0010
0001
1000
0000
,
0001
1000
0100
0001
,
1000
0010
0100
0000
0010
0001
0010
0000
,
1000
0001
0100
0010
1000
0001
0000
0100
,
0000
0010
1000
0000
0001
0100
0010
1000
,
0001
0000
0100
0000
0010
1000
0001
0000
,
0100
0000
0001
0000
1000
0010
0100
0000
,
0001
1000
0010
0100
0001
1000
0010
0101
,
0000
1010
0000
0110
0000
1000
0010
1000
,
0202
0000
0303
2020
0000
3030
0110
2002
,
0000
0000
0000
0000
,
3003
0000
0000
0000
;

//--------------- dance-single - XLev450X-ESP ----------------
#NOTES:
     dance-single:
     XLev450X:
     Hard:
     16:
     0,0,0,0,0:
0000
0000
0000
0000
,
0000
0000
0000
0000
,
0000
0000
0000
0000
,
0000
0000
0000
0000
,
0000
0000
0000
0000
,
1001
0000
0010
0001
0010
0000
1000
0010
1000
0000
0100
0010
0100
0000
1000
0001
,
1000
0000
0001
1000
0001
0000
0100
0001
0100
0000
0001
1000
0010
0100
0010
0100
,
0001
1000
0001
0100
0001
0100
0010
0100
0001
0010
0001
0010
0001
0010
1001
0000
,
0000
0000
0101
0000
0000
0000
1010
0000
0000
0000
1001
0000
0100
0000
0010
1000
,
0002
0000
0000
0000
0000
0000
0000
0000
0000
0000
0000
0000
0000
0000
0013
1000
,
0020
0000
0000
0000
0000
0000
0030
0000
1000
0000
0000
0010
0000
0000
0002
0000
,
0003
0000
1000
0010
0001
0000
0100
1000
0010
0001
1000
0010
1000
0001
0100
0001
,
1000
0100
0010
0100
0010
0100
1000
0001
0200
0000
0000
0000
0000
0000
0300
0000
,
0100
0010
0001
0100
0010
1000
0001
0010
0001
0100
0001
0010
0100
1000
0100
0010
,
0100
1000
0001
1000
0010
1000
0010
0100
0001
1000
0010
1000
0010
0100
0010
0100
,
0001
0000
1000
0001
0000
0100
0000
0010
,
0000
0000
0001
0000
1000
0000
0010
0000
0100
0010
0001
0100
0010
1000
0100
0010
,
0001
0000
0010
0000
1000
0000
0100
0000
0001
0000
1000
0001
0010
0000
1000
0000
,
0001
0000
1000
0000
0010
0000
0001
0000
0100
0000
0001
1000
0010
0000
0001
0000
,
1000
0000
0010
0000
0100
0000
0001
0000
1000
0000
0010
0000
0100
0000
1000
0100
,
0001
0000
0010
0000
0001
0000
1000
0000
0010
0000
0100
0001
1000
0000
0010
0000
,
0001
0000
1000
0000
0010
0000
0100
0000
0001
0000
0010
0001
0010
0000
1000
0000
,
0010
0000
0100
0001
0100
0000
1000
0000
0010
0000
0100
0001
1000
0000
0010
0000
,
0100
0000
0000
0001
0000
0000
1000
0000
0010
0000
0000
0100
0001
0000
1000
0000
,
0001
0000
1000
0000
0100
0000
0010
0000
0001
0000
1000
0000
0010
0100
0010
0100
,
0001
0000
0000
1000
0000
0000
0010
0000
0000
0100
0000
0000
0001
1000
0001
0000
,
0100
0000
0000
0010
0000
0000
1000
0000
0001
0000
0100
0010
0100
0000
0001
1000
,
0001
0000
0000
0100
0000
0000
0001
0000
0000
1000
0000
0100
0001
0000
0100
0000
,
0010
1000
0001
0100
0000
0010
0000
1000
,
0001
0000
0000
0100
0000
0000
0010
0000
0000
1000
0000
0000
0001
0000
0100
0010
,
1000
0000
0000
0001
0000
0000
0100
0000
0000
0010
0000
0100
1000
0001
1000
0000
,
0100
0000
0000
0001
0000
0000
1000
0000
0000
0010
1000
0000
0100
0000
0001
0000
,
2000
0000
3002
0203
,
0301
0000
1000
0000
0010
0000
0100
0001
0000
0010
0000
0100
1000
0000
0100
0000
,
0010
0000
0100
0000
0001
0000
1000
0001
0000
0100
0000
0001
1000
0000
0010
0000
,
0100
0000
0001
0000
1000
0000
0010
0100
0000
0001
0000
1000
0010
0000
0100
0000
,
0001
0000
1000
0000
0010
0000
0100
0001
0000
1000
0000
0010
0100
0000
1000
0000
,
0202
0000
0000
0000
0000
0000
0303
0000
2020
0000
0000
0000
0000
3030
0000
0000
,
0220
0000
0000
0330
2002
0000
0000
3003
,
0202
0303
2020
3030
0202
0303
2020
3030
,
2002
3003
0000
0220
0000
0330
2002
3003
0000
0220
0330
0000
0220
0330
2002
3003
,
0220
0000
0000
0330
2002
0000
0000
3003
,
0220
0000
0000
0000
0000
0000
0330
0000
0100
0010
0100
0010
1000
0000
0010
0100
,
0010
0000
0001
1000
0010
0000
0100
0000
0010
0000
0001
0100
1000
0000
0001
0000
,
0100
0000
0010
0000
1000
0000
0001
0100
0001
0000
1000
0000
0010
0000
0100
0000
,
0001
0000
1000
0000
0010
0000
0100
1000
0001
0000
0010
0000
0100
0000
0001
1000
,
0100
0000
0010
0000
0100
0000
0001
0000
0010
1000
0010
0100
0001
0000
1000
0000
,
0010
0000
0001
0000
1000
0000
0001
0100
0010
0000
1000
0000
0001
0000
0100
0010
,
1000
0000
0001
0000
0100
0000
0010
0000
0001
1000
0001
1000
0001
0000
0010
0000
,
0100
0000
0001
1000
0010
0000
0100
0000
0001
0000
1000
0000
0010
0000
0100
0000
,
1000
0000
0001
0000
0010
0000
1000
0000
0100
1000
0010
0001
0100
0000
0001
1000
,
0010
0000
0100
0000
0001
0000
1000
0001
0100
0000
0010
0000
0000
0000
0010
0000
,
1000
0000
0001
0000
0100
0000
0001
0010
1000
0000
0001
0100
0010
0000
1000
0000
,
0100
0000
0001
0000
0100
0000
0010
0001
1000
0000
0001
0000
0000
0000
0100
0000
,
0000
0000
0001
0000
1000
0000
0001
0000
0010
0100
0010
1000
0001
0000
1000
0000
,
1001
0000
0010
0001
0010
0000
1000
0010
1000
0000
0100
0010
0100
0000
1000
0001
,
1000
0000
0001
1000
0001
0000
0100
0001
0100
0000
0001
1000
0010
0100
0010
0100
,
0001
1000
0001
0100
0001
0100
0010
0100
0001
0010
0001
0010
0001
0010
1001
0000
,
0000
0000
0101
0000
0000
0000
1010
0000
0001
0010
0100
0010
0100
1000
0001
0010
,
0202
0000
0303
2020
0000
3030
0101
2020
,
0000
0000
0000
0000
,
3030
0000
0000
0000
;
