#TITLE:SAY A PRAYER (RGR-Special);
#SUBTITLE:;
#ARTIST:Des-ROW with Maxi Priest;
#TITLETRANSLIT:;
#SUBTITLETRANSLIT:;
#ARTISTTRANSLIT:;
#GENRE:;
#CREDIT:;
#MUSIC:SAY A PRAYER (RGR-Special).ogg;
#BANNER:SAY A PRAYER (RGR-Special).png;
#BACKGROUND:SAY A PRAYER (RGR-Special)-bg.png;
#CDTITLE:./CDTITLES/DanceDanceRevolution II.png;
#SAMPLESTART:79.120;
#SAMPLELENGTH:15.000;
#SELECTABLE:YES;
#OFFSET:0.000;
#BPMS:0.000=96.999;
#STOPS:;
#BGSTAGE:3;
#DISPLAYBPM:97;
#BGCHANGES:;
#FGCHANGES:;

//--------------- dance-single - XLev450X ----------------
#NOTES:
     dance-single:
     XLev450X:
     Challenge:
     14:
     0,0,0,0,0:
0000
0000
0000
0000
,
0000
0000
0000
0000
,
0000
0000
0000
0000
,
0100
0000
0010
0000
0001
0000
1000
0000
0100
0000
0010
0100
0001
0010
0100
1000
,
0100
0000
0010
0000
0001
0000
1000
0000
0100
0010
0100
1000
0001
0010
0100
1000
,
0001
0000
0000
0000
1000
0000
0000
0000
0010
0000
0000
0000
0100
0000
0000
0000
0001
0000
0000
0000
1000
0000
0000
0000
0200
0000
0000
0000
0000
0000
0000
0000
0000
0000
0000
0000
0010
0000
0000
0000
0000
0000
0000
0000
0000
0300
0000
0000
,
0001
0100
0010
1000
0001
0000
0100
0010
,
0001
0000
0100
0000
0001
0000
0010
0000
0100
0000
0010
0100
0001
0010
0100
0010
,
0001
0000
1000
0000
0100
0000
1000
0000
0010
0000
0100
1000
0001
0010
0001
1000
,
0001
0000
0010
0000
0100
0000
0010
0000
0001
0000
0010
1000
0001
0100
0010
1000
,
0010
0100
0001
1000
0100
1000
0000
0000
,
0100
0000
0010
0000
0001
0000
0100
0000
0002
0000
0000
0000
0103
0000
0000
0100
,
0010
1000
0010
0100
0010
0100
0002
0003
,
0100
0000
0010
0000
0001
0000
0100
1000
0001
0000
0010
0000
0001
0000
1000
0100
,
0001
0010
0100
1000
0001
0000
0010
1000
,
0100
0010
0100
1000
0001
0100
0010
0000
,
0001
0010
0100
1000
0001
0010
0100
0000
,
0001
0010
0100
1000
0001
0100
0010
0000
,
0010
1000
0001
0100
0001
0100
0001
0000
,
0001
0100
0010
1000
0100
0010
0001
0010
0100
2000
0000
3000
,
0001
0010
0001
0100
0010
1000
0010
1000
0100
0010
0100
0010
,
0100
0000
1000
0000
0010
0000
1000
0000
0010
1000
0001
0100
0010
1000
0100
0010
,
0002
0000
0000
0000
0000
0000
0003
0000
0010
0000
0000
1000
0010
0000
0001
0000
,
0100
1000
0010
0100
0001
1000
0100
0000
,
0100
1000
0100
0010
0001
1000
0001
0000
,
0001
1000
0100
0010
0100
1000
0001
0000
,
0010
1000
0001
0010
0001
0100
0010
0000
,
0010
0100
0010
0100
0010
0000
0100
0000
0001
0000
0100
0010
0000
0100
1000
0000
,
0010
0000
0100
0000
0001
0000
0010
0000
0100
0000
0010
0001
0000
0010
0100
0000
,
0010
0000
1000
0000
0100
0000
1000
0000
0010
0100
0001
1000
0001
0000
0000
0000
,
0010
1000
0100
0010
0001
0100
0001
0100
,
2002
0000
0000
0000
0000
0000
0000
0000
0000
3003
0000
0100
0010
0000
0100
0000
,
0010
1000
0001
1000
0010
0000
0101
0000
,
0010
0100
0001
0010
0100
0000
1001
0000
,
0001
0010
0000
1000
0000
0010
0000
0100
,
0010
0000
0100
0000
0010
0000
1000
0000
0100
0000
0000
0010
0000
0000
0100
0000
,
0010
1000
0100
0010
0001
1000
0100
1000
,
0100
1000
0001
0100
0010
0100
0001
1000
,
0100
0010
0100
1000
0010
1000
0001
0010
,
0100
1000
0001
1000
0100
1000
0001
0100
,
0001
0010
0000
0100
0000
1000
0000
0100
,
0001
1000
0000
0100
0000
0100
0000
1000
,
0001
0010
0000
0100
0000
0100
0000
1000
,
0100
0010
0000
1000
0000
0010
0000
1000
,
0100
0010
0100
1000
0010
0100
0001
0000
,
0100
1000
0001
0100
0001
0010
0001
0000
,
0010
0100
0001
1000
0010
0100
0001
0000
,
0010
0000
0100
0000
0001
0000
1000
0000
0100
0000
0010
0100
0001
1000
0100
0010
,
0002
0003
0000
0000
;
