#TITLE:Diamond Dust-Try to Sing Ver.-;
#ARTIST:TAG rejected by DJ YOSHITAKA;
#MUSIC:Diamond Dust-Try to Sing Ver.-.ogg;
#BANNER:Diamond Dust-Try to Sing Ver.-.png;
#BACKGROUND:Diamond Dust-Try to Sing Ver.--bg.png;
#CDTITLE:./CDTITLES/REFLEC BEAT.png;
#SAMPLESTART:16.824;
#SAMPLELENGTH:15;
#SELECTABLE:YES;
#OFFSET:-0.202;
#BPMS:0=148;
#STOPS:196.5=0.200
,197=0.200
,197.5=0.200
,198=0.200
,198.5=0.001;

//--------------- dance-single - XLev450X-bSP ----------------
#NOTES:
     dance-single:
     XLev450X:
     Beginner:
     2:
     0,0,0,0,0:
0000
0000
0000
0000
,
0000
0000
0000
0000
,
0000
0000
0000
0000
,
0000
0000
0000
0000
,
0000
0001
1000
0010
,
0000
0001
0100
0010
,
0000
1000
0001
0010
,
0000
0100
0001
1000
,
0000
0010
0100
0010
,
1000
2002
0000
0000
,
3003
0001
0000
1000
,
0000
0001
0000
0100
,
0000
0010
0000
1000
,
0000
0001
0000
0000
,
0000
0100
0000
0001
,
0000
0010
0000
1000
,
0000
0010
0000
0100
,
0000
0001
0000
0000
,
0000
1000
0001
0010
,
0000
0100
0001
1000
,
0000
0010
0000
1000
,
0000
0001
0000
0100
,
0000
0010
0001
0010
,
0000
1000
0001
0100
,
0000
0010
1000
0001
,
0100
2002
0000
0000
,
3003
0001
0001
0001
,
0000
1000
1000
1000
,
0000
0010
0000
0100
,
0000
0001
1000
0010
,
0000
0100
0000
0001
,
0000
1000
0010
0100
,
0000
0001
0010
0100
,
1000
0020
0000
0000
,
0030
0001
0000
0001
,
0000
0001
0000
0000
,
0000
1000
0000
1000
,
0000
1000
0000
0000
,
0000
0010
0000
0100
,
0000
0010
0000
0000
,
0000
0100
0000
0100
,
0000
0100
0000
0000
,
0000
0001
1000
0010
,
0000
0100
0001
1000
,
0000
0010
0001
1000
,
0000
0100
0001
1000
,
0000
0010
0000
0100
,
0000
0001
1000
0010
,
0000
0100
0001
0100
,
2002
0000
0000
0000
0000
3003
0001
0000
,
1000
0010
0000
0100
,
0001
1000
0000
0001
,
0000
1000
0000
0010
,
0100
0001
0000
1000
,
0001
0100
0010
1000
,
0000
0001
0000
1000
,
0001
0010
0100
2002
,
0000
0000
3003
0220
,
0000
0000
0000
0000
,
0000
0000
0000
0330
;

//--------------- dance-single - XLev450X-BSP ----------------
#NOTES:
     dance-single:
     XLev450X:
     Easy:
     6:
     0,0,0,0,0:
0000
0000
0000
0000
,
0000
0000
0000
0000
,
0000
0000
0000
0000
,
0000
0000
0000
0000
,
0000
1000
0001
0100
,
0010
0000
1000
0001
0100
0000
0010
0000
,
1000
0000
0010
0001
0010
0000
1000
0010
,
0100
0001
1000
0010
,
0100
0000
0001
0010
0001
0000
1000
0010
,
0100
2002
0000
0000
,
0000
3003
1000
0000
0001
0000
0100
0000
,
0010
0000
1000
0000
0001
0000
0100
0001
,
1000
0010
0100
0001
,
1000
0010
0000
0100
,
0000
0000
0001
0000
1000
0000
0010
0001
,
0010
0000
1000
0000
0001
0000
0100
0001
,
0100
0010
1000
0010
,
0100
0000
0001
0010
0001
0000
1000
0010
,
0100
0001
0000
1000
,
0001
0100
0010
0001
,
1000
0010
0000
1000
,
0001
0100
0010
1000
,
0001
0000
0010
0000
1000
0001
0000
0100
,
0000
0010
0000
1000
0000
0001
0000
0000
,
0000
0000
0001
0000
1000
0010
0000
0100
,
0000
2002
0000
0000
0000
0000
0000
0000
,
0000
3003
0001
0000
1000
0000
0010
0000
,
0000
0100
0001
0010
,
0000
1000
0001
0100
,
0010
1000
0000
0001
,
0100
0010
0000
1000
,
0001
0010
0000
0100
,
0001
0000
1000
0001
0100
0000
0010
1000
,
0001
2002
0000
0000
,
0000
3003
1000
0000
0001
0000
0100
0000
,
0000
0010
0100
0001
,
1000
0000
0020
0000
0000
0000
0000
0030
,
0100
0001
1000
0010
,
0100
0001
2000
0000
0000
0000
0000
3000
,
0001
0100
0010
2000
,
3000
0202
0303
2020
,
3030
0220
0330
2002
,
0000
3003
0001
0000
1000
0000
0001
0000
,
0100
0000
0010
0000
1000
0000
0001
0100
,
0010
1000
0001
1000
,
0010
0000
0100
0000
0001
0000
1000
0001
,
0100
0010
1000
0000
0001
0000
0010
0001
,
0010
1000
0010
0200
,
0000
0300
0001
1000
0010
0000
0100
0001
,
1000
0200
0000
0000
0000
0300
0001
0000
,
1000
0000
0001
0100
0010
0000
1000
0000
,
0001
0000
0010
0001
0010
0000
1000
0000
,
0001
0000
0100
0000
0010
0000
0001
0010
,
0001
0000
1000
0010
0100
0000
0001
0000
,
1000
0000
0010
0100
0001
0000
1000
0000
,
0010
0100
0000
1000
,
0001
0100
0000
0010
0000
2002
0000
0000
,
0000
0000
0000
0000
0000
3003
0001
0000
,
1000
0010
0000
2002
0000
0000
0000
0000
,
0000
0000
0000
3003
;

//--------------- dance-single - XLev450X-DSP ----------------
#NOTES:
     dance-single:
     XLev450X:
     Medium:
     10:
     0,0,0,0,0:
0000
0000
0000
0000
,
0000
0000
0000
0000
,
0000
0000
0000
0000
,
0000
0000
0000
0000
,
0000
0000
1000
0000
0001
0000
0100
0010
,
1000
0000
0001
0000
0010
0000
0001
0010
,
0001
0000
1000
0000
0010
0000
0100
0001
,
1000
0000
0010
0000
0100
0000
1000
0001
,
0100
0000
0010
0001
0010
0000
1000
0100
,
1000
0000
0100
0000
0001
0000
0000
1000
0000
0000
0010
0000
0000
0100
0000
0000
,
0001
1000
0001
0000
1000
0000
0001
0100
,
0010
0000
0001
1000
0010
0100
0000
0001
,
0010
0001
0000
1000
0010
0100
0001
0000
,
1000
0000
0010
0100
1000
0000
0001
0100
,
0010
0001
1000
0000
0010
0000
0100
0000
,
0001
1000
0010
0000
0100
0001
1000
0000
,
0010
0000
0100
0000
0001
1000
0000
0010
,
0100
0001
0000
1000
0000
0001
0000
0100
,
0000
0010
0000
0001
0010
0001
0000
1000
,
0010
0100
0000
1000
0001
0100
0000
0100
,
0010
0001
0000
1000
0001
0100
0010
0000
,
1000
0000
0001
0010
0001
0000
1000
0010
,
0100
0000
0001
0000
1000
0001
0000
0100
,
0000
0010
0000
0001
1000
0020
0000
0000
,
0000
0030
1000
0000
0001
0100
0000
0010
,
0000
2002
0000
0000
0000
0000
0000
0000
,
0000
3003
0001
0000
1000
0000
0010
0000
,
0100
0000
0001
0010
0001
0000
1000
0010
,
0100
0001
1000
0010
,
0100
0001
0000
1000
,
0001
0000
0100
0010
0001
0000
1000
0010
,
0100
0000
0001
0010
0001
0000
1000
0010
,
0100
0000
0001
0000
1000
0000
0010
0100
,
0001
0000
2002
0000
0000
0000
0000
3003
,
0220
0330
2002
0000
0000
0000
3003
0000
,
0001
1000
0010
0100
,
0001
1000
0200
0000
0000
0000
0300
0000
,
0010
0000
0001
0000
1000
0000
0000
0000
0010
0000
0000
0000
0100
0000
0000
0001
,
0000
1000
0020
0000
0000
0000
0030
0000
,
1000
0001
0100
0000
0010
0002
0000
0003
,
1000
0020
0000
0230
,
0000
0302
0000
1003
,
0001
0000
0010
0000
1000
0000
0001
0100
,
0010
0000
0001
0000
1000
0000
0010
0100
,
0001
0000
0010
0001
0010
0000
1000
0010
,
0100
0001
1000
0001
,
0010
0000
0100
0000
0001
1000
0000
0010
,
0000
0100
0000
0001
0000
1000
0000
0000
,
0010
0000
0001
1000
0010
0000
0100
0001
,
0010
2000
3002
0203
0320
2030
3000
0001
,
1000
0010
0100
0001
0000
0010
0001
1000
,
0010
0100
0000
0001
0010
0001
0000
1000
,
0010
0100
0001
1000
0010
0100
0000
0001
,
0000
1000
0000
0010
0001
0010
1000
0000
,
0001
0100
0000
0010
0000
1000
0000
0001
,
0000
0100
0010
1000
0000
0001
0100
0000
,
0010
1000
0000
0001
0000
0010
0000
2002
,
0000
0000
3003
1000
,
0001
0100
0000
2002
0000
0000
0000
0000
,
0000
0000
0000
3003
;

//--------------- dance-single - XLev450X-ESP ----------------
#NOTES:
     dance-single:
     XLev450X:
     Hard:
     14:
     0,0,0,0,0:
0000
0000
0000
0000
,
0000
0000
0000
0000
,
0000
0000
0000
0000
,
0000
0000
0000
0000
,
0000
0000
0000
0000
1000
0000
0000
0001
0000
0000
0100
0000
0000
0010
0000
0000
,
1000
0000
0001
0100
0010
0000
0000
1000
0000
0000
0001
0000
0000
0100
0000
0000
,
0010
0000
1000
0001
0010
0000
0000
0100
0000
0000
0001
0000
0000
1000
0000
0000
,
0010
0000
0100
0001
1000
0000
0000
0010
0000
0000
0100
0000
0000
0001
0000
0000
,
1000
0000
0001
0000
0010
0100
0010
0100
0001
0100
0010
1000
0100
0010
0001
1000
,
0001
1000
0001
0100
1001
0000
0000
0101
0000
0000
0110
0000
0000
1100
0000
0000
,
0110
1001
0000
0001
1000
0010
0100
0001
,
0000
1000
0010
0100
0001
1000
0000
0001
,
0100
0000
0010
0001
0010
0000
1000
0000
0001
0000
0100
0010
1000
0000
0001
0000
,
0100
0010
0000
1000
0100
0001
0000
0100
,
0001
1000
0010
0000
0100
0001
0000
1000
,
0000
0000
0010
0000
0000
0000
0100
0000
0000
0000
0001
0000
0000
0000
1000
0100
,
0001
0010
1000
0000
0001
0100
0000
0010
,
0001
1000
0000
0001
0000
0100
0000
0010
,
0000
1000
0000
0001
1000
0010
0100
0001
,
0000
1000
0010
0100
0001
1000
0000
0010
,
0001
0010
0001
0000
0000
0000
1000
0000
0001
0000
0010
1000
0010
0000
0001
0000
,
0100
0010
0000
1000
0100
0001
0000
0010
,
1000
0001
0100
0000
0010
1000
0000
0001
,
0000
0100
0000
0010
0000
2000
0000
0000
,
0000
0000
3000
0000
0001
0000
1000
0001
0100
0000
0010
0000
0000
0000
0100
0000
,
0000
0001
0000
2000
0000
0000
0000
0000
,
0000
0000
3000
0000
0010
0001
0010
0000
1000
0100
1000
0000
0010
0000
0100
0000
,
0001
1000
0010
0000
0100
0001
0000
1000
,
0000
0020
0000
0000
0000
0000
0030
0001
,
1000
0000
0010
0100
0010
0000
0000
0000
0001
0000
0000
0000
1000
0000
0000
0001
,
0000
0000
0100
0000
0010
0000
0000
0000
1000
0000
0002
0000
0000
0000
0000
0003
,
0000
0000
0010
0001
0010
0000
0000
0000
1000
0000
0001
0000
0000
0000
0100
0000
,
0000
0000
0010
0000
1000
0100
1000
0010
0100
0010
1000
0100
1000
0010
0100
0001
,
0100
0001
1000
0010
2000
0000
0000
0000
0000
0000
3000
0000
0010
0000
1000
0000
,
0000
0001
0000
0000
0200
0000
0000
0000
0000
0000
0010
0000
0300
0000
0000
0000
,
0001
0000
1000
0000
0010
0000
0000
0000
0100
0000
0000
0000
0001
0000
0000
1000
,
0000
0010
0200
0000
0000
0010
0300
0000
,
0010
0001
0010
1000
0100
0000
0000
0000
0010
0000
0100
0000
0001
0000
0000
1000
,
0000
0010
0200
0000
0000
0010
0300
0000
,
0001
0000
0100
0000
0010
2000
0000
3000
,
0001
0020
0000
0230
,
0000
0000
0000
0000
0301
0000
0000
0000
1000
0000
0000
0000
0010
0000
0100
0001
,
1000
0000
0010
0100
0010
0000
0001
0000
1000
0000
0010
0000
0100
0000
0001
0000
,
0000
1000
0010
0100
0001
1000
0000
0001
,
0100
0000
0010
0001
0010
0000
1000
0000
0001
0000
0100
0010
1000
0000
0001
0000
,
0100
0010
0000
1000
0100
0001
0000
0100
,
0001
1000
0010
0000
0100
0001
0000
1000
,
0000
0000
0010
0000
0000
0000
0100
0000
0000
0000
0001
0000
0100
0000
1000
0100
,
0001
0000
0010
0000
1000
0001
0100
0010
0001
1000
0100
0010
0001
0000
0010
0000
,
0001
0000
0000
1000
0000
0000
0001
0000
0000
0100
0000
0000
0010
0100
0001
1000
0000
0000
0000
0000
0000
0001
0000
0000
,
1000
0010
0100
0001
0000
1000
0010
0100
,
0001
0000
1000
0000
0000
0000
0010
0000
0001
0010
0001
0000
0000
0000
1000
0000
,
0010
0000
0010
1000
0010
0000
0001
0000
0100
0000
0010
0000
0000
0000
1000
0000
,
0100
0001
0000
0010
1000
0001
0100
0000
,
0010
1000
0000
0001
1000
0100
0001
0010
,
0000
0000
2000
0000
0000
0000
0000
0000
3000
0000
0000
0000
0001
0000
1000
0001
,
0100
0010
0000
0100
0000
0001
0000
2000
,
0000
0000
0000
0000
0000
0000
0000
0000
3000
0000
0000
0000
0001
0000
0000
1000
,
0010
0100
0000
0220
0000
0000
0000
0000
,
0000
0000
0000
0330
;

//--------------- dance-single - XLev450X-CSP ----------------
#NOTES:
     dance-single:
     XLev450X:
     Challenge:
     15:
     0,0,0,0,0:
0000
0000
0000
0000
,
0000
0000
0000
0000
,
0000
0000
0000
0000
,
0000
0000
0000
0000
,
0000
0000
0000
0000
1000
0001
0000
0100
0010
0000
1000
0001
0000
0100
0010
0000
,
0001
0000
1000
0100
0001
0010
0000
1000
0100
0000
0100
0001
0000
1000
0010
0000
,
0100
0000
0001
0100
1000
0001
0000
0001
1000
0000
0010
0000
0001
0010
0000
0100
,
1000
0000
0010
0000
0001
0100
0000
1000
0010
0000
0100
0000
0001
1000
0000
0100
,
0001
0000
0010
0000
0100
1000
0100
0010
0100
1000
0010
0100
0001
0010
0100
1000
,
0001
0100
0010
1000
0011
0000
0000
1010
0000
0000
0101
0000
0000
1010
0000
0000
,
0101
0000
1010
0000
0001
0000
1000
0010
0100
0000
0001
1000
0010
0000
0100
0001
,
0010
0000
0001
0000
1000
0000
0100
0010
0000
0001
1000
0100
0010
0000
0100
0001
,
1000
0100
0010
0001
1000
0000
0010
0000
0100
0000
0001
0000
1000
0000
0010
0100
,
0001
0000
1000
0000
0010
0000
0001
1000
0010
0100
0001
0100
1000
0000
0010
0000
,
0100
0000
0001
1000
0010
0000
0100
0000
0001
0000
0010
0000
0001
0000
1000
0010
,
0000
0100
0001
0000
1000
0000
0010
0100
0001
0000
1000
0000
0010
0000
0100
0000
,
0001
0000
1000
0000
0010
0000
0100
0000
0001
1000
0010
0000
0100
0000
0001
0000
,
0010
0001
0010
0000
1000
0000
0010
0000
0000
0000
0100
0000
0001
0000
1000
0010
,
0100
0000
0001
1000
0010
0000
1000
0000
0001
0000
0010
0000
0001
0000
0010
0001
,
0010
0000
1000
0000
0010
0000
0100
0001
1000
0000
0010
0000
0100
0000
0001
1000
,
0010
0000
0100
1000
0001
0000
0010
0000
0001
0000
1000
0000
0010
0000
0100
0001
,
1000
0000
0010
0000
0100
0000
0001
1000
0010
0000
0100
0000
0001
0000
0010
0001
,
0010
1000
0010
0000
0100
0001
0000
1000
,
0010
0100
0001
1000
0010
0100
0001
1000
,
0010
0000
0100
1000
0001
0000
1000
0010
0001
0000
0100
0000
0000
0000
0001
0000
,
0000
0000
1000
0000
0000
0000
0010
0000
0100
0000
0001
0000
1000
0000
0010
0100
,
0001
0000
0010
1000
0100
0000
0001
0010
0000
1000
0010
0000
0100
0001
0000
1000
,
0010
0000
0001
0000
1000
0000
0001
0100
0001
0000
1000
0010
0100
0000
0001
0000
,
1000
0000
0010
0000
0100
0000
0001
1000
0010
0000
0100
0001
0100
0000
1000
0001
,
1000
0000
0100
0000
0002
0000
0000
0000
1003
0000
0010
0000
0100
0000
0010
0001
,
0010
0000
1000
0100
1000
0000
0001
0000
1000
0000
0010
0000
0001
0000
1000
0000
,
0010
0100
0010
0000
0001
0000
1000
0000
0001
0000
1000
0000
0001
0000
0010
0000
,
0001
0010
0000
1000
0010
1000
0001
0010
0100
0010
0001
1000
0010
0100
0001
0100
,
0010
1000
0001
0100
0020
0000
0000
0000
0000
0000
0000
0000
0030
0000
1000
0000
,
0000
0010
0000
0000
0200
0000
1000
0000
0000
0000
0010
0000
0000
0000
0000
0000
,
0301
0000
1000
0000
0010
0000
0000
0001
0010
0000
1000
0000
0010
0000
0001
0000
,
0100
0001
0000
1000
0020
0000
0100
0000
0000
0000
1000
0000
0031
0000
0000
0000
,
0010
0100
0010
0100
0001
0000
1000
0000
0010
0000
0100
0000
0001
0000
1000
0010
,
0100
0000
0001
1000
0020
0000
1000
0000
0031
0000
0010
0000
0000
0000
0001
0000
,
1000
0010
0100
0000
0001
0010
0000
1000
,
0010
0000
0100
0000
0001
0000
0010
0001
0010
0000
1000
0010
1000
0000
0001
0100
,
0010
0000
1000
0001
0100
0000
0010
0000
1000
0000
0001
0000
0100
0000
0001
1000
,
0010
0100
0001
1000
0010
0000
1000
0010
0100
0000
0001
1000
0010
0000
0100
0001
,
0010
0000
0001
0000
1000
0000
0100
0010
0000
0001
1000
0100
0010
0000
0100
0001
,
1000
0100
0010
0001
1000
0000
0010
0000
0100
0000
0001
0000
1000
0000
0010
0100
,
0001
0000
1000
0000
0010
0000
0001
1000
0010
0100
0001
0100
1000
0000
0010
0000
,
0100
0000
0001
1000
0010
0000
0100
0000
0001
0000
0010
0000
0001
0000
1000
0010
,
0000
0100
0001
0000
1000
0000
0010
0100
0001
0000
1000
0000
0010
0000
0100
0000
,
0001
0000
1000
0000
0100
0010
0100
0010
0001
1000
0100
0010
0100
1000
0010
0100
,
0001
0010
1100
0000
0101
0000
1010
0000
1001
0000
0110
0000
0001
0000
1000
0000
,
0001
0000
0010
0000
0001
0000
0010
0001
0010
0000
1000
0000
0010
0000
0100
0001
,
1000
0000
0010
0000
0100
0000
0001
1000
0010
0000
0100
1000
0001
0000
0010
0000
,
0001
0000
1000
0000
0010
0000
0100
0001
1000
0000
0010
0000
0100
0000
0001
1000
,
0010
0000
0100
0000
0001
0000
0010
0001
0010
0000
1000
0000
0010
0000
0000
0000
,
0100
0001
0000
1000
0010
0100
0001
1000
,
0010
0000
0100
0000
0001
0000
1000
0000
0010
0000
0100
1000
0001
0000
1000
0010
,
0001
0100
0000
0001
0000
1000
0000
0010
,
0100
0000
0001
0000
1000
0000
0010
0100
0001
0000
0010
1000
0100
0000
0001
0000
,
1000
0010
0001
1000
0100
0010
2002
0000
0000
0000
0000
0000
0000
0000
0000
0000
,
0000
0000
0000
3003
;
