#TITLE:ska a go go;
#SUBTITLE:;
#ARTIST:THE BALD HEADS;
#TITLETRANSLIT:#24ska a go go;
#SUBTITLETRANSLIT:;
#ARTISTTRANSLIT:;
#GENRE:;
#CREDIT:;
#MENUCOLOR:;
#NEWMETERSYSTEM:NO;
#BANNER:ska a go go.png;
#BACKGROUND:ska a go go-bg.png;
#LYRICSPATH:;
#CDTITLE:./CDTITLES/CLUB VERSION.PNG;
#MUSIC:ska a go go.mp3;
#OFFSET:-0.037;
#SAMPLESTART:55.990;
#SAMPLELENGTH:12.000;
#SELECTABLE:YES;
#LISTSORT:;
#DISPLAYBPM:144.000:160.000;
#BPMS:0.000=160.000,100.000=144.000,112.000=160.000;
#STOPS:;
#BGCHANGES:;
#ATTACKS:;

//---------------dance-single - ----------------
#NOTES:
     dance-single:
     :
     Beginner:
     3:
     0.190,0.293,0.064,0.000,0.000:
0000
0000
0000
0000
,
0000
0000
0000
0000
,
0000
0000
0000
0000
,
0000
0000
0000
0000
,
0000
0000
0000
0000
,
1000
1000
1000
1000
,
1000
1000
1000
0000
,
0001
0001
0001
0001
,
0001
0001
0001
0000
,
0000
0001
0000
0001
,
0000
0001
0000
0001
,
0000
1000
0000
1000
,
1000
0000
0001
0000
,
0010
0010
0000
0000
,
0010
0010
0000
0000
,
0100
0100
0000
0000
,
0100
0100
0000
0000
,
0010
0010
0000
0000
,
0010
0010
0000
0000
,
0100
0100
0000
0000
,
0100
0100
0000
0000
,
1000
0000
0000
0000
,
0001
0000
0000
0000
,
1000
0000
0000
0000
,
0001
0000
0001
0000
,
0100
0000
0000
0000
,
0100
0000
0000
0000
,
0010
0000
0000
0000
,
0010
0000
0010
0000
,
1000
0000
0000
0000
,
0100
0000
0000
0000
,
0001
0000
0000
0000
,
0010
0000
0000
0000
,
1000
0000
0000
0000
,
0100
0000
0000
0000
,
0001
0000
0000
0000
,
0010
0000
0000
0000
,
0010
0010
0010
0010
,
0010
0010
0010
0010
,
0010
0010
0010
0000
,
1001
0000
1001
0000
,
0100
0100
0100
0100
,
0100
0100
0100
0100
,
0100
0100
0100
0000
,
1001
0000
1001
0000
,
1000
1000
1000
0000
,
1000
1000
1000
0000
,
1000
1000
1000
0000
,
1001
0000
0000
0000
,
0001
0001
0001
0000
,
0001
0001
0001
0000
;

//---------------dance-single - ----------------
#NOTES:
     dance-single:
     :
     Easy:
     8:
     0.337,0.557,0.103,0.000,0.052:
0000
0000
0000
0000
,
0000
0000
0000
0000
,
0000
0000
0000
0000
,
0000
0000
0000
0000
,
0000
0000
0000
0000
,
1000
1000
1000
1000
,
0001
0001
0001
0001
,
1000
1000
1000
1000
,
0001
0001
0001
0001
,
0000
0001
0000
0001
0000
0001
0000
0001
,
0000
1000
0000
1000
0001
0000
1001
0000
,
0000
0001
0000
0001
0000
0001
0000
0001
,
1000
0000
1000
0000
1000
0000
0001
0000
0001
0000
0001
0000
,
0000
1000
0000
1000
0000
1000
0000
1000
,
0000
0000
0000
0000
,
0000
0001
0000
0001
0000
0001
0000
0001
,
0000
0000
0000
0000
,
0000
1000
0000
1000
0000
1000
0000
1000
,
0000
0000
0000
0000
,
0000
0001
0000
0001
0000
0001
0000
0001
,
0000
0000
0000
0000
,
0000
1000
0000
1000
0000
1000
0000
1000
,
0000
1000
0000
1000
0000
1000
0000
1000
,
0000
1000
0000
1000
0000
1000
0000
1000
,
0000
1000
0000
1000
0001
0000
1001
0000
,
0100
0000
0010
0000
,
0001
0000
1000
0000
,
0100
0000
0010
0000
,
1000
0000
1000
0000
1000
0000
0001
0000
0001
0000
0001
0000
,
0100
0010
1000
0000
,
0100
0010
0001
0000
,
0100
0010
1000
0000
,
0100
0010
0001
0000
,
1000
0010
0100
0000
,
0001
0010
0100
0000
,
1001
0000
0110
0000
,
1001
0110
1001
0110
,
1000
0001
0010
0100
,
1000
0001
0010
0100
,
1000
0001
0010
0100
,
1000
1000
0000
0000
0001
0001
0000
0000
,
0100
0010
1000
0001
,
0100
0010
1000
0001
,
0100
0010
1000
0001
,
0100
0100
0000
0000
0010
0010
0000
0000
,
1000
0001
1000
0001
1000
0001
0001
0001
,
1000
0001
1000
0001
1000
0001
0001
0001
,
1000
0001
1000
0001
1000
0001
0001
0001
,
1000
0000
0000
0000
,
0001
1000
0010
0100
0001
1000
1000
1000
,
0001
1000
0010
0100
0001
1000
1000
1000
;

//---------------dance-single - ----------------
#NOTES:
     dance-single:
     :
     Medium:
     11:
     0.536,1.000,0.129,0.000,0.309:
0000
0000
0000
0000
,
0000
0000
0000
0000
,
0000
0000
0000
0000
,
0000
0000
0000
0000
,
0000
0000
0000
0000
,
0000
1000
0000
1000
0000
1000
0000
1000
,
0100
0001
0000
0001
0000
0001
0000
0001
,
0010
1000
0000
1000
0000
1000
0000
1000
,
0100
0001
0000
0001
0000
0001
0000
0001
,
0000
1000
0000
1000
0000
1000
0000
1000
,
0010
0100
0000
0100
0001
0000
1010
0000
,
0000
0001
0000
0100
0000
0010
0000
1000
,
0001
0000
0010
0000
0100
0000
1000
0000
0010
0000
0100
0000
,
0000
1000
0000
1000
0000
1000
0000
1000
,
0000
0000
0000
0000
0001
0010
0001
0000
,
0000
0001
0000
0001
0000
0001
0000
0001
,
0000
0000
0000
0000
1000
0010
1000
0000
,
0000
1000
0000
1000
0000
1000
0000
1000
,
0000
0000
0000
0000
0100
1000
1010
0000
,
0000
0001
0000
0001
0000
0001
0000
0001
,
0000
0000
0000
0000
0100
0001
0011
0000
,
0001
1000
0001
0010
0001
0100
0001
1000
,
0001
0010
0001
0100
0001
1000
0001
0010
,
0001
0100
0001
1000
0001
0010
0001
0100
,
0001
1000
0001
0010
0100
0000
1001
0000
,
0100
0100
0100
0000
0010
0010
0010
0000
,
0001
0001
0001
0000
1000
1000
1000
0000
,
0100
0100
0100
0000
0010
0010
0010
0000
,
0001
0000
0010
0000
0100
0000
1000
0000
0010
0000
0100
0000
,
0000
0000
0000
0000
0000
0100
0010
1000
,
0000
0000
0000
0000
0000
0100
0010
0001
,
0000
0000
0000
0000
0000
0100
0010
1000
,
0000
0000
0000
0000
0000
0100
0010
0001
,
0000
0000
0000
0000
0000
1000
0010
0100
,
0000
0000
0000
0000
0000
0001
0010
0100
,
1001
0000
0110
0000
,
1100
0011
0101
1010
,
0100
0001
1000
0010
0100
0001
1000
0010
,
0100
0001
1000
0010
0100
0001
1000
0010
,
0100
0001
1000
0010
0100
0001
1000
0010
,
0100
0100
0000
0000
0001
0001
0000
0000
,
1000
0100
0010
0001
1000
0100
0010
0001
,
1000
0100
0010
0001
1000
0100
0010
0001
,
1000
0100
0010
0001
1000
0100
0010
0001
,
1000
1000
0000
0000
0100
0100
0000
0000
,
0001
0010
0001
0010
0001
0010
0001
0010
0001
0010
0001
0010
0001
0010
0001
0010
,
0001
0010
0001
0010
0001
0010
0001
0010
0001
0010
0001
0010
0001
0010
0001
0010
,
0001
0010
0001
0010
0001
0010
0001
0010
0001
0010
0001
0010
0001
0010
0001
0010
,
0001
0000
0000
0000
,
1000
0100
1000
0100
1000
0100
1000
0100
1000
0100
1000
0100
1000
0100
1000
0100
,
1000
0100
1000
0100
1000
0100
1000
0100
1000
0100
1000
0100
1000
0100
1000
0100
;

//---------------dance-single - ----------------
#NOTES:
     dance-single:
     :
     Hard:
     12:
     0.633,0.624,0.219,0.000,0.155:
0000
0000
0000
0000
,
0000
0000
0000
0000
,
0000
0000
0000
0000
,
0000
0000
0000
0000
,
0000
0000
0000
0000
,
0100
1000
0100
1000
0100
1000
0100
1000
,
0100
0001
1000
0001
1000
0001
1000
0001
,
1000
0010
0100
0010
0100
0010
0100
0010
,
0100
1000
0001
1000
0001
1000
0001
0000
,
0000
1000
0000
1000
0000
1000
0000
1000
,
0100
0010
0001
1000
0100
0010
1001
0000
,
0010
0001
1000
0100
0010
0001
0100
1000
,
0011
0000
1001
0000
0101
0000
1010
0000
1001
0000
1100
0000
,
1000
0100
0010
0001
,
0010
1000
0100
1000
0100
1000
0100
0000
,
0010
0001
0100
1000
,
0100
0010
0100
0001
1000
0100
1000
0000
,
1000
0100
0010
0001
,
1000
0010
1000
0100
0001
0100
1100
0000
,
0001
0010
0100
1000
,
0001
0010
0001
0100
1000
0100
0101
0000
,
1000
0010
0001
0010
1000
0010
0001
0010
,
1000
0010
0001
0010
1000
0010
0001
0010
,
1000
0100
0001
0100
1000
0010
0001
0010
,
1000
0100
0001
0100
1010
0000
0101
0000
,
0010
1000
0010
1000
0100
0001
0100
0001
,
1000
0010
1000
0010
0001
0100
0001
0100
,
0010
1000
0010
1000
0100
0001
0100
0001
,
0011
0000
1001
0000
0101
0000
1010
0000
1001
0000
1100
0000
,
0001
0000
0010
0000
0100
1000
0010
0100
,
0001
0000
0010
0000
0100
1000
0010
0100
,
0001
0000
1000
0000
0100
0010
0001
0100
,
0001
0000
1000
0000
0100
0010
0001
0100
,
1000
0000
0100
0000
0001
0010
0100
1000
,
0001
0000
0100
0000
0010
1000
0100
0001
,
0100
1000
0000
1000
0001
0010
0000
0010
,
0100
1000
0001
0100
0010
1000
0001
0010
,
0100
1000
0010
0100
0001
1000
0100
0010
,
0001
1000
0010
0100
0001
0010
0100
1000
,
0010
0100
0001
1000
0100
0010
0001
0100
,
0010
0010
1000
0100
0001
0001
0000
0000
,
1000
0010
0100
1000
0100
0001
0010
0100
,
1000
0010
0100
0001
0010
0100
1000
0010
,
0100
0001
0010
1000
0010
0001
0100
0010
,
1000
1000
0001
0010
0100
0100
0000
0000
,
1000
0001
1000
0010
0100
0001
0001
0001
,
1000
0100
0010
0001
0100
0010
0010
0010
,
1000
0010
0001
0010
1000
0100
0100
0100
,
0001
0000
0000
0000
,
1000
0001
1000
0001
1000
0001
1000
0001
1000
0001
1000
0001
1000
0001
1000
0001
,
1000
0001
1000
0001
1000
0001
1000
0001
1000
0001
1000
0001
1000
0001
1000
0001
;

//---------------dance-double - ----------------
#NOTES:
     dance-double:
     :
     Easy:
     8:
     0.337,0.557,0.103,0.000,0.052:
00000000
00000000
00000000
00000000
,
00000000
00000000
00000000
00000000
,
00000000
00000000
00000000
00000000
,
00000000
00000000
00000000
00000000
,
00000000
00000000
00000000
00000000
,
10000000
10000000
10000000
10000000
,
00010000
00010000
00010000
00010000
,
00001000
00001000
00001000
00001000
,
00000001
00000001
00000001
00000001
,
00000000
00000001
00000000
00000001
00000000
00000001
00000000
00000001
,
00000000
00000100
00000000
00000100
00001000
00000000
00011000
00000000
,
00000000
00010000
00000000
00010000
00000000
00010000
00000000
00010000
,
10000000
00000000
10000000
00000000
10000000
00000000
00010000
00000000
00010000
00000000
00010000
00000000
,
00000000
10000000
00000000
10000000
00000000
00010000
00000000
00010000
,
00000000
00000000
00000000
00000000
,
00000000
00001000
00000000
00001000
00000000
00000001
00000000
00000001
,
00000000
00000000
00000000
00000000
,
00000000
00000010
00000000
00000010
00000000
00000100
00000000
00000100
,
00000000
00000000
00000000
00000000
,
00000000
00100000
00000000
00100000
00000000
01000000
00000000
01000000
,
00000000
00000000
00000000
00000000
,
00000000
10000000
00000000
01000000
00000000
00100000
00000000
00010000
,
00000000
01000000
00000000
00001000
00000000
00010000
00000000
00000010
,
00000000
00001000
00000000
00000001
00000000
00000100
00000000
00000010
,
00000000
00001000
00000000
00000100
00010000
00000000
00011000
00000000
,
01000000
00000000
00100000
00000000
,
10000000
00000000
01000000
00000000
,
00010000
00000000
00001000
00000000
,
00010000
00000000
00010000
00000000
00010000
00000000
00001000
00000000
00001000
00000000
00001000
00000000
,
00100000
00001000
00010000
00000000
,
00000010
00010000
00001000
00000000
,
00100000
00001000
00010000
00000000
,
00000010
00010000
00001000
00000000
,
10000000
00001000
00010000
00000000
,
00000001
00010000
00001000
00000000
,
00011000
00000000
01100000
00000000
,
10010000
01100000
00011000
00000110
,
00000001
00000100
00000010
00001000
,
00000100
00010000
00001000
00100000
,
00000010
00000100
00000001
00001000
,
00000001
00000001
00000000
00000000
00001000
00001000
00000000
00000000
,
00000010
00010000
00001000
10000000
,
00100000
01000000
00001000
00010000
,
00000100
00000010
00001000
00010000
,
01000000
01000000
00000000
00000000
00100000
00100000
00000000
00000000
,
10000000
00100000
01000000
00010000
00100000
00001000
00001000
00001000
,
00010000
00000100
00000010
00000001
00000100
00000010
00000010
00000010
,
00001000
00000100
00010000
00001000
01000000
00100000
00100000
00100000
,
10000000
00000000
00000000
00000000
,
10000000
01000000
00100000
00010000
01000000
00001000
00001000
00001000
,
00010000
00000100
00000010
00000001
00000100
00000010
00000010
00000010
;

//---------------dance-double - ----------------
#NOTES:
     dance-double:
     :
     Medium:
     11:
     0.536,1.000,0.129,0.000,0.309:
00000000
00000000
00000000
00000000
,
00000000
00000000
00000000
00000000
,
00000000
00000000
00000000
00000000
,
00000000
00000000
00000000
00000000
,
00000000
00000000
00000000
00000000
,
00000000
10000000
00000000
10000000
00000000
10000000
00000000
10000000
,
01000000
00010000
00000000
00010000
00000000
00010000
00000000
00010000
,
00001000
00000100
00000000
00000100
00000000
00000100
00000000
00000100
,
00000001
00000010
00000000
00000010
00000000
00000010
00000000
00000010
,
00000000
00000100
00000000
00000100
00000000
00000100
00000000
00000100
,
00001000
00000010
00000000
00000010
00010000
00000000
00011000
00000000
,
00000000
00001000
00000000
01000000
00000000
00100000
00000000
10000000
,
01000000
00000000
00100000
00000000
00010000
00000000
01000000
00000000
00001000
00000000
00010000
00000000
,
00000000
00001000
00000000
00001000
00000000
00000010
00000000
00000001
,
00000000
00000000
00000000
00000000
00001000
00000100
00010000
00000000
,
00000000
00010000
00000000
00010000
00000000
00100000
00000000
10000000
,
00000000
00000000
00000000
00000000
00010000
01000000
00001000
00000000
,
00000000
00001000
00000000
00001000
00000000
00000010
00000000
00000001
,
00000000
00000000
00000000
00000000
00001000
00000100
00001100
00000000
,
00000000
00010000
00000000
00010000
00000000
00100000
00000000
10000000
,
00000000
00000000
00000000
00000000
00010000
01000000
01010000
00000000
,
00100000
10000000
01000000
00100000
00010000
01000000
00001000
00010000
,
00000100
00000010
00000001
00000100
00000010
00001000
00000100
00010000
,
00001000
01000000
00010000
00100000
01000000
10000000
00100000
01000000
,
00001000
00010000
00000100
00000010
00000001
00000000
00001100
00000000
,
00010000
00010000
00010000
00000000
00001000
00001000
00001000
00000000
,
01000000
01000000
01000000
00000000
00100000
00100000
00100000
00000000
,
10000000
10000000
10000000
00000000
01000000
01000000
01000000
00000000
,
00100000
00000000
00010000
00000000
01000000
00000000
00001000
00000000
00010000
00000000
00000100
00000000
,
00000000
00000000
00000000
00000000
00000000
00000010
00000100
00000001
,
00000000
00000000
00000000
00000000
00000000
00001000
00000100
00010000
,
00000000
00000000
00000000
00000000
00000000
00001000
01000000
00100000
,
00000000
00000000
00000000
00000000
00000000
10000000
01000000
00100000
,
00000000
00000000
00000000
00000000
00000000
00010000
01000000
00001000
,
00000000
00000000
00000000
00000000
00000000
00010000
00000100
00000010
,
00001001
00000000
00011000
00000000
,
10010000
00101000
00010100
00001001
,
00000100
00010000
00000010
00001000
00000100
00010000
00000010
00001000
,
00000100
00010000
00000010
00001000
00000100
00010000
00000010
00001000
,
00000100
00010000
00000010
00001000
00000100
00010000
00000010
00001000
,
00000100
00000100
00000000
00000000
00010000
00010000
00000000
00000000
,
00001000
01000000
00010000
00100000
00001000
01000000
00010000
00100000
,
00001000
01000000
00010000
00100000
00001000
01000000
00010000
00100000
,
00001000
01000000
00010000
00100000
00001000
01000000
00010000
00100000
,
01000000
01000000
00000000
00000000
10000000
10000000
00000000
00000000
,
10000000
00100000
10000000
00100000
10000000
00100000
10000000
00100000
10000000
00100000
10000000
00100000
10000000
00100000
10000000
00100000
,
10000000
00100000
10000000
00100000
10000000
00100000
10000000
00100000
10000000
00100000
10000000
00100000
10000000
00100000
10000000
00100000
,
10000000
00100000
10000000
00100000
10000000
00100000
10000000
00100000
10000000
00100000
10000000
00100000
10000000
00100000
10000000
00100000
,
10000000
00000000
00000000
00000000
,
00000001
00000100
00000001
00000100
00000001
00000100
00000001
00000100
00000001
00000100
00000001
00000100
00000001
00000100
00000001
00000100
,
00000001
00000100
00000001
00000100
00000001
00000100
00000001
00000100
00000001
00000100
00000001
00000100
00000001
00000100
00000001
00000100
;

//---------------dance-double - ----------------
#NOTES:
     dance-double:
     :
     Hard:
     12:
     0.676,1.000,0.490,0.000,0.322: // measure 1
00000000
00000000
00000000
00000000
,  // measure 2
00000000
00000000
00000000
00000000
,  // measure 3
00000000
00000000
00000000
00000000
,  // measure 4
00000000
00000000
00000000
00000000
,  // measure 5
00000000
00000000
00000000
00000000
,  // measure 6
00100000
00010000
01000000
00001000
00100000
00010000
01000000
00001000
,  // measure 7
00100000
00000000
00000000
00000000
01000000
00000000
00000000
00000000
00000000
00010000
00000000
00000000
00001000
00000000
00000000
00000100
00000000
00000000
00000010
00000000
00000000
00000000
00000000
00000000
,  // measure 8
00000010
00001000
00000100
00010000
00000010
00001000
00000100
00010000
,  // measure 9
00000010
00000000
00000000
00000000
00000100
00000000
00000000
00000000
00000000
00001000
00000000
00000000
00010000
00000000
00000000
01000000
00000000
00000000
00100000
00000000
00000000
00000000
00000000
00000000
,  // measure 10
10000000
01000000
10000000
01000000
00010000
01000000
00010000
01000000
,  // measure 11
00010000
00001000
00010000
00001000
00000110
00000000
00001001
00000000
,  // measure 12
00000001
00000100
00000001
00000100
00001000
00000100
00001000
00000100
,  // measure 13
00001000
00000000
00010000
00000000
01000000
00000000
10000000
00000000
01000000
00000000
00010000
00000000
,  // measure 14
00010000
01000000
00100000
00001000
00010000
01000000
00100000
00001000
,  // measure 15
00101000
00110000
00101000
00011000
,  // measure 16
00001000
00000100
00000010
00010000
00001000
00000100
00000010
00010000
,  // measure 17
00010010
00001010
00010010
00011000
,  // measure 18
00010000
00100000
01000000
00001000
00010000
00100000
01000000
00001000
,  // measure 19
01001000
00011000
01001000
00011000
,  // measure 20
00001000
00000010
00000100
00010000
00001000
00000010
00000100
00010000
,  // measure 21
00010100
00011000
00010100
00011000
,  // measure 22
00010000
00100000
10000000
00100000
00100000
10000000
01000000
10000000
,  // measure 23
10000000
01000000
00010000
01000000
01000000
00010000
00001000
00010000
,  // measure 24
00010000
00001000
00000100
00001000
00001000
00000100
00000001
00000100
,  // measure 25
00000100
00000001
00000010
00000001
00000011
00000000
00001100
00000000
,  // measure 26
00000010
00000001
00000010
00000000
00001000
00000100
00001000
00000000
,  // measure 27
00010000
00001000
00010000
00000000
00100000
00010000
00100000
00000000
,  // measure 28
10000000
01000000
10000000
00000000
01000000
00010000
01000000
00000000
,  // measure 29
00100000
00000000
00001000
00000000
00010000
00000000
00000010
00000000
00010000
00000000
00001000
00000000
,  // measure 30
00011000
00010010
00001000
00000100
,  // measure 31
00000011
00001100
00000001
00000100
,  // measure 32
00001010
00010010
00001000
00010000
,  // measure 33
00101000
00110000
01000000
10000000
,  // measure 34
11000000
01010000
10000000
01000000
,  // measure 35
00110000
00101000
00010000
01000000
,  // measure 36
01100000
00000000
10010000
00000000
,  // measure 37
10100000
10010000
11000000
10010000
,  // measure 38
10000000
01000000
00100000
00001000
00010000
00000010
00000100
00000001
,  // measure 39
00000001
00000010
00000100
00010000
00001000
00100000
01000000
10000000
,  // measure 40
10000000
00100000
01000000
00001000
00010000
00000100
00000010
00000001
,  // measure 41
00001000
00000100
00000000
00000000
00010000
01000000
00000000
00000000
,  // measure 42
00100000
00001000
00010000
00000010
00001000
00000100
00010000
00001000
,  // measure 43
01000000
00010000
00100000
00001000
00010000
00000010
00001000
00000100
,  // measure 44
00010000
00001000
00100000
00010000
01000000
00001000
00010000
00000100
,  // measure 45
00000010
00000001
00000000
00000000
00001000
00000100
00000000
00000000
,  // measure 46
00000010
00000100
00000010
00000100
00000010
00000100
00000010
00000100
00000010
00000100
00000010
00000100
00000010
00000100
00000010
00000100
,  // measure 47
00000010
00000100
00000010
00000100
00000010
00000100
00000010
00000100
00000010
00000100
00000010
00000100
00000010
00000100
00000010
00000100
,  // measure 48
00000010
00000100
00000010
00000100
00000010
00000100
00000010
00000100
00000010
00000100
00000010
00000100
00000010
00000100
00000010
00000100
,  // measure 49
00000010
00000000
00000000
00000000
00000010
00000100
00001000
00010000
,  // measure 50
01000000
00100000
01000000
00100000
01000000
00100000
01000000
00100000
01000000
00100000
01000000
00100000
01000000
00100000
01000000
00100000
,  // measure 51
01000000
00100000
01000000
00100000
01000000
00100000
01000000
00100000
01000000
00100000
01000000
00100000
01000000
00100000
01000000
00100000
;

//---------------dance-single - ----------------
#NOTES:
     dance-single:
     :
     Challenge:
     14:
     0.759,1.000,0.799,0.039,0.309:
0000
0000
0000
0000
,
0000
0000
0000
0000
,
0000
0000
0000
0000
,
0000
0000
0000
0000
,
0000
0000
0000
0000
,
1000
0100
0010
0100
0010
0100
0001
0010
,
0100
0010
0100
0010
1010
0110
0101
0000
,
0001
0010
0100
0010
0100
0010
0100
1000
,
0010
0100
0010
0100
0101
0110
1010
0101
,
0000
0001
0000
1001
0000
1000
0000
1001
,
0000
0001
0000
1001
1000
0000
1000
1001
,
0000
0001
0000
1001
0000
1000
0000
1001
,
0011
0000
1010
0000
0011
0000
0110
0000
1100
0000
0101
0000
,
1100
1000
0010
0000
0100
0001
0010
0000
,
0100
0100
1000
1000
0001
0100
0101
0000
,
0011
0101
1100
1010
,
0110
0100
0001
0001
1000
0100
1100
0000
,
0010
0100
0001
0100
0010
0100
1000
0001
,
1000
0010
0100
0100
0100
0010
1001
0000
,
1000
0010
0100
0010
0001
0010
1000
0001
,
1000
0100
0100
0010
0010
0001
1001
0000
,
1000
0010
0100
0100
0001
0010
0100
0100
,
1000
0001
0100
0100
0001
1000
0100
0100
,
1000
0001
0010
0010
0001
1000
0010
0010
,
1000
0100
0010
0010
0101
0000
1100
0000
,
1010
0011
1010
0000
0101
0110
0101
0000
,
1100
0110
1100
0000
1001
0110
1001
0000
,
1200
0001
0301
0000
0201
1000
1300
0000
,
1010
0000
0011
0000
1001
0000
1100
0000
0101
0000
1001
0000
,
1000
0100
0010
0010
0010
0001
1000
0000
,
1000
0001
0100
0100
0100
0001
0010
0000
,
0100
1000
0001
0001
0001
0100
0010
0000
,
1000
0100
0001
0001
0001
0010
1000
0000
,
1000
0001
0100
0100
0100
0010
0001
0000
,
0001
0010
0100
0100
0100
0001
1000
0000
,
1100
0000
0011
0000
,
0201
0010
1000
0310
,
1000
0010
0100
0001
0100
0010
1000
0010
,
0100
1000
0100
0010
1000
0010
0100
0001
,
0100
0010
0001
0010
0100
0001
0100
0010
,
1010
1010
0100
0000
0101
0101
0010
0000
,
1000
0100
0001
0100
1000
0100
0010
1000
,
0010
0100
1000
0100
0001
0100
0010
0001
,
0010
0100
0001
0100
1000
0001
1000
0010
,
0110
0110
0001
0000
0110
0110
1000
0000
,
0001
0100
0001
0100
0010
0100
0010
0100
1000
0100
1000
0100
0010
0100
0010
0100
,
0001
0100
0001
0100
0010
0100
0010
0100
1000
0100
1000
0100
0001
0100
0001
0100
,
0010
0100
0010
0100
1000
0100
1000
0100
0001
0100
0001
0100
0010
0100
0010
0100
,
0001
0000
0000
0000
,
1000
0100
1000
0100
0010
0100
0010
0100
1000
0100
1000
0100
0001
0100
0001
0100
,
1000
0100
1000
0100
0010
0100
0010
0100
1000
0100
1000
0100
0001
0100
0001
0100
;

//---------------dance-double - ----------------
#NOTES:
     dance-double:
     :
     Challenge:
     14:
     0.755,1.000,0.773,0.052,0.309: // measure 1
00000000
00000000
00000000
00000000
,  // measure 2
00000000
00000000
00000000
00000000
,  // measure 3
00000000
00000000
00000000
00000000
,  // measure 4
00000000
00000000
00000000
00000000
,  // measure 5
00000000
00000000
00000000
00000000
,  // measure 6
00100000
00001000
00010000
00010000
00000100
00001000
00000010
00000010
,  // measure 7
00010000
00001000
00100000
00100000
01000000
01000000
01000000
00000000
,  // measure 8
00100000
00001000
01000000
01000000
00010000
00100000
00001000
00001000
,  // measure 9
00010000
00000100
00000010
00000010
00001000
00001000
00001000
00010000
,  // measure 10
00000000
10100000
00000000
00001000
00000000
01010000
00000000
00001000
,  // measure 11
00000000
00011000
00000000
00000100
00000110
00000000
00000110
00000100
,  // measure 12
00000000
00000010
00000000
00010100
00000000
00001000
00000000
01010000
,  // measure 13
10100000
00000000
00011000
00000000
00001010
00000000
00101000
00000000
00000110
00000000
00001001
00000000
,  // measure 14
00000011
00000010
00000100
00000000
00011000
00001000
00000100
00000000
,  // measure 15
00011000
00010000
00100000
01000000
00010000
10000000
01000000
00000000
,  // measure 16
00110000
00100000
01000000
00000000
00011000
00001000
00000100
00000000
,  // measure 17
00001010
00001000
00000100
00010000
00000100
00000010
00000001
00000000
,  // measure 18
00000011
00000100
00000100
00000000
00011000
00000010
00000010
00000000
,  // measure 19
00001000
00010000
00100000
00010000
00001000
00100000
01000000
00000000
,  // measure 20
10100000
01000000
01000000
00000000
00011000
00100000
00100000
00000000
,  // measure 21
01000000
00100000
00010000
00001000
00010000
00100000
00001000
00000000
,  // measure 22
10000000
01000000
00010000
01000000
00100000
01000000
00001000
01000000
,  // measure 23
10000000
00100000
00010000
00100000
01000000
00100000
00001000
00100000
,  // measure 24
10000000
00010000
00001000
00000001
00010000
00001000
10000000
00010000
,  // measure 25
00001000
00000001
00010000
00001000
00011000
00011000
00011000
00000000
,  // measure 26
10100000
00011000
00110000
00000000
00000101
00011000
00001100
00000000
,  // measure 27
00101000
00011000
00001100
00000000
00001010
00011000
01010000
00000000
,  // measure 28
02100000
00001000
03001000
00000000
00000120
00010000
00010030
00000000
,  // measure 29
10100000
00000000
01001000
00000000
00011000
00000000
00010010
00000000
00001100
00000000
00101000
00000000
,  // measure 30
00000100
00000010
00000001
00000001
00000001
00000010
00001000
00000000
,  // measure 31
00000010
00000100
00010000
00010000
00010000
00000100
00000001
00000000
,  // measure 32
00000100
00010000
00001000
00001000
00001000
00010000
00100000
00000000
,  // measure 33
01000000
00100000
00001000
00001000
00001000
00100000
10000000
00000000
,  // measure 34
10000000
01000000
00010000
00010000
00010000
01000000
00100000
00000000
,  // measure 35
00100000
00001000
00010000
00010000
00010000
00001000
00000010
00000000
,  // measure 36
00002001
00003000
10020000
00030000
,  // measure 37
00001001
00011000
00011000
10010000
,  // measure 38
10000000
00010000
00001000
01000000
00001000
01000000
00001000
00010000
,  // measure 39
10000000
00100000
01000000
00100000
01000000
00100000
00010000
00001000
,  // measure 40
00000100
00000010
00000100
00000010
00000100
00000001
00001000
00000001
,  // measure 41
00001000
00001001
00001001
00000000
10000000
10010000
10010000
00000000
,  // measure 42
00000001
00001000
00010000
00000100
00010000
00000100
00010000
00001000
,  // measure 43
00000001
00000010
00000100
00000010
00000100
00000010
00001000
00010000
,  // measure 44
00100000
01000000
00100000
01000000
00100000
10000000
00010000
10000000
,  // measure 45
00010000
10010000
10010000
00000000
00001000
00001001
00001001
00000000
,  // measure 46
00001000
00010000
00001000
00010000
00000100
00010000
00000100
00010000
00001000
00010000
00001000
00010000
01000000
00010000
01000000
00010000
,  // measure 47
00001000
00010000
00001000
00010000
01000000
00010000
01000000
00010000
00001000
00010000
00001000
00010000
00000010
00010000
00000010
00010000
,  // measure 48
00001000
00010000
00001000
00010000
01000000
00010000
01000000
00010000
00001000
00010000
00001000
00010000
00000010
00010000
00000010
00010000
,  // measure 49
00001000
00000000
00000000
00000000
,  // measure 50
00010000
00001000
00010000
00001000
00000100
00001000
00000100
00001000
00010000
00001000
00010000
00001000
00100000
00001000
00100000
00001000
,  // measure 51
00010000
00001000
00010000
00001000
00000100
00001000
00000100
00001000
00010000
00001000
00010000
00001000
01000000
00001000
01000000
00001000
;
