#TITLE:Flower;
#SUBTITLE:(REDALiCE Remix);
#ARTIST:REDALiCE;
#TITLETRANSLIT:;
#SUBTITLETRANSLIT:;
#ARTISTTRANSLIT:;
#GENRE:;
#CREDIT:;
#BANNER:;
#BACKGROUND:;
#LYRICSPATH:;
#CDTITLE:;
#MUSIC:FLOWER (REDALiCE Remix).ogg;
#OFFSET:-0.040;
#SAMPLESTART:51.533;
#SAMPLELENGTH:12.000;
#SELECTABLE:YES;
#DISPLAYBPM:90.000:180.000;
#BPMS:0.000=180.000
,49.000=90.000
,84.500=180.000
,114.000=720.000
,114.521=180.000
,179.000=360.000
,195.000=180.000
,255.000=360.000
,258.000=180.000
,318.500=360.000
,321.250=180.000
;
#STOPS:84.500=0.833,
90.000=0.833,
114.000=0.063,
114.250=0.063,
114.500=0.203,
255.000=0.042,
255.250=0.042,
255.500=0.042,
255.750=0.042,
256.000=0.042,
256.250=0.042,
256.500=0.042,
256.750=0.042,
257.000=0.042,
257.250=0.042,
257.500=0.042,
257.750=0.042,
258.000=0.167,
318.500=0.042,
318.750=0.042,
319.000=0.042,
319.250=0.042,
319.500=0.042,
319.750=0.042,
320.000=0.042,
320.250=0.042,
320.500=0.042,
320.750=0.042,
321.000=0.042
;
#BGCHANGES:;
#KEYSOUNDS:;
#ATTACKS:;

//---------------dance-single - Raymond Tracer----------------
#NOTES:
     dance-single:
     :
     Challenge:
     14:
     1.000,1.000,0.425,0.188,1.000,802.000,52.000,23.000,81.000,0.000,0.000,1.000,1.000,0.425,0.188,1.000,802.000,52.000,23.000,81.000,0.000,0.000: // measure 0
M000
0000
0000
MM00
0000
0000
MMM0
0000
0000
MMMM
0000
0000
MM00
0000
M000
0000
,  // measure 1
000M
0000
0000
00MM
0000
0000
0MMM
0000
0000
MMMM
0000
0000
00MM
0000
000M
0000
,  // measure 2
M000
0000
0000
MM00
0000
0000
MMM0
000M
0000
00MM
0000
0000
0MMM
0000
M000
0000
,  // measure 3
MM00
0000
MMM0
MMMM
0000
MMM0
MM00
0000
M000
0000
0000
0000
MMMM
0000
0000
0000
,  // measure 4
0001
0100
0010
0100
0001
1000
0100
0010
,  // measure 5
0001
0000
1000
0000
0001
0000
0100
0000
0020
0000
0000
0000
2030
0000
0100
0010
,  // measure 6
3001
0100
0010
1000
0001
0010
0100
1000
,  // measure 7
1100
0000
1001
0000
0101
0110
0000
1010
,  // measure 8
0110
0100
0001
0100
0010
1000
0100
0010
,  // measure 9
0100
0000
1000
0000
0001
0000
0100
0000
0002
0000
0000
0000
0203
0000
0010
1000
,  // measure 10
0301
0010
0100
1000
0010
0100
0001
1000
,  // measure 11
1100
0000
0110
0000
0011
0101
0000
0101
,  // measure 12
2020
0000
0000
0000
,  // measure 13
0000
3030
0001
0010
0100
1000
0001
0100
0010
1000
0100
1000
0100
0010
0001
1000
,  // measure 14
0001
1000
0100
0010
0100
0010
0001
1000
0010
0100
0001
1000
0010
1000
0001
0100
,  // measure 15
0001
1000
0100
0010
0001
0010
0100
1000
0001
0010
0100
0010
0001
1000
0010
0100
,  // measure 16
0001
0000
1000
0000
0001
0000
0100
0000
0010
0000
1000
0000
0100
0000
0010
0000
0001
0000
0010
0000
0011
0000
0000
0000
0000
0000
1000
0100
0010
0000
0010
0000
,  // measure 17
0000
0000
0000
0010
0002
0000
0000
0000
0003
0000
0002
0000
0000
0000
0003
0000
2000
0000
0000
0000
0100
0000
0000
0000
0000
0000
0000
0000
0100
0000
0000
0000
,  // measure 18
0000
0000
0100
0000
0000
0000
0100
0000
3100
0010
0000
0001
0000
0100
0000
0010
,  // measure 19
0000
0000
1000
0000
0100
0000
0000
0100
0000
0000
0100
0000
0000
0000
0000
0000
0000
0000
0100
0000
0010
0000
0000
0010
0000
0000
0010
0000
0000
0000
0000
0000
,  // measure 20
0000
0010
0001
0100
0010
1000
0001
1000
0100
1000
0010
0100
0001
1000
0100
0010
,  // measure 21
0001
1000
0001
1000
0100
0000
0000
0000
0010
0000
0000
0000
0001
0000
1000
0000
0010
0000
0100
0000
0001
0000
1000
0000
0010
0000
0100
0000
0010
0000
1000
0000
,  // measure 22
0100
0010
0001
0100
0010
1000
0001
0100
0010
0000
1000
0000
0010
0000
0100
0001
,  // measure 23
0000
0001
0100
0000
0001
0000
1000
0100
0000
0100
1000
0010
0100
0001
1000
0000
,  // measure 24
0000
1100
0000
0000
0011
0000
0000
0000
0001
0000
0010
0000
0100
1000
0001
0100
,  // measure 25
0010
1000
0100
0010
0001
1000
0100
0010
0100
1000
0001
0010
0100
1000
0001
0000
,  // measure 26
1000
0100
0011
0100
1000
1001
0001
0101
,  // measure 27
0000
0110
0000
0000
1010
0000
0000
1100
0000
0000
0110
0000
0011
0000
0002
0000
,  // measure 28
0000
0000
0000
0000
0000
0000
0000
0000
1003
0010
0100
0000
0001
0010
0100
1000
,  // measure 29
0001
0100
0010
1000
0001
0100
0010
1000
0100
0010
0001
1000
0100
1000
0001
0010
,  // measure 30
0100
1000
0001
0010
0100
0010
0001
1000
0100
0010
0001
1000
0010
1000
0010
0100
,  // measure 31
0001
1000
0010
0100
0010
1000
0001
0010
0100
1000
0001
0100
0010
0000
1000
0100
,  // measure 32
0000
0100
1000
0000
0001
0000
0100
0010
1000
0010
0100
0000
0001
0000
0010
0100
,  // measure 33
0000
0100
1000
0000
0100
0010
0001
1000
0100
0010
0001
1000
0100
1000
0001
0010
,  // measure 34
0100
1000
0010
0100
0001
1000
0010
0100
0001
1000
0001
0010
0100
1000
0001
0010
,  // measure 35
0100
0010
0001
1000
0100
1000
0100
0010
0001
1000
0100
0010
0001
0000
0000
0001
,  // measure 36
0000
0000
0001
0000
0100
0000
0010
0000
1000
0100
0010
0100
1000
0000
0001
0100
,  // measure 37
0000
0100
0010
0000
1000
0100
0010
0001
1000
0010
0100
0001
1000
0100
0010
0001
,  // measure 38
0010
0001
1000
0100
0010
0001
0010
0100
1000
0001
0100
0010
1000
0001
0100
0010
,  // measure 39
0100
0001
1000
0001
0010
0100
1000
0001
1000
0100
0010
0001
1000
0000
0100
0010
,  // measure 40
0000
0010
0001
0000
0100
0000
0010
1000
0000
1000
0010
0000
0100
0000
0001
1000
,  // measure 41
0000
1000
0100
0000
0010
0001
1000
0010
0100
0001
1000
0100
1000
0010
0100
0001
,  // measure 42
0100
0001
1000
0010
0100
0001
1000
0100
0010
0001
1000
0100
0010
0100
1000
0001
,  // measure 43
0010
0100
1000
0010
0100
0001
1000
0010
0100
0001
1000
0100
0010
0000
0000
0010
,  // measure 44
0000
0000
0010
0000
0001
0000
1000
0010
0100
0001
1000
0100
0020
000M
0000
0000
,  // measure 45
0000
0000
0000
0000
0000
0M00
0000
0000
0000
0000
0000
0000
0000
M000
0000
0000
,  // measure 46
0000
0000
0000
0000
0000
0M00
0000
0000
0000
0000
0000
0000
0000
000M
0000
0000
,  // measure 47
0000
0000
0000
0000
0000
M000
0000
0000
0000
0000
0000
0000
0000
000M
0000
0000
,  // measure 48
0000
M000
0000
0000
0M00
0000
0000
M000
0000
0000
0M00
0000
MM31
0000
0010
0000
,  // measure 49
0001
1000
0100
0010
0001
1000
0010
0100
,  // measure 50
0001
0000
1000
0002
0000
0000
0000
0000
0203
0000
0001
1000
0320
0000
0000
0000
,  // measure 51
1030
0100
0010
0001
0100
0010
1010
0000
,  // measure 52
0110
0000
0101
0011
0000
0110
1100
1000
,  // measure 53
0001
0010
0100
1000
0010
0100
0001
0010
,  // measure 54
0100
0000
1000
0020
0000
0000
0000
0000
0230
0000
0001
1000
0302
0000
0000
0000
,  // measure 55
0023
0001
0130
1000
0010
0100
0002
0000
,  // measure 56
0203
0000
0000
0000
0310
0000
2000
0000
0000
0000
3000
0000
0100
0000
0100
0010
,  // measure 57
0000
0010
0001
0000
1000
0010
0100
0001
1000
0010
0100
0001
1000
0100
0010
0001
,  // measure 58
1000
0010
0100
0001
0100
0001
1000
0100
0010
0001
1000
0100
0010
0001
1000
0100
,  // measure 59
1000
0001
0100
0010
1000
0001
0100
0010
0100
0001
1000
0100
0010
0000
0001
1000
,  // measure 60
0000
1000
0001
0000
0100
0000
0010
1000
0001
1000
0010
0000
0100
0000
0001
1000
,  // measure 61
0000
1000
0100
0000
0010
0000
0001
0100
0000
0100
0010
0000
1000
0000
0001
0100
,  // measure 62
0010
0000
1000
0100
0010
0000
0001
1000
0100
0000
0010
0001
0010
0000
0100
1000
,  // measure 63
0010
0100
0001
1000
0100
0010
0001
1000
0010
0100
0001
1000
0001
0100
0001
0100
,  // measure 64
0010
0100
0010
1000
0010
1000
0001
1000
0001
0000
1000
0000
0100
0010
0000
0010
,  // measure 65
0001
0000
0100
0001
0100
0010
1000
0010
0100
0001
1000
0010
0100
0001
1000
0100
,  // measure 66
0010
0001
1000
0100
0010
0001
1000
0100
1000
0001
0010
0100
1000
0010
0100
0001
,  // measure 67
1000
0010
0100
0001
0100
0001
1000
0010
0100
0001
1000
0000
0100
0010
0000
0010
,  // measure 68
0100
0000
1000
0000
0001
0100
0010
0100
0001
0000
0010
0000
0100
1000
0000
1000
,  // measure 69
0100
0000
0010
0001
1000
0100
0010
0001
0010
0100
1000
0010
0100
0001
1000
0010
,  // measure 70
0100
0001
1000
0100
1000
0001
0010
0100
1000
0100
0010
0001
1000
0001
0100
0001
,  // measure 71
0100
0010
1000
0001
0100
0010
1000
0100
0010
0001
1000
0000
0000
1000
0000
0000
,  // measure 72
1000
0000
0001
0010
0100
1000
0001
0100
0010
1000
0100
0000
0000
0110
0000
0000
,  // measure 73
0011
0000
0000
0101
0000
0000
0110
0000
1010
0000
1000
0000
0001
0100
0000
0100
,  // measure 74
0001
0000
0100
0000
0010
1000
0000
1000
0010
0000
0101
0000
0000
0110
0000
0000
,  // measure 75
1010
0000
0000
1100
0000
0000
0110
0000
0011
0000
1000
0000
0100
0010
0000
0010
,  // measure 76
0001
0000
0100
0000
0010
1000
0000
1000
0001
0000
0011
0000
0000
0110
0000
0000
,  // measure 77
1100
0000
0000
1001
0000
0000
0101
0000
0110
0000
0010
0000
1000
0100
0000
0100
,  // measure 78
1000
0000
0010
0000
0100
0001
0000
0001
0100
0000
0110
0000
0000
1010
0000
0000
,  // measure 79
1100
0000
0000
1001
0000
0000
0101
0000
0011
0000
0001
0010
0100
1000
0001
0010
,  // measure 80
0100
1000
0001
0010
0100
1000
00M1
2M00
00M2
0000
0M00
0000
00M0
0000
0000
0M00
,  // measure 81
0000
0000
00M0
0000
0000
0M00
0000
0000
3MM3
0000
0000
0000
0000
0000
0000
0000
;
