#TITLE:Speculation;
#SUBTITLE:;
#ARTIST:BEMANI Sound Team "ZAQUVA";
#TITLETRANSLIT:;
#SUBTITLETRANSLIT:;
#ARTISTTRANSLIT:;
#GENRE:;
#CREDIT:;
#MUSIC:Speculation.ogg;
#BANNER:;
#BACKGROUND:Speculation-bg.png;
#CDTITLE:;
#SAMPLESTART:21.144;
#SAMPLELENGTH:20.243;
#SELECTABLE:YES;
#OFFSET:0.329;
#BPMS:0.000=190.000;
#STOPS:60.000=0.947
,217.000=0.947
;
#BGCHANGES:0.700=Speculation.mp4=1.000=0=0=1,
99999.000=-nosongbg-=1.000=0=0=0=StretchNoLoop====
;
#FGCHANGES:;

//--------------- dance-single - ----------------
#NOTES:
     dance-single:
     :
     Beginner:
     7:
     0,0,0,0,0:
0000
0000
0000
0000
,
0000
0000
0000
0000
,
0000
0000
0000
0000
,
0000
0000
0000
0000
,
0000
0000
0000
0000
,
0000
0000
0000
0000
,
0000
0000
0000
0000
,
0000
0000
0000
0000
,
0000
0000
0000
0000
,
0001
0000
1000
0000
,
0010
0000
0100
0000
,
0010
0010
0010
0010
,
0010
0010
0010
0010
,
0100
0000
0010
0000
,
1000
0001
1000
0001
,
0000
1000
1000
0001
,
0001
0100
0000
0010
,
0000
1000
0000
0100
,
0010
0001
0000
0010
,
0000
0002
0000
0000
,
0003
1000
0000
1000
,
0000
1000
1000
1000
,
0000
1001
0000
0000
,
0000
0001
0001
1000
,
1000
0010
0010
0010
,
0000
0100
0100
0100
,
0000
0010
0010
0100
,
0100
0010
0100
0110
,
0000
0001
0001
0001
,
0000
1000
1000
1000
,
0000
0001
0001
1000
,
1000
0001
1000
1001
,
0110
0001
1000
0000
,
0000
0100
0000
0000
,
0000
0010
0000
0000
,
0000
0001
0000
1000
,
0000
0010
0100
0000
,
0000
0010
0000
0000
,
0000
1000
0000
0001
,
0000
0010
0010
0010
,
1001
1000
0000
0000
,
0000
0001
0000
0000
,
0000
0100
0000
0000
,
0000
0010
0000
0000
,
0000
1000
0000
0000
,
0000
0100
0000
0000
,
0000
0010
0000
0001
,
0000
1000
0000
0000
,
0000
0001
0000
0000
,
0000
1000
0000
0000
,
0000
0010
0000
0000
,
0000
0100
0000
0000
,
0000
0010
0000
1000
,
0000
0001
0000
1000
,
0000
0000
0000
0000
,
2002
0000
0000
3003
0001
0000
0000
0000
,
0001
0000
1000
0000
,
1000
0000
0010
0010
,
0100
0000
0010
0000
,
1000
0001
0010
0000
,
0100
0000
0010
0000
,
0001
1000
0100
0000
,
1000
0000
0010
0010
,
0100
0110
1000
0000
,
0001
0000
0010
0000
,
0001
0000
1000
0100
,
1000
0000
0010
0000
,
0100
0001
0010
0000
,
0001
0000
1000
0000
,
0100
1000
0020
0000
,
0000
0000
0030
0000
0000
0100
0000
0000
,
0010
1000
1001
1100
,
0000
1000
1010
0000
,
0000
0001
0101
0000
,
0000
0001
0011
0000
,
0001
0000
1001
0000
,
0000
0010
1001
0000
,
0000
1000
1010
0000
,
0000
0001
0011
0000
,
0001
1000
0001
0000
,
0100
0000
0010
0000
,
1000
0000
0100
0000
,
1000
0000
0010
0100
,
0001
0010
0100
0000
,
0010
0000
0001
0000
,
1000
0000
0001
0000
,
1000
0000
0001
0100
,
0010
1000
1001
0000
;

//--------------- dance-single - ----------------
#NOTES:
     dance-single:
     :
     Easy:
     10:
     0,0,0,0,0:
0000
0000
0000
0000
,
0000
0000
0000
0000
,
0000
0000
0000
0000
,
0000
0000
0000
0000
,
0000
0000
0000
0000
,
0000
0000
0000
0000
,
0000
0000
0000
0000
,
0000
0000
0000
0000
,
0000
0000
0000
0000
,
0001
1000
0001
1000
,
0100
0010
0100
0010
,
0001
0001
0001
0001
,
0001
0001
0001
0001
,
1000
0100
0010
0001
,
0100
0010
1000
0001
,
0000
1000
0100
0001
,
0100
1000
1000
1000
,
1000
0001
0001
0001
,
0001
0100
0100
0010
,
0010
2002
0000
0000
,
3003
0110
0000
0110
,
0000
0110
0110
0110
,
0000
0001
1000
0010
,
1000
0100
0001
0100
,
1000
0010
0010
0010
,
0000
0100
0100
0100
,
0000
0001
0001
0001
,
0001
0001
0001
0001
,
0000
1000
1000
1000
,
0000
0010
0010
0010
,
0000
0100
0100
0100
,
0100
0010
0100
0001
,
1000
0002
0013
1000
,
0010
0100
0010
0001
,
0100
1000
0100
0010
,
1000
0001
0010
0001
,
1000
0200
1300
0100
,
0001
0100
0010
0001
,
0100
1000
0100
0010
,
1000
1001
1001
1001
,
0110
0001
0000
0001
,
0000
0001
1000
0001
,
0000
1000
0000
1000
,
0000
1000
0001
1000
,
0000
0010
0000
0100
,
0000
0001
0100
0010
,
0000
0100
0000
0010
,
0000
2000
0000
0000
,
0000
3001
1000
0010
,
1000
0001
0010
0100
,
1000
0100
1000
0001
,
0100
0001
1000
0100
,
0010
0001
0001
1000
,
1000
0010
0010
0100
,
0100
0000
0000
0000
,
0220
0330
0001
1000
,
0010
1000
0100
0010
,
0001
0010
0001
0100
,
0010
1000
0001
0010
,
0001
1000
0100
0010
,
0100
1000
0010
0100
,
0001
0010
0100
0010
,
0001
1000
0010
0100
,
0001
1000
0100
0100
,
0010
0100
1000
0010
,
0100
0001
0010
0010
,
0001
0010
0100
1000
,
0100
0100
1000
1000
,
0001
1000
0010
0100
,
0001
0000
0000
1000
0000
0000
0001
0000
1000
0000
0001
0000
,
1000
0000
0000
0000
0001
0000
0000
0000
1000
0000
0000
0000
0000
0000
0000
0001
0000
0000
0000
0000
0000
0100
0000
0000
,
0010
0000
2000
0000
3100
0000
0010
0001
,
0000
0001
0000
0000
0001
0000
0000
0000
1000
0000
0000
0000
0001
0000
0100
0000
,
0000
0100
0000
0000
0100
0000
0000
0000
0010
0000
0000
0000
1000
0000
0100
0000
,
0000
0100
0000
0000
0100
0000
0000
0000
0010
0000
0000
0100
0000
0000
1000
0000
,
0000
0010
0000
0000
0100
0000
0010
0000
1000
0000
0000
0000
0001
0000
1000
0000
,
0000
1000
0000
0000
1000
0000
0010
0000
0100
0000
0000
0000
0010
0000
0100
0000
,
0000
0100
0000
0000
0100
0000
0001
0000
1000
0000
0000
0000
0100
0000
0010
0000
,
0000
0010
0000
0000
0010
0000
0001
0000
1000
0000
0000
0100
0000
0000
0010
0000
,
0000
0000
0000
0001
0000
0000
0000
0000
0000
0000
0000
0000
0100
0000
0000
0000
0000
0000
0000
0000
0000
0000
0000
0000
0010
0000
0000
0000
0000
0000
0000
0000
0010
0000
0000
0000
0000
0000
0000
0000
0100
0000
0000
0000
0000
0000
0000
0000
,
0100
0000
0001
0000
0001
0000
1000
0000
1000
0000
0001
0000
,
0001
0000
0010
0000
0010
0000
0100
0000
0000
1000
0000
0000
,
0100
0000
0000
0000
0010
0000
0000
0000
0100
0000
0000
1000
0000
0000
0010
0000
,
0100
0000
0000
0001
0000
0000
0100
0000
0100
0000
0010
0000
,
0010
0000
1000
0000
1000
0000
0001
0000
0001
0000
1000
0000
,
1000
0000
0001
0000
0001
0000
1000
0000
0000
0100
0000
0000
,
0010
0001
1000
0001
,
0100
0020
0130
0000
;

//--------------- dance-single - ----------------
#NOTES:
     dance-single:
     :
     Medium:
     14:
     0,0,0,0,0:
0000
0000
0000
0000
,
0000
0000
0000
0000
,
0000
0000
0000
0000
,
0000
0000
0000
0000
,
0000
0000
0000
0000
,
0001
0000
0000
0100
0000
0000
1010
0000
,
1000
0000
0100
0000
0010
0100
1000
0020
,
0000
0000
0000
0000
0000
0000
0130
0001
,
1000
0100
0010
0001
,
1001
0001
1000
1000
,
0010
0000
0010
0000
0100
0000
0100
0001
,
0010
0010
0010
0010
,
0010
0000
0010
0000
0010
0100
0010
0001
,
0010
0100
1000
0000
0001
0100
0010
0000
,
0100
0010
0100
0001
0010
0100
1000
0010
,
0100
0001
0100
0010
,
1000
0001
0001
1000
,
1000
0010
0010
0100
,
0100
0010
1000
0000
1000
0000
1000
0000
,
0001
2002
0000
0000
,
3003
0011
0000
1010
,
0000
0011
1010
0011
,
0000
0000
0001
0001
1000
0010
0100
0100
,
0001
1000
0100
0000
0001
0000
0100
0000
,
1000
1010
1010
1010
,
0000
0101
0101
0101
,
0000
1001
1001
0110
,
0110
1001
0110
1001
,
0000
0011
0011
0011
,
0000
1010
1010
1010
,
0000
1001
0110
1001
,
0001
0100
0010
0000
1000
0000
0100
0000
,
0010
0001
1000
0100
,
1000
0010
0001
0010
,
1000
0100
0001
0000
0100
0000
1000
0010
,
0001
0000
0010
0100
0001
0010
0100
1000
,
0001
0001
1000
0000
0001
0000
1000
0000
,
0010
1000
0100
0001
,
0100
0000
0000
1000
0100
1000
0001
0010
0001
1000
0010
1000
,
0001
0000
0100
0000
0001
0000
1000
0000
0000
0000
0000
0000
1000
0000
0000
0000
0000
0000
1000
0000
0000
0001
0000
0000
,
0110
1000
0000
0001
,
0000
1000
0001
0010
,
0000
0100
0000
0010
,
0000
0100
1000
0001
,
0000
0100
0001
0010
,
1000
0010
0100
1000
,
0100
0000
0001
0000
0100
0010
0000
0100
,
1000
0020
0000
0000
0000
0000
0000
0000
,
0030
0100
1000
0100
,
0001
0010
1000
0010
,
0001
0100
0010
0000
0100
0000
0001
0000
,
0010
0000
1000
0000
0010
0000
0100
0010
,
0001
1000
0100
0010
0100
0000
0010
0100
,
1000
0000
0001
0100
0010
1000
0100
0010
,
0001
0000
0001
0001
,
1020
0000
0130
0010
,
1000
0001
0010
0100
,
1000
0000
0100
1000
0010
0010
0100
0000
,
0001
0010
0001
1000
,
0001
0001
1000
0010
0100
0100
0100
0000
,
0001
1000
0001
0010
,
0100
0000
0000
0100
0010
0000
0001
0000
1000
0000
1000
0000
1000
0000
0000
0000
,
0010
0000
0100
0000
0001
0010
0100
1000
,
0100
0010
0001
0000
1000
0001
0100
0000
,
0010
1000
0100
0010
,
0100
0000
0000
0100
1000
0000
0000
1000
0001
0000
0100
0000
0010
0000
0000
0100
,
0001
0000
0010
0100
1000
1000
0001
0000
,
1000
0000
0100
0000
0001
0000
0100
0000
1000
0000
1000
0000
1000
0000
0000
0001
,
1000
0010
1000
0100
0010
0001
0010
0001
,
1000
0000
0000
0010
0000
0000
0100
0000
0000
0001
0000
0000
0010
0000
0000
0000
0100
0000
0000
0000
1000
0000
0000
0000
,
0010
0000
0000
0000
0100
0000
0000
0000
0001
0000
1000
0000
0000
0000
0000
0100
0000
0000
0000
0000
0000
0010
0000
0000
,
0001
0000
1020
0000
0130
0000
0001
0010
,
0000
0100
0000
0000
1000
0000
0010
0100
0010
0000
0000
0000
0100
0000
0001
0000
,
0000
1000
0000
0000
0100
0000
0010
0001
0010
0000
0000
0000
0001
0000
1000
0000
,
0000
0100
0000
0000
1000
0000
0010
0100
0010
0000
0000
0100
0000
0000
0001
0000
,
0000
1000
0000
0000
0100
0000
1000
0001
1000
0000
0000
0000
0001
0000
0100
0000
,
0000
0001
0000
0000
1000
0000
0100
1000
0100
0000
0000
0000
1000
0000
0010
0000
,
0000
0100
0000
0000
0010
0000
1000
0001
1000
0000
0000
0000
0100
0000
1000
0000
,
0000
0010
0000
0000
0100
0000
0001
0010
0001
0000
0000
0010
0000
0000
0100
0000
,
0000
0000
0000
1000
0000
0000
0000
0000
0000
0000
0000
0000
1002
0000
0000
0000
0000
0000
0000
0000
0000
0000
0000
0000
0103
0000
0000
0000
0000
0000
0000
0000
0100
0000
0000
0000
0000
0000
0000
0000
0010
0000
0000
0000
0000
0000
0000
0000
,
0010
0000
1000
0000
1000
0000
0001
0000
0001
0000
0010
0000
,
0010
0000
0000
0000
0100
0000
0000
0000
0010
0000
0001
0000
0100
0000
0000
0010
0000
0000
0001
0000
0000
0010
0000
0000
,
1000
0000
0001
0000
0010
0000
1000
0000
0010
0000
0000
0010
0000
0000
0100
0010
,
0000
0000
0000
0100
0000
0000
0010
0000
0000
0000
0000
0000
0100
0000
0000
0000
0000
0000
0010
0000
0000
0000
0000
0000
1001
0000
0000
0000
0000
0000
0000
0000
1000
0000
0000
0000
0000
0000
0000
0000
0001
0000
0000
0000
0000
0000
0000
0000
,
0001
0000
0010
0000
0010
0000
0100
0000
0100
0000
1000
0000
,
1000
0000
0000
0000
0000
0000
0000
0000
0100
0000
0000
0000
0010
0000
0000
0000
0001
0000
0000
0000
1000
0000
0000
0000
0010
0000
0000
0100
0000
0000
0010
0000
0000
0000
0000
0000
0100
0000
0000
0000
0000
0000
0001
0000
0000
1000
0000
0000
,
0001
0000
1000
0000
0100
0000
0010
0100
0010
0000
0000
0011
0000
0000
1100
0000
,
0000
1010
0000
0000
0002
0000
0000
0000
0003
0000
0000
0000
0000
0000
0000
0000
;

//--------------- dance-single - ----------------
#NOTES:
     dance-single:
     :
     Hard:
     16:
     0,0,0,0,0:
0000
0000
0000
0000
,
0000
0000
0000
0000
,
0000
0000
0000
0000
,
0000
0000
0000
0000
,
0000
0000
0000
0000
,
0000
0000
0001
0010
0100
0100
0010
0010
,
0200
0000
1300
0100
0001
0100
0010
0002
,
0000
0000
0000
0000
0003
0000
1000
0001
,
0101
0101
1100
1100
,
1001
1000
0001
0010
,
0100
0000
0000
0000
1000
0000
0000
0000
0001
0000
0000
0000
1000
0000
0001
0010
,
0100
0100
0100
0100
,
0100
0000
0000
0000
0100
0000
0000
0000
0100
0010
0100
0000
0010
0000
0100
0010
,
0100
0100
1000
0010
0100
0100
0010
1000
,
0001
0100
0001
0100
0010
0100
0010
0100
0010
1000
0010
1000
0010
0100
0001
1000
,
0001
2000
3100
0020
,
0031
1001
0100
0001
,
0010
0001
1000
0010
,
0100
0000
0001
0100
0010
0000
0000
0000
0100
0000
0000
0000
0010
0000
0000
0000
,
1000
2002
0000
0000
,
3003
0000
0000
0000
0002
0103
0000
0000
0000
0000
0000
0000
0020
1030
0000
0000
,
0000
0000
0000
0000
0002
0103
0000
0000
0020
1030
0000
0000
0002
0103
0000
0000
,
0000
0000
0000
0000
0010
0100
0010
0000
0100
0000
0010
0100
0001
0000
0001
0000
,
1001
1000
0200
0000
0310
0000
0002
0000
,
1003
0101
1100
1001
,
0000
1010
0011
1001
,
0000
0101
1100
0011
,
1010
1001
0110
1001
,
0000
1010
0101
1001
,
0000
0011
1100
1001
,
0000
0101
1010
1100
,
0011
0010
0002
0000
0013
0000
0200
0000
,
1300
0000
0000
0000
1001
0000
0000
0000
0001
0000
1000
0001
0000
0001
0010
0000
,
0100
1000
0100
0000
1000
0000
0001
0100
0000
0010
1000
0000
0100
0010
0000
0100
,
1000
0100
0010
0100
1000
0100
0000
1000
0010
0000
0100
0001
0000
0010
0100
0000
,
0010
0001
0100
0000
0010
1000
0001
0000
1000
0001
1000
0001
1000
0001
1000
0001
,
1000
0010
0100
0001
1000
0000
0000
0000
0001
0000
0010
0100
0000
1000
0100
0000
,
0010
0001
0100
0000
0010
1000
0001
0000
0010
0000
0100
0010
0000
0010
0001
0000
,
0010
0000
0000
0100
0000
0000
1000
0000
0000
0000
0000
0000
0001
0000
0000
0000
0100
0000
0000
0000
0001
0000
0000
0000
0010
0000
0000
0000
0100
0000
0000
0000
1000
0000
0000
0000
0010
0000
0000
1000
0000
0000
0010
0000
0000
1000
0000
0000
,
0100
0010
0001
1000
0100
0000
0100
0010
0001
0000
0001
0010
0100
0000
1000
0000
,
1001
0000
0000
0000
0001
0100
0000
0000
,
0001
0100
0000
0001
0100
0020
0000
1000
,
1030
0000
0000
0000
1000
0100
0000
0000
,
1000
0100
0000
1000
0100
0020
0000
0001
,
0031
0000
0000
0000
0010
0200
0000
0000
,
0010
0320
0000
0031
0010
0200
0000
1000
,
1300
0000
0000
0100
1000
0020
0000
0130
,
0002
2000
0000
0000
0000
0000
3003
0000
,
0000
1000
0001
0010
,
0001
1000
0010
1000
,
0001
0000
1000
0010
0100
0000
0000
0000
0001
0000
0000
0000
0010
0000
0000
0000
,
0001
0000
0000
0000
1000
0000
0000
0000
0010
0000
0000
0000
0100
0010
0100
0000
,
0010
0000
0100
0010
1000
0000
1000
0000
0100
0000
0010
0000
0001
0000
0001
0000
,
0010
0000
0001
0000
1000
0100
1000
0100
0010
0001
0010
0001
0100
0010
0100
0010
,
1000
0001
1000
0001
0000
0000
0000
0000
0000
0000
0000
0000
0000
0000
0000
0000
,
2000
0000
3001
0100
,
0001
0010
1000
0010
,
0001
0000
0000
0000
0100
0000
1000
0100
0001
0000
1000
0000
0001
0000
0000
0000
,
1000
0010
0001
0010
,
1000
0100
0010
0000
1000
0000
0001
0010
0100
0000
0100
0000
0100
0000
0000
0000
,
0010
0001
0100
1000
,
0100
0000
0000
0100
0001
0100
0000
0001
0010
0000
0010
0000
0010
0000
0000
0000
,
0100
0000
0000
0000
1000
0000
0100
1000
0010
0000
0010
0000
0100
0000
0100
0001
,
1000
1000
0001
0000
1000
0100
0001
0000
,
0100
0010
0001
0100
,
1000
0000
0000
0100
0010
0000
0100
0010
0100
0000
0001
0000
0001
0000
0000
0000
,
1000
0000
0000
0000
0100
0000
0001
0100
0010
0000
0001
0000
0100
0000
0000
0000
,
0010
0100
0001
0000
1000
0000
0010
1000
0100
0000
0100
0000
0100
0000
0000
0010
,
0001
0000
0001
0000
0100
0000
0100
0010
1000
0000
1000
0000
0001
0000
0001
0000
,
1000
0000
0000
0100
0000
0000
0010
0000
0000
0000
0000
0000
0010
0000
0000
0001
0000
0000
0100
0000
0000
0000
0000
0000
0110
0000
0000
0000
0000
0000
0000
0000
1010
0000
0000
0000
0000
0000
0000
0000
0110
0000
0000
0000
0000
0000
0000
0000
,
0101
0000
0000
0000
0110
0000
0000
0000
0001
0000
1000
0000
0000
0000
0000
2000
0000
0000
0000
0000
0000
0100
0000
0000
,
3100
0000
0021
0000
0130
0000
1000
0100
,
0000
0010
0000
0000
0001
0000
0010
0001
1000
0000
0000
0000
0010
0000
0000
0100
,
0000
0000
0001
0000
1000
0000
0010
1000
0001
0000
0000
0000
0010
0000
0100
0000
,
0000
1000
0000
0000
0100
0000
0010
0001
1000
0000
0000
1000
0000
0000
0001
0000
,
0000
0001
0000
0000
1000
0000
0001
0100
0010
0000
0000
0000
1010
0000
0010
0000
,
0000
0100
0000
0000
1001
0000
0001
0010
0100
0000
0000
0000
0011
0000
0001
0000
,
0000
0010
0000
0000
0100
0000
1000
0010
0100
0000
0000
0000
0110
0000
0000
0010
,
0000
0000
1000
0000
0001
0000
1000
0100
0010
0000
0000
0011
0000
0000
0010
0000
,
0000
0000
0000
1100
0000
0000
0000
0000
0000
0000
0000
0000
0002
0000
0000
0000
0000
0000
0000
0000
0003
0000
0000
0000
1010
0000
0000
0000
0000
0000
0000
0000
1100
0000
0000
0000
0000
0000
0000
0000
1010
0000
0000
0000
0000
0000
0000
0000
,
1100
0000
1010
0000
1001
0000
0101
0000
0011
0000
0101
0000
,
0011
0000
0000
0000
0000
0000
0000
0000
0101
0000
0000
0000
0000
0000
0000
0000
1000
0000
0000
0000
0001
0000
0000
0000
1000
0000
0000
0100
0000
0000
1000
0000
0000
0000
0000
0000
0100
0000
0000
0000
0000
0000
0010
0000
0000
0001
0000
0000
,
0010
0000
0000
0000
0000
0000
0001
0000
0000
0000
0000
0000
0100
0000
0000
0000
0000
0000
0010
0000
0000
0100
0000
0000
0010
0000
0000
0000
0000
0000
0000
0000
1000
0000
0000
0000
0000
0000
0000
0000
0001
0000
0000
0000
0000
0000
0000
0000
,
0010
0000
0000
0100
0000
0000
0000
0000
0000
0100
0000
0000
1000
0000
0000
0000
0000
0000
0100
0000
0000
0010
0000
0000
0001
0000
0000
0000
0000
0000
0000
0000
0110
0000
0000
0000
0000
0000
0000
0000
0101
0000
0000
0000
0000
0000
0000
0000
,
0110
0000
0101
0000
1001
0000
1100
0000
0110
0000
1100
0000
,
0110
0000
0000
0000
0000
0000
0000
0000
1000
0000
0000
0000
0100
0000
0000
0000
0010
0000
0000
0000
0001
0000
0000
0000
1000
0000
0000
0001
0000
0000
0100
0000
0000
0000
0000
0000
0010
0000
0000
0000
0000
0000
0100
0000
0000
0001
0000
0000
,
1000
0000
0100
0000
0010
0100
0010
0100
0010
0001
0000
1000
0100
0000
1000
0010
,
0000
0100
0001
0000
0100
0010
1000
0001
1000
0000
0000
0000
0000
0000
0000
0000
;

//--------------- dance-single - ----------------
#NOTES:
     dance-single:
     :
     Challenge:
     17:
     0,0,0,0,0:
0000
0000
0000
0000
,
0000
0000
0000
0000
,
0000
0000
0000
0000
,
0000
0000
0000
0000
,
0000
0000
0000
0000
,
0201
0000
0000
0010
0000
0301
1001
0000
,
1010
0000
0010
0001
0010
1000
0001
2000
,
0000
0000
0000
3000
0000
0000
0001
0010
,
0002
0013
0200
1300
,
0001
0001
1000
1000
,
0010
0000
0000
0000
0010
0000
0000
0000
0100
0000
0000
0000
0100
0000
0001
1000
,
0100
0100
0100
0100
,
0100
0000
0000
0000
0100
0000
0000
0000
0100
0010
0001
0000
1000
0000
0010
0100
,
0001
0001
1000
0010
0100
0100
0001
0010
,
0100
1000
0100
1000
0001
0010
0001
0010
0100
1000
0010
0100
0001
0010
0100
1000
,
0000
0002
0103
0020
,
1030
1001
0101
1001
,
1100
1001
1010
1001
,
0011
0000
0010
0100
1000
0000
0000
0000
0011
0000
0000
0000
0101
0000
0000
0000
,
1010
2002
0000
0000
,
3003
0000
0000
0000
0010
0200
0000
0000
0300
0000
0000
0000
0010
0200
0000
0000
,
0300
0000
0000
0001
2000
0000
0000
3010
0200
0000
0000
0310
0200
0000
0000
0000
,
0000
0000
0000
0000
0301
0100
0001
0000
1000
0000
1000
0100
0010
0000
0110
0000
,
0011
1100
2000
0000
3100
0000
0020
0000
,
0031
0101
1100
1001
,
0001
0100
0010
0000
0101
0000
0000
0000
1100
0000
0000
0000
1001
0000
0000
0000
,
0010
0000
1000
0001
1000
0000
0000
0000
1100
0000
0000
0000
0101
0000
0000
0000
,
1100
0101
1100
1001
,
0001
0100
0010
0100
0001
0000
0000
0000
1010
0000
0000
0000
1001
0000
0000
0000
,
0001
0001
0011
0000
1010
0000
1001
0000
,
1000
0000
0100
0010
0001
0000
0000
0000
1010
0000
0000
0000
0011
0000
0000
0000
,
1001
1000
0200
0000
1300
0000
0002
0000
,
0103
0000
0000
0000
2001
0000
0000
0000
3001
0000
0001
1000
0000
1000
0100
0000
,
0100
0010
0100
0000
0010
0000
0010
0001
0000
0001
1000
0010
0100
0010
1000
0001
,
1000
0100
1000
0001
0100
0001
0100
0001
0000
1000
0100
1000
0001
0100
0001
0010
,
0100
0000
1000
0000
0100
0010
0100
0010
0001
0000
1000
0010
0100
0001
0100
0001
,
1000
0000
0100
0000
0120
0000
0000
0000
0031
0000
0001
1000
0000
1000
0010
0000
,
0100
0010
0100
0000
0001
0000
0100
0001
0000
0001
1000
0000
1000
0100
0010
0001
,
0010
0000
0000
0100
0000
0000
1000
0000
0000
0001
0000
0000
0100
0000
0000
0000
0010
0000
0000
0000
1000
0000
0000
0000
0001
0000
0000
0000
0010
0000
0000
0000
0100
0000
0000
0000
1000
0000
0000
0100
0000
0000
0010
0000
0000
0001
0000
0000
,
1000
0010
0100
0001
1000
0000
1000
0100
0010
0000
0100
0010
0001
0000
0010
0100
,
1000
0000
1001
0000
0001
0200
0000
0300
,
0001
0200
0000
0301
0010
0020
0000
0100
,
0130
0000
0000
0000
1000
0200
0000
0300
,
1000
0200
0000
0310
0100
0200
0000
0010
,
0310
0000
0000
0000
0001
0200
0000
0000
,
0301
2000
3000
0100
0010
0200
0000
1000
,
1300
0000
0000
0000
0100
0020
0000
0130
,
1000
0000
0010
0000
1000
0001
1000
0000
0001
0000
0100
0010
0100
0000
0001
0000
,
1000
1001
0001
0010
,
0100
0010
0001
0100
,
1000
0000
0100
0010
1000
0000
0000
0000
1000
0000
0000
0000
0100
0000
0000
0000
,
0010
0000
0000
0000
0001
0000
0000
0000
1000
0000
0000
0000
0001
0010
0100
0000
,
1000
0000
0001
1000
0010
0000
0010
0000
1000
0000
0001
0000
0010
0000
0010
0000
,
0100
0000
1000
0000
0001
0100
0001
0100
0010
1000
0010
1000
0100
1000
0001
0100
,
0010
1000
0001
1000
0000
0000
0000
0000
1001
0000
0000
0001
0010
0000
0000
1000
,
0020
0000
0000
0000
0000
0000
0000
0030
1001
0000
0000
0000
1100
0000
0000
0000
,
0011
0101
1010
1001
,
1100
0000
0000
0000
0110
0000
0010
0100
1000
0000
1100
0000
0011
0000
0000
0000
,
1001
0101
1010
0101
,
0010
0100
0001
0000
0001
0000
0001
1000
0100
0000
0110
0000
0011
0000
0000
0000
,
1100
1010
0101
0011
,
1001
0000
0000
1000
0001
0000
0001
0100
0010
0000
0110
0000
0101
0000
0000
0000
,
1001
0000
0000
0000
1100
0000
1000
0100
0010
0000
0011
0000
1100
0000
0001
0100
,
0010
1010
0200
0000
0310
1010
1001
0000
,
1100
0011
0110
1100
,
0110
0000
0000
0100
0010
0000
0010
0001
1000
0000
1001
0000
0101
0000
0000
1000
,
0010
0000
0000
0000
0110
0000
0100
0001
0010
0000
0011
0000
1100
0000
0000
0000
,
1000
0001
0100
0000
0101
0000
0100
0001
1000
0000
1100
0000
0011
0000
0000
1000
,
0001
0000
0101
0000
0101
0000
1000
0001
0010
0000
0110
0000
1100
0000
0110
0000
,
0010
0000
0000
0001
0000
0000
0100
0000
0000
0000
0000
0000
0010
0000
0000
0100
0000
0000
0000
0000
0000
0100
0000
0000
0010
0000
0000
0000
0000
0000
0000
0000
1010
0000
0000
0000
0000
0000
0000
0000
1100
0000
0000
0000
0000
0000
0000
0000
,
1001
0000
0000
0000
1001
0000
0000
0000
1000
0000
0001
0000
0000
0000
0000
1000
0000
0000
0000
0000
0000
0001
0000
0000
,
0020
0000
0200
0330
1001
0000
1001
1010
,
0000
0101
0000
0000
0011
0000
0010
0100
1000
0000
0000
0000
1100
0000
0000
0011
,
0000
0000
0101
0000
1010
0000
0010
0100
0001
0000
0000
0000
1001
0000
1010
0000
,
0000
0101
0000
0000
0011
0000
0010
0100
1000
0000
0000
0011
0000
0000
1010
0000
,
0000
0011
0000
0000
1001
0000
0001
1000
0100
0000
0000
0000
0110
0000
1100
0000
,
0000
1010
0000
0000
0101
0000
0001
0010
0100
0000
0000
0000
0110
0000
0011
0000
,
0000
0110
0000
0000
1100
0000
0100
1000
0010
0000
0000
0000
0110
0000
0101
0000
,
0000
1010
0000
0000
1001
0000
1000
0001
0100
0000
0000
0101
0000
0000
1100
0000
,
0000
0000
0000
0101
0000
0000
0000
0000
0000
0000
0000
0000
2002
0000
0000
0000
0000
0000
0000
0000
0000
3003
0000
0000
1100
0000
0000
0000
0000
0000
0000
0000
0110
0000
0000
0000
0000
0000
0000
0000
0011
0000
0000
0000
0000
0000
0000
0000
,
0110
0000
1100
0000
0110
0000
0011
0000
0110
0000
1100
0000
,
0110
0000
0000
0000
0000
0000
0000
0000
0011
0000
0000
0000
0000
0000
0000
0000
0110
0000
0000
0000
0100
0000
0000
0000
1000
0000
0000
0001
0000
0000
1000
0000
0000
0000
0000
0000
0110
0000
0000
0000
0000
0000
0001
0000
0000
1000
0000
0000
,
0001
0000
0110
0000
0110
0000
1000
0001
1000
0000
0000
1010
0000
0000
0101
0000
,
0001
0000
0000
1000
0000
0000
0000
0000
0000
1000
0000
0000
0100
0000
0000
0000
0000
0000
0010
0000
0000
0001
0000
0000
0010
0000
0000
0000
0000
0000
0000
0000
0110
0000
0000
0000
0000
0000
0000
0000
1100
0000
0000
0000
0000
0000
0000
0000
,
0110
0000
0011
0000
0110
0000
1100
0000
0110
0000
0011
0000
,
0110
0000
0000
0000
0000
0000
0000
0000
1000
0000
0000
0000
0100
0000
0000
0000
0010
0000
0000
0000
0001
0000
0000
0000
1000
0000
0000
0010
0000
0000
0100
0000
0000
0000
0000
0000
0110
0000
0000
0000
0000
0000
0100
0000
0000
0001
0000
0000
,
0010
0000
0110
0000
0100
1000
0010
0100
0001
1000
0000
0010
0100
0000
0001
1000
,
0000
0000
0000
0000
0000
0000
0000
0000
0000
0000
0000
0000
0010
0000
0000
0000
0000
0000
0000
0000
0000
0000
0000
0000
0100
0000
0000
0000
0000
0000
0000
0000
0000
0000
0000
0000
0000
0000
0000
0000
0000
0000
0000
0000
0000
0000
0000
0000
0001
0000
0000
0000
0000
0000
0000
0000
0000
0000
1000
0000
0000
0000
0000
0000
0000
0000
0000
0001
0000
0000
0000
0000
0000
0000
0000
0000
0000
1000
0000
0000
0000
0000
0000
0000
0000
0000
0001
0000
0000
0000
0000
0000
0000
0000
0000
0000
1000
0000
0000
0000
0000
0000
0000
0000
0000
0000
0000
0000
0000
0000
0000
0000
0000
0000
0000
0000
0000
0000
0000
0000
0000
0000
0000
0000
0000
0000
0000
0000
0000
0000
0000
0000
0000
0000
0000
0000
0000
0000
0000
0000
0000
0000
0000
0000
0000
0000
0000
0000
0000
0000
0000
0000
0000
0000
0000
0000
0000
0000
0000
0000
0000
0000
0000
0000
0000
0000
0000
0000
0000
0000
0000
0000
0000
0000
0000
0000
0000
0000
0000
0000
0000
0000
0000
0000
0000
0000
0000
0000
0000
0000
0000
0000
;

//--------------- dance-double - ----------------
#NOTES:
     dance-double:
     :
     Easy:
     11:
     0,0,0,0,0:
00000000
00000000
00000000
00000000
,
00000000
00000000
00000000
00000000
,
00000000
00000000
00000000
00000000
,
00000000
00000000
00000000
00000000
,
00000000
00000000
00000000
00000000
,
00010000
00000000
00000000
00001000
00000000
00000000
00100000
00000000
,
00001000
00000000
00000000
00010000
00000000
00000000
00000010
00000000
,
00000200
00000300
00000000
00000010
,
00001000
00001000
00000001
00000010
,
00000100
00000100
00010000
00010000
,
00001000
00000000
00001000
00000000
01000000
00000000
01000000
00100000
,
10000000
10000000
10000000
10000000
,
10000000
10000000
10000000
10000000
,
10000000
01000000
00100000
00010000
,
00100000
00001000
00010000
00000010
,
00000000
00000100
00001000
00000100
,
00000001
00001000
00000100
00010000
,
00001000
00100000
00001000
00010000
,
00100000
00010000
01000000
00100000
,
10000000
20020000
00000000
00000000
,
30030000
00110000
00000000
11000000
,
00000000
00110000
11000000
00110000
,
00000000
00010000
01000000
00010000
,
00100000
00001000
00001000
00010000
,
00010000
00000100
00000100
00000100
,
00000000
00001000
00001000
00001000
,
00000000
00000010
00000010
00000100
,
00000100
00001001
00001001
00001001
,
00000000
00001000
00001000
00001000
,
00000000
00000100
00000100
00000100
,
00000000
00010000
00010000
00010000
,
00001000
00011000
00010100
00011000
,
01001000
02000000
03010000
00100000
,
01000000
10000000
01000000
00000000
10000000
00000000
00100000
00000000
,
01000000
00010000
01000000
00000000
00010000
00000000
00100000
00000000
,
00001000
00010000
00000100
00001000
,
00000010
00000100
00000001
00000000
00000010
00000000
00000100
00000000
,
00001000
00000100
00001000
00000000
00000100
00000000
00010000
00000000
,
00001000
00010000
00002000
00000000
02003000
00000000
03200000
00000000
,
20300000
31000000
00110000
01000000
,
10100000
10010000
00000000
10000000
,
00000000
00010000
00100000
00010000
,
00000000
00100000
00000000
00001000
,
00000000
00010000
00000010
00010000
,
00000000
00001000
00000000
00010000
,
00000000
00000100
00001000
00000100
,
00000000
00000010
00000000
00000001
,
00002000
00000000
00003000
00000000
,
00000000
00000100
00001000
00000100
,
00001000
00000010
00001000
00000010
,
00001000
00000001
00001000
00000001
,
00001000
00000001
00000010
00000001
,
00000010
00000100
00001000
00000100
,
00010000
00001000
01000000
00010000
,
00100000
00000000
00000000
00000000
,
00022000
00000000
00000000
00033000
00010000
00000000
00000100
00000000
,
00001000
00000010
00000100
00000001
,
00000010
00000000
00000100
00000000
00000010
00000001
00000100
00000000
,
00000010
00001000
00000100
00010000
,
00001000
01000000
00100000
10000000
00010000
00100000
01000000
00000000
,
00100000
00001000
00010000
00000100
,
00001000
00000000
00000010
00000000
00000100
00000001
00000010
00000000
,
00000100
00000000
00000010
00000001
00000100
00000001
00000100
00000001
,
00001000
00000010
00001000
00000000
00000100
00010000
00000100
00000000
,
00010000
00001000
01000000
00100000
,
10000000
00000000
00010000
00000000
00100000
01000000
00100000
00000000
,
01000000
00000000
10000000
00000000
00010000
01000000
00010000
00000000
,
00100000
00001000
00100000
00001000
00010000
00001000
00010000
00000000
,
00000100
00001000
00000100
00000010
00000001
00000000
00001000
00000000
,
00000010
00000000
00000000
00001000
00000000
00000000
00000010
00000000
00000000
00000000
00000000
00000000
00000100
00000000
00000000
00000000
00000010
00000000
00000000
00000000
00001000
00000000
00000000
00000000
,
00000100
00000000
00000000
00000000
00000010
00000000
00000000
00000000
00000001
00000000
00000000
00000000
00000000
00000000
00000000
00000010
00000000
00000000
00000000
00000000
00000000
00000001
00000000
00000000
,
00000200
00000320
00010030
00001000
,
01000000
00000000
00100000
10000000
00010000
00000000
00100000
00000000
,
01000000
00000000
10000000
01000000
00100000
00000000
00010000
00000000
,
00100000
00000000
00000000
00000000
00001000
00000000
00100000
00000000
00010000
00000000
00000000
00010000
00000000
00000000
00100000
00000000
,
00000000
00100000
00000000
00000000
00001000
00000000
00010000
00000000
00000100
00000000
00000000
00000000
00001000
00000000
00000000
00000000
,
00000010
00000000
00000100
00000001
00001000
00000000
00000100
00000000
,
00000010
00000000
00000001
00000010
00000100
00000000
00000010
00000000
,
00000001
00000000
00000000
00000000
00001000
00000000
00000100
00000000
00010000
00000000
00000000
00001000
00000000
00000000
00100000
00000000
,
00010000
00000000
00000000
00100000
00000000
00000000
01000000
00000000
00000000
00000000
00000000
00000000
10000000
00000000
00000000
00000000
00100000
00000000
00000000
00000000
10000000
00000000
00000000
00000000
,
00100000
00000000
10000000
00000000
00010000
00000000
01000000
00000000
00010000
00000000
01000000
00000000
,
00010000
00000000
00100000
00000000
00010000
00000000
01000000
00000000
00000000
00010000
00000000
00000000
,
00100000
00000000
00000000
00000000
00001000
00000000
00000000
00000000
00010000
00000000
00000000
00000010
00000000
00000000
00001000
00000000
,
00000010
00000000
00000000
00000010
00000000
00000000
00000100
00000000
00000001
00000000
00000100
00000000
,
00000001
00000000
00000100
00000000
00000001
00000000
00000100
00000000
00000010
00000000
00000100
00000000
,
00000010
00000000
00000100
00000000
00000001
00000000
00001000
00000000
00000000
00000100
00000000
00000000
,
00010000
00000000
00000000
00000000
00001000
00000000
00000000
00000000
01000000
00000000
00000000
00010000
00000000
00000000
00100000
00000000
,
00000000
01000000
00000000
00000000
10000000
00000000
00010000
00000000
10010000
00000000
00000000
00000000
00000000
00000000
00000000
00000000
;

//--------------- dance-double - ----------------
#NOTES:
     dance-double:
     :
     Medium:
     14:
     0,0,0,0,0:
00000000
00000000
00000000
00000000
,
00000000
00000000
00000000
00000000
,
00000000
00000000
00000000
00000000
,
00000000
00000000
00000000
00000000
,
00000000
00000000
00000000
00000000
,
00000000
00000000
00000000
00000000
,
00000000
00000000
00000000
00000000
,
00000000
00000000
00000000
00000000
,
00000000
00000000
00000000
00000000
,
00001000
00010000
00000100
00001000
,
00000010
00000000
00000100
00000000
00000001
00000000
00000010
00000001
,
00001000
00001000
00001000
00001000
,
00001000
00000000
00001000
00000000
00001000
00000100
00010000
00001000
,
00020000
00030200
00002300
00003020
,
00010030
00000000
00001000
00000000
01000000
00000000
00100000
00000000
10000000
00000000
01000000
00000000
00100000
00010000
00100000
00010000
,
00000000
02000000
03100000
20000000
,
30010000
00110000
00100000
00001000
,
00010000
00000010
00000100
00000001
,
00000010
00000001
00001000
00000000
00000100
00000000
00010000
00000000
,
00001000
02002000
00000000
00003000
,
03000000
00000000
00000000
00000000
02200000
03300000
00000000
00000000
00000000
00000000
00000000
00000000
20020000
30030000
00000000
00000000
,
00000000
00000000
00000000
00000000
02200000
03300000
00000000
00000000
20020000
30030000
00000000
00000000
02200000
03300000
00000000
00000000
,
00000000
00000000
10000000
00010000
00100000
00001000
00010000
00010000
,
00000100
00001000
00000020
00000000
00000031
00000000
00000020
00000000
,
00000130
00000101
00001010
00000101
,
00000000
00001001
00001100
00010100
,
00000000
00011000
00001100
00011000
,
01001000
00011000
00011000
00011000
,
00000000
00110000
11000000
00110000
,
00000000
01010000
10100000
10010000
,
00000000
11000000
01100000
00110000
,
00011000
00000200
00001300
00000020
,
00000130
00000000
00000000
00000000
00001001
00000000
00000000
00000000
00000001
00000000
00000000
00001000
00000000
00000000
00000100
00000000
,
00010000
00001000
01000000
00010000
00100000
00000000
00010000
00100000
,
00001000
00000000
00010000
00000000
00000010
00000000
00000000
00000010
00000000
00000000
00000100
00000000
00000000
00000100
00000000
00000000
,
00000010
00010000
00001000
00100000
00010000
10000000
01000000
00100000
,
00010000
00000000
10000000
00000000
10200000
00000000
00000000
00000000
01300000
00000000
00000000
00010000
00000000
00000000
00100000
00000000
,
01000000
00100000
00001000
00010000
00000010
00000100
00000001
00001000
,
00000100
00000000
00000000
00010000
00000000
00000000
00001000
00000000
00010000
00000000
00000100
00000000
00010000
00000000
00001000
00000000
01000000
00000000
00001000
00000000
00000000
00010000
00000000
00000000
,
00001000
00000000
01000000
00000000
00100000
00000000
00000000
00100000
10000000
00000000
00000000
10000000
00010000
00000000
00000000
00010000
,
00200000
00301000
00010000
00000100
,
00001000
00000010
00000100
00000001
,
00000010
00000001
00001000
00000000
00000100
00000000
00010000
00000000
,
00001000
01000000
00010000
00100000
,
01000000
10000000
00100000
00000000
01000000
00000000
00010000
00100000
,
00001000
00000000
00010000
00000000
00000100
00000000
00001000
00000010
,
00000100
00000000
00000000
00000001
00000010
00000200
00000000
00010000
,
00020000
00000000
00030300
00000000
,
00000000
00001000
01000000
00100000
,
10000000
00010000
00100000
01000000
,
00100000
00000000
00001000
00010000
00001000
00000000
00000000
00000000
00010000
00000000
00000000
00000000
00000100
00000000
00000000
00000000
,
00001000
00000000
00000000
00000000
00000010
00000000
00000000
00000000
00000100
00000000
00000000
00000000
00000001
00000100
00000001
00000000
,
00000100
00000000
00000010
00001000
00000100
00000000
00000010
00000000
00000001
00000000
00000000
00000000
00000010
00000000
00000001
00000000
,
00001000
00000000
00000100
00010000
00001000
00000000
00010000
00001000
,
01000000
00000000
00000000
00000000
,
20020000
30030000
11000000
01000000
,
00010000
01000000
00010000
00100000
,
00001000
00000000
00000000
00000000
00010000
00000000
00000100
00001000
00000010
00000000
00000100
00000000
00000001
00000000
00000000
00000000
,
00000100
00000001
00000010
00000100
,
00001000
00000100
00010000
00001000
00010000
00010000
00010000
00000000
,
00000100
00001000
00000010
00000100
,
00000001
00000000
00000000
00000010
00000100
00000000
00000000
00000100
00001000
00000000
00000100
00000000
00010000
00000000
00000000
00000000
,
00001000
00000000
01000000
00100000
10000000
01000000
00010000
01000000
,
00100000
00001000
00010000
00000000
00000100
00000100
00000100
00000000
,
00001000
00000010
00000100
00000001
,
00000010
00000000
00000000
00000100
00000010
00000000
00000010
00000001
00000100
00000000
00000100
00000000
00000100
00000000
00000000
00000000
,
00000010
00000000
00000000
00000000
00010000
00000000
00001000
00100000
00010000
00000000
00100000
00000000
01000000
00000000
00000000
00000000
,
10000000
00000000
00100000
00000000
01000000
00000000
00010000
00000000
10000000
00000000
10000000
00000000
10000000
00000000
00000000
00010000
,
00100000
00010000
00100000
00001000
00010000
00000100
00001000
00000010
,
00000100
00000000
00000000
00000001
00000000
00000000
00000100
00000000
00000000
00000000
00000000
00000000
00000010
00000000
00000000
00001000
00000000
00000000
00000010
00000000
00000000
00000000
00000000
00000000
00000100
00000000
00000000
00000000
00000000
00000000
00000000
00000000
00000100
00000000
00000000
00000000
00000000
00000000
00000000
00000000
00000010
00000000
00000000
00000000
00000000
00000000
00000000
00000000
,
00000010
00000000
00000000
00000000
00010000
00000000
00000000
00000000
00010000
00000000
00001000
00000000
00000000
00000000
00000000
00010000
00000000
00000000
00000000
00000000
00000000
00000100
00000000
00000000
,
00001000
00000000
00000201
00000000
00000310
00000000
00000100
00000001
,
00000000
00000010
00000000
00000000
00000100
00000000
00001000
00000100
00001000
00000000
00000000
00000000
00000100
00000000
00010000
00000000
,
00000000
00001000
00000000
00000000
01000000
00000000
00100000
01000000
00100000
00000000
00000000
00000000
01000000
00000000
00010000
00000000
,
00000000
00100000
00000000
00000000
01000000
00000000
10000000
01000000
10000000
00000000
00000000
11000000
00000000
00000000
01000000
00000000
,
00000000
01100000
00000000
00000000
00100000
00000000
00001000
00000000
00011000
00000000
00000000
00000000
00010000
00000000
00000010
00000000
,
00000000
00000100
00000000
00000000
00000001
00000000
00000010
00000100
00001000
00000000
00000000
00000000
00000100
00000000
00010000
00000000
,
00000000
00000010
00000000
00000000
00000100
00000000
00000010
00001000
00000001
00000000
00000000
00000000
00001000
00000000
00000100
00000000
,
00000000
00010000
00000000
00000000
00001000
00000000
01000000
00010000
00100000
00000000
00000000
11000000
00000000
00000000
10000000
00000000
,
00000000
00000000
00000000
01010000
00000000
00000000
00000000
00000000
00000000
00000000
00000000
00000000
10020000
00000000
00000000
00000000
00000000
00000000
00000000
00000000
00000000
00000000
00000000
00000000
00130000
00000000
00000000
00000000
00000000
00000000
00000000
00000000
00100000
00000000
00000000
00000000
00000000
00000000
00000000
00000000
00001000
00000000
00000000
00000000
00000000
00000000
00000000
00000000
,
00001000
00000000
00010000
00000000
00010000
00000000
00000100
00000000
00000100
00000000
00001000
00000000
,
00001000
00000000
00000000
00000000
00000010
00000000
00000000
00000000
00000001
00000000
00000010
00000000
00001000
00000000
00000000
00000100
00000000
00000000
00000010
00000000
00000000
00000001
00000000
00000000
,
00000010
00000000
00000001
00000000
00001000
00000000
00000010
00000000
00010010
00000000
00000000
00010010
00000000
00000000
00011000
00000000
,
00001000
00000000
00000000
00010000
00000000
00000000
00000000
00000000
00000000
00010000
00000000
00000000
00001000
00000000
00000000
00000000
00000000
00000000
01000000
00000000
00000000
00100000
00000000
00000000
10000000
00000000
00000000
00000000
00000000
00000000
00000000
00000000
10000000
00000000
00000000
00000000
00000000
00000000
00000000
00000000
01000000
00000000
00000000
00000000
00000000
00000000
00000000
00000000
,
01000000
00000000
00100000
00000000
00100000
00000000
00010000
00000000
00010000
00000000
10000000
00000000
,
10000000
00000000
00000000
00000000
00000000
00000000
00000000
00000000
00010000
00000000
00000000
00000000
01000000
00000000
00000000
00000000
10000000
00000000
00000000
00000000
01000000
00000000
00000000
00000000
00100000
00000000
00000000
01000000
00000000
00000000
00100000
00000000
00000000
00000000
00000000
00000000
10000000
00000000
00000000
00000000
00000000
00000000
00010000
00000000
00000000
00100000
00000000
00000000
,
00010000
00000000
00100000
00000000
00001000
00010000
00000100
00010000
00001000
01000000
00000000
00001000
00010000
00000000
00000100
00001000
,
00000000
00000010
00000100
00000000
00000001
00000010
00000100
00010000
00001000
00000000
00000000
00000000
00000000
00000000
00000000
00000000
;

//--------------- dance-double - ----------------
#NOTES:
     dance-double:
     :
     Hard:
     16:
     0,0,0,0,0:
00000000
00000000
00000000
00000000
,
00000000
00000000
00000000
00000000
,
00000000
00000000
00000000
00000000
,
00000000
00000000
00000000
00000000
,
00000000
00000000
00000000
00000000
,
00210000
00000000
00000000
00001000
00000000
00000000
00310000
00000000
,
00011000
00000000
00000010
00000000
00010000
00001000
00010000
00000200
,
00000000
00000000
00000000
00000000
00000300
00000000
00010000
00001000
,
01000000
01000000
00100000
00100000
,
10010000
10000000
00010000
00100000
,
00001000
00000000
00000000
00000000
00010000
00000000
00000000
00000000
00000100
00000000
00000000
00000000
00001000
00000000
00000010
00000100
,
00000002
00000100
00000100
00000100
,
00000100
00000000
00000000
00000000
00000100
00000000
00000000
00000000
00000100
00000000
00000000
00000000
00000100
00000003
00000000
00000000
,
00000001
00000100
00000010
00000000
00000100
00000010
00001000
00000000
,
00000010
00001000
00000010
00000000
00001000
00000100
00001000
00000000
00000100
00010000
00000100
00000000
00010000
00001000
00010000
00000000
,
00001000
00020000
00030200
00002300
,
00003020
00000130
00000001
00000010
,
00000100
00001000
00000100
00010000
,
00001000
01000000
00100000
00000000
10000000
00000000
00010000
00000000
,
00100000
21000000
00000000
00000000
,
30010000
01010000
00000000
00011000
,
00000000
00001100
00000110
00000011
,
00000000
00000000
00000000
00000000
00000001
00000100
00000001
00000000
00000100
00000000
00000010
00000000
00000100
00000000
00000100
00000000
,
00000010
00001000
00000200
00000000
00020300
00000000
00032000
00000000
,
02003000
03100000
01000000
10010000
,
00000000
00100000
01000000
10010000
,
00000000
00110000
00110000
00101000
,
00101000
00011000
00010100
00001010
,
00000000
00000010
00000100
00001001
,
00000000
00000100
00000010
00001001
,
00000000
00000101
00000101
00001010
,
00001010
00002000
00003200
00020300
,
00032000
00000000
00000000
00000000
00203000
00000000
00000000
00000000
00310000
00000000
00100000
01000000
00000000
01000000
10000000
00000000
,
00010000
10000000
00010000
00000000
01000000
00000000
00010000
00100000
00000000
01000000
10000000
00000000
00010000
01000000
00100000
00000000
,
01000000
00000000
00001000
00000000
00010000
00001000
00010000
00000000
00000100
00000000
00001000
00000010
00001000
00000000
00000010
00000000
,
00000100
00000000
00001001
00000000
00000001
00000010
00000001
00000000
00001000
00000000
00000100
00010000
00001000
00000000
00010000
00000000
,
00001000
01000000
00001000
01000000
00200000
00000000
00000000
00000000
10300000
00000000
01000000
00100000
00000000
00100000
00010000
00000000
,
00100000
00001000
00010000
00000000
00000100
00000000
00001000
00000010
00000000
00000100
00000001
00000000
00001000
00000000
00000100
00000000
,
00001000
00000000
00000000
00000100
00000000
00000000
00010000
00000000
00000000
00000000
00000000
00000000
00001000
00000000
00000000
00000000
01000000
00000000
00000000
00000000
00001000
00000000
00000000
00000000
01000000
00000000
00000000
00000000
00100000
00000000
00000000
00000000
01000000
00000000
00000000
00000000
00100000
00000000
00000000
00000000
10000000
00000000
00000000
00000000
00100000
00000000
00000000
00000000
,
10000000
00000000
00000000
00000000
00010000
00000000
00000000
00000000
10000000
00000000
00000000
00000000
00010000
00000000
00000000
00000000
00000000
00000000
00000000
00000000
00000000
00010000
00000000
00000000
00100000
00000000
00000000
00000000
00000000
00000000
00000000
00000000
00000000
00100000
00000000
00000000
00001000
00000000
00000000
00000000
00000000
00000000
00000000
00000000
00000000
00001000
00000000
00000000
,
00010000
00000010
00000100
00000000
00000001
00001000
00000000
00000000
,
00000001
00001000
00000000
00000001
00000010
00000200
00000000
00010000
,
00010300
00000000
00000000
00000000
00001000
01000000
00000000
00000000
,
00001000
01000000
00000000
00001000
01000000
00200000
00000000
10000000
,
10300000
00000000
00000000
00000000
01000000
00200000
00000000
00301000
,
00010000
00001000
00000000
00010000
00000100
00010000
00000000
00000100
,
00001000
00000000
00000000
00000010
00000100
00000002
00000000
00001000
,
00002000
00000000
00000000
00003003
,
00000000
00000101
00000100
00000010
,
00000100
00001000
00010000
00100000
,
01000000
00000000
01000000
00010000
00100000
00000000
00000000
00000000
10000000
00000000
00000000
00000000
00100000
00000000
00000000
00000000
,
00010000
00000000
00000000
00000000
00001000
00000000
00000000
00000000
00000100
00000000
00000000
00000000
00001000
00000100
00001000
00000000
,
00000100
00000000
00000010
00000001
00001000
00000000
00000010
00000000
00000100
00000000
00000010
00000000
00001000
00000000
00000100
00000000
,
00010000
00001000
00100000
00001000
00100000
00010000
00100000
01000000
,
10000000
00010000
00000000
00000000
00000000
00000000
00000000
00000000
,
00022000
00000000
00000000
00033000
00001100
00000000
00001000
00000000
,
00000010
00000100
00000001
00000010
,
00001000
00000000
00000000
00000000
00000010
00000000
00000001
00000010
00000100
00000000
00000100
00000000
00000100
00000000
00000000
00000000
,
00001000
00000100
00010000
00001000
,
01000000
00001000
01000000
00000000
00100000
00000000
10000000
00010000
10000000
00000000
10000000
00000000
10000000
00000000
00000000
00000000
,
01000000
00100000
00100000
00001000
,
00010000
00000000
00000000
00000100
00001000
00000000
00001000
00000010
00000100
00000000
00000100
00000000
00000100
00000000
00000000
00000000
,
00000001
00000000
00000000
00000000
00000010
00000000
00000100
00001000
00000010
00000000
00000010
00000000
00000100
00000000
00000100
00000010
,
00001000
00000100
00011000
00000000
00110000
00010000
00010000
00000000
,
01000000
00100000
10000000
00010000
,
00100000
00000000
00000000
01000000
00100000
00000000
00100000
00001000
00010000
00000000
00010000
00000000
00010000
00000000
00000000
00000000
,
00000100
00000000
00000000
00000000
00001000
00000000
00000010
00000100
00000001
00000000
00000001
00000000
00000001
00000000
00000000
00000000
,
00001000
00000100
00001000
00000000
00000100
00000000
00000100
00010000
00000100
00000000
00000100
00000000
00000100
00000000
00000000
00000100
,
00001000
00000000
00001000
00000000
00001000
00000000
00001000
00000010
00010000
00000000
00010000
00000000
00010000
00000000
00010000
00000000
,
00010000
00000000
00000000
00001000
00000000
00000000
00010000
00000000
00000000
00000000
00000000
00000000
00001000
00000000
00000000
01000000
00000000
00000000
00000000
00000000
00000000
00001000
00000000
00000000
00010000
00000000
00000000
00000000
00000000
00000000
00000000
00000000
00010000
00000000
00000000
00000000
00000000
00000000
00000000
00000000
00001000
00000000
00000000
00000000
00000000
00000000
00000000
00000000
,
01000000
00000000
00000000
00000000
01000000
00000000
00000000
00000000
00100000
00000000
00100000
00000000
00000000
00000000
00000000
01000000
00000000
00000000
00000000
00000000
00000000
00010000
00000000
00000000
,
00100000
00000000
21000000
00000000
30010000
00000000
10000000
01000000
,
00000000
00100000
00000000
00000000
00010000
00000000
00100000
00010000
00100000
00000000
00000000
00000000
00010000
00000000
00001000
00000000
,
00000000
00000100
00000000
00000000
00001000
00000000
00000010
00000100
00000001
00000000
00000000
00000000
00000100
00000000
00000010
00000000
,
00000000
00010000
00000000
00000000
00001000
00000000
00010000
00001000
01000000
00000000
00000000
10100000
00000000
00000000
10000000
00000000
,
00000000
00110000
00000000
00000000
00100000
00000000
00010000
10000000
01000000
00000000
00000000
00000000
01000000
00000000
00100000
00000000
,
00000000
00001000
00000000
00000000
00010000
00000000
00001000
00010000
00000010
00000000
00000000
00000000
00000100
00000000
00000010
00000000
,
00000000
00001000
00000000
00000000
00000001
00000000
00000010
00000001
00000100
00000000
00000000
00000000
00001000
00000000
00010000
00000000
,
00000000
00100000
00000000
00000000
01000000
00000000
00100000
10000000
00010000
00000000
00000000
00100000
00000000
00000000
10000000
00000000
,
00000000
00000000
00000000
00100000
00000000
00000000
00000000
00000000
00000000
00000000
00000000
00000000
00110000
00000000
00000000
00000000
00000000
00000000
00000000
00000000
00000000
00000000
00000000
00000000
11000000
00000000
00000000
00000000
00000000
00000000
00000000
00000000
11000000
00000000
00000000
00000000
00000000
00000000
00000000
00000000
01100000
00000000
00000000
00000000
00000000
00000000
00000000
00000000
,
01100000
00000000
00110000
00000000
00110000
00000000
00101000
00000000
00101000
00000000
00011000
00000000
,
00011000
00000000
00000000
00000000
00000000
00000000
00000000
00000000
00010100
00000000
00000000
00000000
00000000
00000000
00000000
00000000
00000100
00000000
00000000
00000000
00001000
00000000
00000000
00000000
00000010
00000000
00000000
00000100
00000000
00000000
00000001
00000000
00000000
00000000
00000000
00000000
00000010
00000000
00000000
00000000
00000000
00000000
00000100
00000000
00000000
00001000
00000000
00000000
,
00000001
00000000
00001000
00000000
00000100
00000000
00010000
00001000
01000000
00000000
00000000
01010000
00000000
00000000
00110000
00000000
,
00100000
00000000
00000000
01000000
00000000
00000000
00000000
00000000
00000000
01000000
00000000
00000000
10000000
00000000
00000000
00000000
00000000
00000000
00010000
00000000
00000000
10000000
00000000
00000000
01000000
00000000
00000000
00000000
00000000
00000000
00000000
00000000
01100000
00000000
00000000
00000000
00000000
00000000
00000000
00000000
00110000
00000000
00000000
00000000
00000000
00000000
00000000
00000000
,
00110000
00000000
00101000
00000000
00101000
00000000
00011000
00000000
00011000
00000000
00010010
00000000
,
00010010
00000000
00000000
00000000
00000000
00000000
00000000
00000000
00000010
00000000
00000000
00000000
00000100
00000000
00000000
00000000
00000001
00000000
00000000
00000000
00001000
00000000
00000000
00000000
00000100
00000000
00000000
00000010
00000000
00000000
00000001
00000000
00000000
00000000
00000000
00000000
00000010
00000000
00000000
00000000
00000000
00000000
00000100
00000000
00000000
00001000
00000000
00000000
,
00000010
00000000
00010000
00001000
01000000
00100000
10000000
00010000
00100000
00010000
00000000
00010000
00100000
00000000
00100000
00001000
,
00000000
00001000
00010000
00000000
00010000
00000100
00001000
00000010
00000100
00000000
00000000
00000000
00000000
00000000
00000000
00000000
;

//--------------- dance-double - ----------------
#NOTES:
     dance-double:
     :
     Challenge:
     17:
     0,0,0,0,0:
00000000
00000000
00000000
00000000
,
00000000
00000000
00000000
00000000
,
00000000
00000000
00000000
00000000
,
00000000
00000000
00000000
00000000
,
00000000
00000000
00000000
00000000
,
00010100
00000000
00001000
01000000
00010000
00010000
00100000
00001000
,
00010000
00000000
00000100
00001000
00000010
00000001
00000010
00000200
,
00000000
00000000
00000000
00000000
00000300
00000000
00000001
00000100
,
00002010
00003100
00020100
00031000
,
00011000
00001000
00100000
00010000
,
01000000
00000000
00000000
00000000
00100000
00000000
00000000
00000000
10000000
00000000
00000000
00000000
00010000
00000000
00100000
00001000
,
00020000
00000100
00001000
00000100
,
00001000
00000000
00000000
00000000
00030100
00000000
00000000
00000000
00001000
00000010
00000100
00000000
00000100
00000000
00000100
00000010
,
00001000
00001000
00000100
00000100
00010000
00010000
00001000
00001000
,
01000000
00010000
00100000
00010000
01000000
00001000
00010000
00001000
00010000
00000100
00001000
00000010
00001000
00000001
00000010
00000100
,
00000000
00001200
00010300
00021000
,
00030010
00000110
00001010
00001100
,
00010100
00011000
01001000
01100000
,
10010000
00000000
10000000
01000000
00100000
00000000
00000000
00000000
01100000
00000000
00000000
00000000
11000000
00000000
00000000
00000000
,
00110000
00022000
00000000
00000000
,
00033000
00000000
00000000
00000000
00000020
00000130
00000000
00000000
00000000
00000000
00000000
00000000
00000020
00000130
00000000
00000000
,
00000000
00000000
00000000
00000000
00000020
00000130
00000000
00000000
00000020
00000130
00000000
00000000
00000020
00000130
00000000
00000000
,
00000000
00000000
00000000
00000000
00000001
00000010
00000100
00000000
00001100
00000000
00000100
00010000
00001000
00000000
00011000
00000000
,
00011000
00011000
00002000
00000000
02003000
00000000
03020000
00000000
,
00130000
11000000
00110000
01010000
,
01000000
00010000
00100000
00000000
00110000
00000000
00000000
00000000
00011000
00000000
00000000
00000000
00001010
00000000
00000000
00000000
,
00000010
00000000
00000010
00000100
00000010
00000000
00000000
00000000
00000101
00000000
00000000
00000000
00000011
00000000
00000000
00000000
,
00000110
00001100
00011000
01001000
,
00010000
00100000
00010000
00100000
00010000
00000000
00000000
00000000
11000000
00000000
00000000
00000000
00110000
00000000
00000000
00000000
,
01000000
01000000
01010000
00000000
00011000
00000000
00010100
00000000
,
00000100
00000000
00000100
00000010
00000001
00000000
00000000
00000000
00000011
00000000
00000000
00000000
00001100
00000000
00000000
00000000
,
00000100
00010000
00002000
00000000
01003000
00000000
00200000
00000000
,
10300000
00000000
00000000
00000000
00210000
00000000
00000000
00000000
01300000
00000000
10000000
00010000
00000000
00010000
01000000
00000000
,
01000000
00010000
00100000
00000000
00100000
00000000
00100000
00001000
00000000
00001000
00010000
00000100
00001000
00000010
00000100
00000001
,
00001000
00000100
00000010
00000001
00000100
00000010
00001000
00000100
00010000
00000000
00011000
00000000
00001000
01000000
00100000
10000000
,
00010000
00000000
11000000
00000000
01000000
00100000
00010000
00100000
01000000
00100000
00001000
00010000
00000100
00001000
00000010
00010000
,
00001000
00010000
00000100
00001000
00000020
00000000
00000000
00000000
00000130
00000000
00000100
00000001
00000000
00000001
00000010
00000000
,
00000010
00000100
00001000
00000000
00000100
00000000
00000100
00010000
00000000
00010000
00001000
01000000
00100000
10000000
00010000
00100000
,
00010000
00000000
00000000
10000000
00000000
00000000
00100000
00000000
00000000
10000000
00000000
00000000
00010000
00000000
00000000
00000000
00010000
00000000
00000000
00000000
00100000
00000000
00000000
00000000
00001000
00000000
00000000
00000000
00001000
00000000
00000000
00000000
00010000
00000000
00000000
00000000
00000010
00000000
00000000
00000100
00000000
00000000
00000010
00000000
00000000
00000100
00000000
00000000
,
00000001
00001000
00000001
00001000
00000001
00000000
00001000
00000010
00000100
00000000
00000100
00000001
00001000
00000000
00001000
00000100
,
00020100
00000000
00031000
00000000
00010000
00000100
00000000
00000000
,
00010000
00000100
00000000
00000100
00001000
00000020
00000000
00000100
,
00000200
00000000
00000330
00000000
00000001
00001000
00000000
00000000
,
00000001
00001000
00000000
00000001
00000010
00000200
00000000
00001000
,
00002000
00000000
00003300
00000000
00001000
00000020
00000000
00000000
,
00010030
00001000
00000000
00010000
00000100
00020000
00000000
00001000
,
00031000
00000000
00000000
00001000
01000000
00200000
00000000
10000000
,
10000000
20000000
00000000
00000000
00000000
00000000
00000000
00000000
,
30300000
10010000
00010000
00100000
,
00001000
00011000
00010000
00000100
,
00001000
00000000
00001000
00000001
00000010
00000000
00000000
00000000
00000010
00000000
00000000
00000000
00000001
00000000
00000000
00000000
,
00001000
00000000
00000000
00000000
00001100
00000000
00000000
00000000
00000100
00000000
00000000
00000000
00010000
00001000
00010000
00000000
,
00001000
00000000
00001000
01000000
00100000
00000000
00010000
00000000
00100000
00000000
10000000
00000000
01000000
00000000
00010000
00000000
,
01000000
00000000
00100000
00000000
00010000
00100000
00010000
00100000
00001000
00100000
00001000
00010000
00001000
00010000
00000100
00010000
,
00000100
00001000
00000100
00001000
00000000
00000000
00000000
00000000
00000000
00000000
00000000
00000000
00000000
00000000
00000000
00000000
,
00200020
00000000
00000000
00300030
00011000
00000000
00101000
00000000
,
00110000
11000000
01010000
00101000
,
00011000
00000000
00000000
00000000
00010100
00000000
00000100
00001000
00000010
00000000
00001010
00000000
00000101
00000000
00000000
00000000
,
00000011
00000110
00001100
00001001
,
00000001
00000100
00000010
00000000
00000110
00000000
00000010
00001000
00000100
00000000
00001100
00000000
00010100
00000000
00000000
00000000
,
00011000
01001000
01010000
00110000
,
11000000
00000000
00000000
10000000
00010000
00000000
00010000
00100000
01000000
00000000
01100000
00000000
11000000
00000000
00000000
00000000
,
10100000
00000000
00000000
00000000
01010000
00000000
00010000
01000000
00100000
00000000
01010000
00000000
00110000
00000000
00100000
00001000
,
00010000
00010100
00002100
00000000
00003010
00000110
00001001
00000000
,
00000011
00001001
00001010
00001100
,
00010100
00000000
00000000
00010000
00001000
00000000
00001000
01000000
00100000
00000000
01100000
00000000
10010000
00000000
00000000
00000000
,
00110000
00000000
00000000
00000000
00101000
00000000
00001000
00010000
00000100
00000000
00001100
00000000
00000011
00000000
00000000
00000000
,
00000001
00000100
00000010
00000000
00000110
00000000
00000010
00001000
00000100
00000000
00001100
00000000
00011000
00000000
00000000
00010000
,
00000100
00000000
00001100
00000000
00001001
00000000
00000001
00000100
00000010
00000000
00000110
00000000
00000101
00000000
00000011
00000000
,
00000010
00000000
00000000
00000100
00000000
00000000
00001000
00000000
00000000
00000000
00000000
00000000
00000100
00000000
00000000
00010000
00000000
00000000
00000000
00000000
00000000
00001000
00000000
00000000
00010000
00000000
00000000
00000000
00000000
00000000
00000000
00000000
00000110
00000000
00000000
00000000
00000000
00000000
00000000
00000000
00001000
00000000
00000000
00000000
00000000
00000000
00000000
00000000
,
01100000
00000000
00000000
00000000
00010000
00000000
00000000
00000000
00011000
00000000
00011000
00000000
00000000
00000000
00000000
00001200
00000000
00000000
00000000
00000000
00000000
00010000
00000000
00000000
,
00020300
00000000
00031000
00000000
01001000
00000000
01100000
10100000
,
00000000
00110000
00000000
00000000
01100000
00000000
01000000
00100000
00010000
00000000
00000000
00000000
00101000
00000000
00011000
00000000
,
00000000
00010100
00000000
00000000
00001010
00000000
00000010
00001000
00000001
00000000
00000000
00000000
00000011
00000000
00000110
00000000
,
00000000
00001100
00000000
00000000
00001010
00000000
00000010
00010000
00001000
00000000
00000000
00101000
00000000
00000000
00011000
00000000
,
00000000
00010010
00000000
00000000
00000110
00000000
00000010
00001000
00000100
00000000
00000000
00000000
00001100
00000000
00000011
00000000
,
00000000
00001100
00000000
00000000
00001001
00000000
00000001
00001000
00000100
00000000
00000000
00000000
00001100
00000000
00011000
00000000
,
00000000
00010100
00000000
00000000
00011000
00000000
00001000
01000000
00100000
00000000
00000000
00000000
01100000
00000000
10010000
00000000
,
00000000
00110000
00000000
00000000
01010000
00000000
00010000
01000000
00010000
00000000
00000000
00011000
00000000
00000000
00000100
00000000
,
00000000
00000000
00000000
00011000
00000000
00000000
00000000
00000000
00000000
00000000
00000000
00000000
00001000
00000000
00000000
00000000
00000000
00000000
01000000
00000000
00000000
00000000
00000000
00000000
01010000
00000000
00000000
00000000
00000000
00000000
00000000
00000000
00110000
00000000
00000000
00000000
00000000
00000000
00000000
00000000
01010000
00000000
00000000
00000000
00000000
00000000
00000000
00000000
,
00110000
00000000
01010000
00000000
00110000
00000000
00011000
00000000
00010100
00000000
00011000
00000000
,
00010100
00000000
00000000
00000000
00000000
00000000
00000000
00000000
00011000
00000000
00000000
00000000
00000000
00000000
00000000
00000000
00010000
00000000
00000000
00000000
00000010
00000000
00000000
00000000
00000100
00000000
00000000
00000001
00000000
00000000
00000100
00000000
00000000
00000000
00000000
00000000
00000010
00000000
00000000
00000000
00000000
00000000
00001000
00000000
00000000
00000100
00000000
00000000
,
00001000
00000000
00000100
00000000
00010000
00000000
00001000
01000000
00001000
00000000
00000000
01100000
00000000
00000000
10100000
00000000
,
10000000
00000000
00000000
01000000
00000000
00000000
00000000
00000000
00000000
01000000
00000000
00000000
00100000
00000000
00000000
00000000
00000000
00000000
00100000
00000000
00000000
00010000
00000000
00000000
01010000
00000000
00000000
00000000
00000000
00000000
00000000
00000000
00011000
00000000
00000000
00000000
00000000
00000000
00000000
00000000
01010000
00000000
00000000
00000000
00000000
00000000
00000000
00000000
,
00011000
00000000
01010000
00000000
00011000
00000000
00001100
00000000
00011000
00000000
00001100
00000000
,
00011000
00000000
00000000
00000000
00000000
00000000
00000000
00000000
00001000
00000000
00000000
00000000
00000100
00000000
00000000
00000000
00000010
00000000
00000000
00000000
00000001
00000000
00000000
00000000
00001000
00000000
00000000
00000010
00000000
00000000
00000100
00000000
00000000
00000000
00000000
00000000
00000110
00000000
00000000
00000000
00000000
00000000
00000010
00000000
00000000
00001000
00000000
00000000
,
00000100
00000000
00001100
00000000
00000100
00010000
00001000
01000000
00010000
10000000
00000000
00010000
00100000
00000000
00001000
00010000
,
00000000
00000000
00000000
00000100
00000000
00000000
00010000
00000000
00000000
00000000
00000000
00000000
00001000
00000000
00010000
00000000
00001000
00000000
00010000
00000000
00000000
00001000
00000000
00000000
00010000
00000000
00000000
00000000
00000000
00000000
00000000
00000000
00000000
00000000
00000000
00000000
00000000
00000000
00000000
00000000
00000000
00000000
00000000
00000000
00000000
00000000
00000000
00000000
;
