#TITLE:The Alternate Route;
#SUBTITLE:;
#ARTIST:ParagonX9;
#TITLETRANSLIT:;
#SUBTITLETRANSLIT:;
#ARTISTTRANSLIT:;
#CREDIT:;
#BANNER:bn.png;
#BACKGROUND:bg.png;
#LYRICSPATH:;
#CDTITLE:;
#MUSIC:The Alternate Route.mp3;
#OFFSET:-0.022;
#SAMPLESTART:11.860;
#SAMPLELENGTH:12.000;
#SELECTABLE:YES;
#BPMS:0.000=162.000;
#STOPS:192.000=2.593
;
#BGCHANGES:;

//---------------dance-single - ----------------
#NOTES:
     dance-single:
     :
     Hard:
     7:
     0.383,0.525,0.162,0.366,0.004:
0000
0000
0000
0000
,
0000
0000
0000
0000
,
0000
0000
0000
0000
,
0000
0000
0000
0000
,
0000
0000
0000
0000
,
0000
0000
0000
0000
,
0000
0000
0000
0000
,
0000
0000
0000
0000
,
0100
0000
1001
0000
0000
0001
0100
0010
,
0100
0001
0200
0000
0000
0000
0300
0000
,
0010
0000
1000
0000
0001
0100
0010
0100
,
2000
0000
0000
3000
,
0000
0000
0101
0000
0000
0000
0101
0010
,
1000
0100
0020
0000
0000
0000
0031
0010
,
0100
0000
0100
0010
0000
0010
1000
0010
,
0200
0000
0000
0300
,
0002
0000
0010
0000
0013
0000
0001
0010
,
0001
0100
0020
0000
0100
0000
0130
0000
,
0110
0000
1001
0000
0100
0010
1000
0010
,
0200
0000
0000
0300
,
0000
0000
1010
0000
0000
0000
1000
0100
,
0010
0001
0020
0000
0000
0000
0031
1000
,
0100
0000
0001
0100
0000
0100
0010
1000
,
0002
0000
0000
0003
,
1001
0000
0100
0000
0000
0000
0010
1000
,
0010
0100
0002
0000
0000
0000
0000
0103
,
0002
0000
0000
0000
0000
0000
0013
0001
,
0200
1000
1000
1300
,
0100
0000
1001
0000
0001
0100
0010
1000
,
0100
1000
0020
0000
1000
0000
0031
1000
,
0200
0000
0000
0000
,
0020
0000
0000
0330
,
1001
0000
0100
0000
0000
0010
1000
0000
,
0010
0000
1000
0000
0000
0100
1000
0000
,
0010
0000
0100
0000
0000
0001
0100
0000
,
0001
0000
0010
0001
0000
1000
0001
0100
,
0001
0000
0100
0000
0000
0010
1000
0000
,
0010
0000
0000
0000
1000
0000
0000
0001
0000
0000
1000
0000
0100
0000
1000
0000
,
0010
0000
0000
0000
0001
0010
0000
0100
,
1000
0100
0010
0000
0001
0100
0010
0000
,
0001
1000
0000
0000
0000
0000
0000
0000
,
0000
0000
0000
0000
,
1000
0100
0000
0000
0000
0000
0000
0000
,
0000
0000
0000
0000
0000
0000
0000
0001
,
0010
0100
0000
0000
0000
0000
0000
0000
,
0000
0000
0000
0000
0000
0000
0000
1000
,
0010
0000
0000
0100
0010
0000
0000
0010
,
1001
0101
0011
1100
,
1001
0100
0102
0000
,
1000
1003
0001
0100
0020
0000
0000
0000
,
0030
0000
0200
0000
0310
0000
0000
0010
,
1000
0001
2000
0000
0000
0000
0000
0000
,
3000
0000
0200
0000
,
0310
1000
0001
0010
0200
0000
0000
0000
,
1300
0010
0200
0000
0010
0010
0000
0310
,
1000
0002
0020
0000
0000
0000
0000
0000
,
0033
0000
0002
0000
0000
0000
0003
0100
,
0010
1000
0100
0010
0002
0000
0000
0000
,
0000
0000
0010
0000
0203
0000
0000
0310
,
1000
0100
0020
0000
0000
0000
0000
0000
,
0030
0000
2001
0000
,
3100
1000
0010
0100
0002
0000
0000
0000
,
0103
0010
2000
0000
3100
2000
0000
3010
,
0100
0002
0020
0000
0000
0000
0000
0000
,
0033
0000
0000
0000
2002
0000
0000
3003
,
0001
0100
0001
0100
0200
0000
0000
0000
,
0000
0010
0010
0000
0000
0000
0000
0000
,
0000
0310
2000
0000
0000
0000
0000
0000
,
3000
2200
0000
3300
,
0001
0100
0010
0010
2000
0000
0000
0000
,
3100
1000
0020
0000
0000
0000
0000
0000
,
0000
0200
0000
0000
,
0330
1010
1000
0100
,
0100
1000
0010
0100
,
0100
0010
1000
0001
,
0001
0000
0010
0000
0100
1000
0000
0010
,
0100
0001
1000
0000
0001
0000
0100
0000
,
0100
0001
1000
0010
,
0010
0000
1000
0100
0001
0100
1000
0010
,
0100
0001
0010
0001
0100
1000
0100
0001
,
0010
0100
2200
0000
0000
0000
3300
0000
;

//---------------dance-single - ----------------
#NOTES:
     dance-single:
     :
     Medium:
     5:
     0.304,0.459,0.138,0.179,0.000:
0000
0000
0000
0000
,
0000
0000
0000
0000
,
0000
0000
0000
0000
,
0000
0000
0000
0000
,
0000
0000
0000
0000
,
0000
0000
0000
0000
,
0000
0000
0000
0000
,
0000
0000
0000
0000
,
0010
2002
3003
0001
,
0100
0010
1000
0000
0000
0000
0000
0000
,
1000
0002
0000
0103
,
0200
0000
0000
0300
,
0000
0000
0110
0000
0000
0000
0010
0100
,
0010
0000
1000
0000
0000
0000
0001
0100
,
0010
0000
0000
0100
0000
0000
0000
0020
,
2000
0000
0000
3030
,
0000
0000
0000
0000
0000
0000
0001
0100
,
0010
1000
0200
0000
0000
0000
0000
0000
,
1000
1300
0000
1000
,
0020
0000
0000
0030
,
0000
0110
0000
0010
,
0100
0000
0100
0000
0000
0000
0010
1000
,
0001
0000
0000
1000
0000
0000
0000
0002
,
0020
0000
0000
0033
,
0000
0000
1100
0000
0000
0000
1000
0100
,
1000
0000
0010
0000
0000
0000
0000
0100
,
0020
0000
0000
0000
,
2030
0000
0000
3000
,
1100
0000
0000
1000
,
0001
0100
0010
0000
0000
0000
0000
0000
,
0020
0000
0000
0000
,
2000
0000
0000
3030
,
0001
1000
0100
0100
,
1000
0000
0010
0000
0100
0000
0001
0100
,
0010
1000
0100
0010
,
0100
0000
1000
0000
0010
0000
0100
0001
,
1000
0000
0001
0000
0010
0001
0100
0000
,
0010
0000
0100
0010
0000
0000
0000
0000
,
0110
0000
0000
0010
0000
0000
0000
0000
,
1010
0000
0000
0001
0000
0000
1000
0000
,
1100
0000
0000
0000
,
0000
0000
0000
0000
,
0100
0001
0000
0000
0000
0000
0000
0000
,
0000
0000
0000
0000
,
0010
0100
0000
0000
0000
0000
0000
0000
,
0000
0000
0000
0000
,
1000
0100
0000
0000
0010
0001
0000
0000
,
0011
1100
0110
1001
,
0000
0010
1001
0001
,
0100
0000
0010
1000
0001
0000
0100
0000
,
0010
1000
0100
0010
,
0001
0010
0002
0000
0000
0000
0000
0000
,
0000
0003
0101
0000
,
0001
0100
0010
0000
0100
0000
0010
0000
,
1000
0010
0100
0000
0010
0000
0100
0000
,
0010
1000
0002
0000
0000
0000
0000
0000
,
0003
1000
0001
0010
,
0001
0100
0010
0000
1000
0000
0100
0000
,
1000
0010
0010
0000
,
0100
0010
2000
0000
0000
0000
0000
0000
,
0000
3000
1001
0000
,
0001
0100
0001
0000
0100
0000
0010
0000
,
0100
0010
1000
0000
0000
1000
0000
0000
,
0000
2000
0200
0000
0000
0000
0000
0000
,
3300
0000
0011
0000
,
0001
0100
0010
0000
1000
0000
0100
0000
,
1000
1000
0010
0100
,
0001
0100
0010
0000
1000
0000
0010
0100
,
0001
1000
0001
0000
0001
0000
1000
0000
,
1000
0000
0001
0100
0001
0000
0100
0000
,
0010
2000
0000
0000
,
0000
0200
0000
0000
,
3300
1000
0001
0100
,
0001
0010
0001
0100
,
0010
0100
0010
0000
0100
0000
0010
0000
,
1000
0001
0010
0001
,
0100
0110
0010
0010
,
0010
0010
0010
0010
,
0010
0000
0100
0010
0100
0000
0010
1000
,
0010
0000
0001
0100
0010
1000
0100
0010
,
0001
1000
0020
0000
0000
0000
0030
0000
;

//---------------dance-single - ----------------
#NOTES:
     dance-single:
     :
     Easy:
     3:
     0.241,0.329,0.041,0.341,0.000:
0000
0000
0000
0000
,
0000
0000
0000
0000
,
0000
0000
0000
0000
,
0000
0000
0000
0000
,
0000
0000
0000
0000
,
0000
0000
0000
0000
,
0000
0000
0000
0000
,
0000
0000
0000
0000
,
0010
0000
2020
0000
0000
3030
1000
0000
,
0010
0100
0000
0000
,
0010
1000
0000
0001
,
2000
0000
0000
3000
,
0000
0010
0000
0100
,
0010
2000
0000
3001
,
1000
0000
0000
0001
0000
0000
0000
0100
,
0002
0000
0000
0003
,
0200
0000
0300
0010
,
1000
0002
0000
0003
,
1000
1000
0000
0001
,
0020
0000
0000
0030
,
0000
0010
0000
0010
,
0001
0200
0000
0310
,
1000
0000
0000
0001
0000
0000
0000
0100
,
0020
0000
0000
0030
,
0000
1001
0000
0001
,
0100
0010
0000
0000
,
0020
0000
0000
0000
,
2000
0000
0000
3030
,
2000
0000
3000
0100
,
1000
0020
0000
0000
,
0230
0000
0000
0000
,
0002
0000
0000
0303
,
0001
1000
0000
0100
,
1000
0010
0000
0100
,
0010
1000
0000
1000
,
0001
0100
0000
0010
,
1000
0001
1000
0100
,
0100
1000
0010
0100
,
0001
0010
0001
0100
,
0010
1000
0010
0100
,
0101
0000
0000
0000
,
0000
0000
0000
0000
,
0010
0000
0000
0000
,
0000
0000
0000
0000
,
1000
0000
0000
0000
,
0000
0000
0000
0000
,
0001
0000
1000
0000
,
0010
0010
0010
0010
,
0010
0100
2002
3003
,
0001
0100
0020
0000
,
0000
0130
0020
0000
,
1030
0002
0000
0000
,
0000
0003
2000
0000
,
0010
0010
3020
0000
,
0130
0010
1000
0001
,
0100
0020
0000
0000
,
0030
0200
0000
0000
,
0310
1000
0002
0000
,
0003
1000
0200
0000
,
1000
2000
0000
0000
,
3300
0000
2000
0000
,
0100
0100
0200
0000
,
3300
0000
1000
0000
0000
0010
0000
0000
,
0000
0200
0002
0000
0000
0000
0000
0000
,
0303
0000
0200
0000
,
0010
0010
0020
0000
,
0300
2000
0000
0000
,
0030
0200
0000
0000
,
3300
2000
0000
0000
,
0001
0001
0002
0000
,
3000
0200
0000
0000
,
0003
0020
0000
0000
,
0330
0010
0000
0010
,
0000
0010
1000
0001
,
0010
0100
0000
0100
,
0000
0100
0010
0001
,
0100
0010
1000
0010
,
1000
0010
1000
0010
,
1000
0010
1000
0100
,
0010
0001
0010
0100
,
1000
2002
0000
0000
,
3003
0000
0000
0000
;

//---------------dance-single - ----------------
#NOTES:
     dance-single:
     :
     Beginner:
     1:
     0.125,0.228,0.024,0.000,0.000: // measure 1
0000
0000
0000
0000
,  // measure 2
0000
0000
0000
0000
,  // measure 3
0000
0000
0000
0000
,  // measure 4
0000
0000
0000
0000
,  // measure 5
0000
0000
0000
0000
,  // measure 6
0000
0000
0000
0000
,  // measure 7
0000
0000
0000
0000
,  // measure 8
0000
0000
0000
0000
,  // measure 9
0000
0010
0000
0000
,  // measure 10
1000
1000
0000
0000
,  // measure 11
0001
0000
0000
0100
,  // measure 12
0100
0000
0000
0000
,  // measure 13
0000
1000
0000
0000
,  // measure 14
0010
0010
0000
0000
,  // measure 15
0100
0000
0010
0000
,  // measure 16
1000
0000
0000
0000
,  // measure 17
0001
0000
0000
0000
,  // measure 18
0100
0100
0000
0000
,  // measure 19
0010
0000
0000
1000
,  // measure 20
1000
0000
0000
0000
,  // measure 21
0000
0001
0000
0000
,  // measure 22
1000
1000
0000
0000
,  // measure 23
0010
0000
0100
0000
,  // measure 24
0001
0000
0000
0000
,  // measure 25
0000
1001
0000
0000
,  // measure 26
1000
1000
0000
0000
,  // measure 27
0010
0000
0000
0000
,  // measure 28
0100
0000
0000
0000
,  // measure 29
0001
0000
0000
0010
,  // measure 30
0010
0010
0000
0000
,  // measure 31
0100
0000
0000
0000
,  // measure 32
1000
0000
0000
0000
,  // measure 33
0001
0000
0000
0000
,  // measure 34
1000
0000
0000
0000
,  // measure 35
0010
0000
0000
0000
,  // measure 36
0100
0000
0000
0000
,  // measure 37
0010
0000
0000
0000
,  // measure 38
1000
0000
0000
0000
,  // measure 39
0001
0000
0000
0000
,  // measure 40
0010
0000
0100
0000
,  // measure 41
1000
0000
0000
0000
,  // measure 42
0000
0000
0000
0000
,  // measure 43
0001
0000
0000
0000
,  // measure 44
0000
0000
0000
0000
,  // measure 45
0010
0000
0000
0000
,  // measure 46
0000
0000
0000
0000
,  // measure 47
0001
0000
0100
0000
,  // measure 48
0010
0010
0010
0010
,  // measure 49
0010
0000
0100
0000
,  // measure 50
0000
0010
0010
0000
,  // measure 51
0000
1000
0000
0000
,  // measure 52
0100
0100
0000
0000
,  // measure 53
0000
0000
0010
0000
,  // measure 54
0100
0100
0100
0000
,  // measure 55
0000
0001
0000
1000
,  // measure 56
0000
0010
0000
0000
,  // measure 57
0000
0100
0000
0000
,  // measure 58
0000
0010
0010
0000
,  // measure 59
0000
1000
0000
0000
,  // measure 60
0001
0001
0000
0000
,  // measure 61
0000
0000
0010
0000
,  // measure 62
0000
0100
0100
0000
,  // measure 63
0000
1000
0000
0010
,  // measure 64
0000
0100
0000
0000
,  // measure 65
0000
0000
1001
0000
,  // measure 66
0001
0001
0001
0000
,  // measure 67
0000
1000
0000
0000
,  // measure 68
0000
0010
0000
0000
,  // measure 69
0000
0100
0000
0000
,  // measure 70
0001
0001
0001
0000
,  // measure 71
0000
1000
0000
0000
,  // measure 72
0000
0010
0000
0000
,  // measure 73
0000
0100
0000
0000
,  // measure 74
0000
0010
0000
0000
,  // measure 75
0000
1000
0000
0000
,  // measure 76
0000
0001
0000
0001
,  // measure 77
0000
0010
0000
0000
,  // measure 78
0000
0010
0000
0000
,  // measure 79
0000
0100
0000
0100
,  // measure 80
0000
0100
0100
0100
,  // measure 81
0100
0110
0000
0000
;
