#TITLE:Kagachi;
#SUBTITLE:;
#ARTIST:Zektbach;
#TITLETRANSLIT:;
#SUBTITLETRANSLIT:;
#ARTISTTRANSLIT:;
#CREDIT:;
#BANNER:bn.png;
#BACKGROUND:bg.png;
#LYRICSPATH:;
#CDTITLE:;
#MUSIC:Kagachi.mp3;
#OFFSET:-0.189;
#SAMPLESTART:30.160;
#SAMPLELENGTH:24.000;
#SELECTABLE:YES;
#BPMS:0.000=170.000,209.000=85.000,225.000=170.000,289.000=85.000,305.000=170.000;
#STOPS:80.000=1.412
;
#BGCHANGES:;

//---------------dance-single - ----------------
#NOTES:
     dance-single:
     :
     Hard:
     9:
     0.545,0.698,0.629,0.318,0.100:
0000
0000
0000
0000
,
0000
0000
0000
0000
,
0000
0000
0000
0000
,
0000
0000
0000
0000
,
0000
0000
0010
0001
0100
0000
0010
1000
,
0100
0000
0100
1000
0001
0010
0001
0100
,
1000
0100
0001
0010
0100
0000
0100
1000
,
0010
0000
0010
1000
0001
0010
0100
0010
,
0001
0100
0010
1000
0100
0000
0010
1000
,
0100
0000
0010
1000
0100
1000
0100
1000
,
0001
0010
0001
0100
0010
0000
0001
0100
,
0010
0000
0001
0100
0010
1000
0001
0010
,
0100
0010
0011
0000
0000
1100
0000
0000
,
0101
0000
1010
0000
0000
1001
0000
0000
,
0110
0000
1010
0000
0000
0101
0000
0000
,
1100
0000
0011
0000
0000
0110
0000
0000
,
1001
0000
1100
0000
0000
1100
0000
0000
,
1100
0000
0011
0000
0000
0011
0000
0000
,
0011
0000
0101
0000
0000
0101
0000
0000
,
0101
0000
1010
0000
0000
1010
0000
0000
,
1001
2000
0000
0000
,
3100
0022
0000
0000
,
0000
0033
0000
0210
,
0000
0010
0000
1000
,
0000
0000
0000
0301
0000
0000
1000
0001
1000
0001
0000
0000
,
1000
2200
0000
0000
,
3300
0000
0000
0002
,
0000
0203
0000
0320
,
0000
0000
1030
0000
1000
0001
0000
0001
,
0011
0000
0001
0000
0100
0010
0000
1000
,
1100
0000
1000
0000
1000
0001
0000
0100
,
0110
0000
0010
0000
0010
1000
0000
1000
,
1001
0000
0001
0100
0010
0110
0000
0010
,
0110
0000
0010
1000
0100
0110
0000
0010
,
0110
0000
0010
0001
0100
0110
0000
0100
,
0110
0000
0010
1000
0001
0011
0000
0001
,
1001
0000
1000
0001
0100
0010
0000
0001
,
0100
0010
0000
0001
0100
0010
0000
0001
,
0100
0010
1000
0010
0100
0010
1000
0100
,
0010
0100
0000
0100
0010
0100
0000
0100
,
0010
0100
1000
0010
0100
1000
0000
0010
,
0100
1000
0000
0010
0100
1000
0000
0010
,
0100
1000
0100
0010
0001
0010
0100
1000
,
0010
1000
0002
0000
0013
0000
2000
0000
,
3100
0000
1000
0001
0100
0000
0101
0000
,
1100
0000
0010
1000
0100
0000
1100
0000
,
0011
0000
0001
0100
0010
0000
0110
0000
,
1001
0000
1000
0100
0010
0000
0011
0000
,
1100
0000
0001
0100
0010
0000
1001
0000
,
1100
0000
1000
1000
0001
0000
0001
0001
,
0100
0000
0010
0010
0110
0000
0100
0001
,
1001
0000
1000
0001
0010
0001
1000
0010
,
1000
0000
0100
0000
1000
0000
1000
0000
2000
0000
3000
0001
0100
0000
0100
0000
,
0200
0000
0300
0000
0010
0000
0010
0000
0020
0000
0030
0100
0010
0000
2000
0000
,
0002
0000
3003
0000
0001
0000
0100
0000
0020
0000
0000
0100
0100
0000
0100
0000
,
0200
0000
0330
0000
0010
0000
1000
0000
0200
0000
0000
1000
1000
0000
1000
0000
,
0020
0000
0330
0000
1001
0000
0000
0001
0010
0000
0000
0010
0100
0000
0000
0100
,
1000
0000
0000
1000
0001
0000
0000
0001
1000
0000
0000
1000
0001
0000
0000
0001
,
1000
0000
0000
1000
0100
0000
0000
0100
0010
0000
0000
0010
0001
0000
0000
0001
,
0010
0000
0000
0001
0100
0000
0000
0100
0001
0000
0000
0001
0100
0000
0000
0100
,
0010
0100
0020
0000
1000
0000
0001
0000
,
0000
0031
0020
0000
1000
0000
0100
0000
,
0001
0230
0300
0020
,
0030
2002
0000
0000
,
3003
0000
1001
0000
0000
0101
0000
0000
,
1100
0000
0011
0000
0000
0101
0000
0000
,
1010
0000
0110
0000
0000
1001
0000
0000
,
1100
0000
0011
0000
0000
0101
0000
0000
,
1010
0000
1001
0000
0000
0101
0000
0000
,
0110
0000
1100
0000
0000
0110
0000
0000
,
0011
0000
0101
0000
0000
1010
0000
0000
,
0110
0000
1001
0000
0000
1100
0000
0000
,
0011
0000
0000
0000
1000
0000
0100
0000
0020
0000
0000
0001
0032
0000
0100
0000
,
0020
0000
0033
0000
0101
0000
0010
0000
2000
0000
0000
0100
3200
0000
1000
0000
,
0020
0000
0330
0000
0012
0000
0010
0000
0200
0000
0300
0100
0023
0000
0100
0000
,
0200
0000
0330
0000
0002
0000
0010
0000
0100
0000
0000
0010
0023
0000
0200
0030
,
2000
3300
0000
0000
;

//---------------dance-single - ----------------
#NOTES:
     dance-single:
     :
     Challenge:
     10:
     0.770,0.850,0.701,0.462,0.525:
0000
0000
0000
0000
,
0000
0000
0000
0000
,
0000
0000
0000
0000
,
0000
0000
0000
0000
,
0000
0000
0000
0000
1000
0000
0001
0100
0010
0000
0100
0000
0010
0000
1000
0001
,
0010
0000
0001
0000
0100
0000
0001
0100
0001
0000
0100
0000
0010
1000
0001
0010
,
0001
0100
0010
1000
0100
0000
1000
0000
0100
1000
0100
0000
1000
0000
0010
0000
,
0100
0010
0100
0000
0010
0000
1000
0000
0001
0010
0001
0100
0010
1000
0100
0010
,
0001
1000
0010
0100
0001
0000
1000
0100
0010
0001
0000
0000
0001
0000
0001
0010
,
0100
1000
0000
0000
1000
0000
1000
0100
0010
0001
0010
0001
0100
0010
1000
0100
,
1000
0010
0100
0001
0010
0000
0010
0100
1000
0001
0000
0000
0110
0000
0010
1000
,
0001
0100
0000
0000
0110
0000
0010
1000
0001
0010
0001
0100
0010
1000
0100
0010
,
0001
0100
0010
1000
1001
0000
0000
0000
0000
0000
1100
0000
0000
0000
0000
0000
,
0011
0000
0110
0000
0000
1001
0000
0000
,
1010
0000
0101
0000
0000
0011
0000
0000
,
1100
0000
1001
0000
0000
1010
0000
0000
,
0101
0000
0110
0000
0010
0110
0000
0010
,
1010
0000
0011
0000
1000
1100
0000
0100
,
0110
0000
0011
0000
0001
0101
0000
0010
,
1001
0000
1010
0000
0100
1100
0000
0010
,
0011
0000
0000
1001
0000
0000
1000
0001
0100
0010
0000
0000
,
0100
0000
0000
1002
0000
0000
1003
0001
0010
0200
0000
0000
,
1000
0000
0000
0310
0000
0000
0001
0100
0010
1020
0000
0000
,
0130
0120
1030
2100
,
3100
0000
0000
0101
0000
0000
0001
0001
1000
0100
0000
0000
,
1000
0000
0000
0110
0000
0000
0010
0010
0001
0100
0000
0000
,
0101
0000
0000
1100
0000
0000
1000
0001
0100
0002
0000
0000
,
0013
0000
0000
0011
0000
0000
0001
0001
1000
2000
0000
0000
,
3100
0000
0000
0000
1100
0000
1000
0100
1000
0000
1100
0000
0022
0000
0000
0000
,
0033
0000
0000
0000
0011
0000
0001
0010
0001
0000
0011
0000
0202
0000
0000
0000
,
0303
0000
0000
0000
0101
0000
0001
0100
0001
0000
0101
0000
2020
0000
0000
0000
,
3030
0000
0000
0000
1010
0000
0010
1000
0010
0000
1010
0000
2002
0000
0000
0000
,
3003
0000
0000
0000
1001
0000
0001
0100
0010
0000
0110
0000
0202
0000
0000
0000
,
0303
0000
0000
0000
0101
0000
0001
0100
0010
0000
0110
0000
2002
0000
0000
0000
,
3003
0000
0000
0000
1100
0000
1000
0010
0100
0000
0110
0000
0202
0000
0000
0000
,
0303
0000
0000
0000
0011
0000
1000
0100
1000
0000
1100
0000
0022
0000
0000
0000
,
0033
0000
0002
0103
0010
1000
0200
1300
,
0010
0100
0002
0013
0001
0100
0020
1030
,
0100
0001
0200
1300
0010
0100
0102
0000
,
0013
0102
0013
0102
,
1003
0000
2000
3100
0010
0100
0020
0130
,
1000
0001
0020
0031
0010
0100
0020
0130
,
0010
0001
0010
0100
1000
0001
0010
0100
,
0010
0001
0200
0000
0000
0000
0020
0000
,
0330
0000
0000
0000
1010
0000
1000
0001
0010
0000
0001
0100
0010
0000
1000
0000
,
1001
0000
0000
0000
0001
0000
0100
0001
0100
0000
0001
0100
0001
0000
0100
0000
,
0110
0000
0000
0000
0110
0000
0010
1000
0001
0000
0001
0010
0001
0000
0100
0000
,
0110
0000
0000
0000
0110
0000
0010
1000
0001
0000
0010
0001
0100
0000
0010
0000
,
1001
0000
0000
0000
1000
0100
1000
0000
0001
0100
0010
1000
0001
0000
0000
0000
,
1001
0000
0000
0000
0001
0100
0001
0000
0001
0100
0010
1000
0100
0000
0000
0000
,
1100
0000
0000
0000
1000
0001
0100
0000
0010
1000
0001
0010
0001
0000
0000
0000
,
0011
0000
0000
0000
0001
0000
0100
0000
0010
0000
1000
0000
0001
0010
0001
0100
,
0010
0000
0000
1000
0000
0000
0100
0000
0000
0010
0000
0000
0001
0000
0000
0000
0000
0000
0110
0000
0000
0000
0000
0000
0120
0000
0000
0000
0000
0000
0000
0000
0000
0100
0000
0000
0100
0000
0000
0000
0000
0000
0130
0000
0000
0100
0010
0100
,
0010
0000
0000
0000
0100
0000
0010
0000
0020
0000
0030
0001
0100
0000
0010
0000
,
2000
0000
0000
0000
0000
0000
0000
0000
0000
0000
0000
0000
3001
0000
0000
0000
0000
0000
1000
0000
0000
0000
0000
0000
0200
0000
0000
0000
0000
0000
0000
0000
0000
1000
0000
0000
1300
0000
0000
0000
0000
0000
0010
0000
0000
0100
0001
0100
,
0001
0000
0000
0000
0100
0000
0010
0000
0001
0000
0000
0010
1000
0000
0100
0000
,
2000
0000
0000
0000
3001
0000
0000
1000
0100
0000
0000
0100
0010
0000
0000
0010
,
0001
0000
0000
0001
1000
0000
0000
1000
0001
0000
0000
0001
1000
0000
0000
1000
,
0001
0000
0000
0001
0010
0000
0000
0010
0100
0000
0000
0100
1000
0000
0000
1000
,
0100
0000
0000
1000
0010
0000
0000
0010
1000
0000
0000
1000
0010
0000
0000
0010
,
0100
0010
0200
0000
0010
0000
0020
0000
,
0030
0010
0010
0000
0010
0000
0010
0000
,
0310
0100
0000
0020
,
0000
2000
0000
0000
,
3030
0000
0000
0000
1000
0100
1000
0100
1000
0000
2100
0000
0000
0000
0010
0000
,
3010
0000
0000
0000
0001
0100
0001
0100
0001
0000
0012
0000
0000
0000
0010
0000
,
0013
0000
0000
0000
0001
1000
0001
1000
0001
0000
1002
0000
0000
0000
0010
0000
,
0013
0000
0000
0000
0010
0100
0010
0100
0010
0000
0120
0000
0000
0000
0100
0000
,
0130
0000
0100
0010
1000
0001
0010
0001
0100
0000
1001
0000
0000
0000
0101
0000
,
0101
0000
0001
0100
0010
1000
0100
0010
0001
0000
1001
0000
0000
0000
1010
0000
,
1010
0000
1000
0100
1000
0010
0100
1000
0001
0010
0011
0000
0000
0000
0010
0000
,
0011
0000
0001
0100
0010
1000
0001
0010
0001
0010
0011
0000
0000
0000
0010
0100
,
0001
0000
1000
0000
0001
0000
1000
0000
0200
0000
0000
1000
1000
0000
0010
0000
,
0020
0000
0330
0000
0010
0000
0001
0000
0200
0000
0000
0010
0310
0000
1000
0000
,
0002
0000
0003
0000
1000
0000
0001
0000
0200
0000
0000
0001
0001
0000
0001
0000
,
0002
0000
0303
0000
0001
0000
0010
0000
0100
0000
0000
0010
0100
0000
2000
0000
,
0002
3003
0000
0000
;

//---------------dance-single - ----------------
#NOTES:
     dance-single:
     :
     Medium:
     7:
     0.465,0.546,0.597,0.223,0.000:
0000
0000
0000
0000
,
0000
0000
0000
0000
,
0000
0000
0000
0000
,
0000
0000
0000
0000
,
0000
0000
0001
1000
0001
0000
1000
0001
,
1000
0001
1000
1001
,
1001
0000
0010
0100
0010
0000
0100
0010
,
0100
0010
0100
0110
,
0110
0000
0001
0100
0010
0000
0001
0100
,
0010
0101
0101
0011
,
0011
0000
0001
0010
0100
0000
0001
0010
,
0100
0011
1100
1010
,
0101
0000
1001
0000
0000
1001
0000
0000
,
0110
0000
0110
0000
0000
0110
0000
0000
,
1010
0000
1010
0000
0000
1010
0000
0000
,
0101
0000
0101
0000
0000
0101
0000
0000
,
0101
0000
0011
0000
0000
1100
0000
0000
,
0110
0000
0101
0000
0000
1010
0000
0000
,
1100
0000
0011
0000
0000
0110
0000
0000
,
1001
0000
1100
0000
0000
0011
0000
0000
,
1001
0002
0000
0000
,
0010
0020
0000
0000
,
0000
0033
0000
1100
,
0000
0020
0000
0130
,
0000
2001
0000
0000
,
0100
0200
0000
0000
,
0000
3300
0000
1020
,
0000
0100
0000
0130
,
0000
0000
0010
1000
0001
0100
0100
0000
,
0000
0000
0010
1000
0001
0010
0010
0000
,
0000
0000
0001
0010
0100
1000
1000
0000
,
0000
0000
1000
0010
0100
0001
0001
0000
,
0000
0000
0001
0100
0010
1000
1000
0000
,
0000
0000
1000
0001
0100
0001
0001
0000
,
0000
0000
0001
0100
0010
1000
1000
0000
,
0000
0000
1000
0100
0010
0001
0001
0000
,
0000
0002
0103
0020
,
0130
2000
0000
0000
,
0000
3000
0000
1020
,
0000
0100
0000
0001
,
0000
0230
0310
2000
,
3100
2200
0000
0000
,
0000
3300
0000
0002
,
0000
0100
0000
0013
,
0000
0000
0001
0100
0001
0000
1100
0000
,
0101
0000
0001
0100
0010
0000
1010
0000
,
0011
0000
0001
0100
0010
0000
0110
0000
,
1001
0000
0001
0100
0010
0000
1010
0000
,
0101
0000
0001
0100
0010
1000
1010
0000
,
1010
0000
1000
0100
0010
0001
0011
0000
,
0011
0000
0001
0100
0010
1000
1010
0000
,
0101
0000
1000
0100
0010
0001
0010
0100
,
0001
1000
0002
0100
0103
0000
2000
0100
,
3100
0000
0020
0100
0130
0000
0001
0100
,
0020
0000
0100
0100
0200
0030
0010
0010
,
0020
0330
0010
1000
0200
0000
1300
0100
,
0002
0000
0103
1000
0010
0000
0100
0000
,
0110
0000
0010
1000
0001
0000
0010
0000
,
0010
0000
0100
1000
0010
0000
0001
0000
,
0100
0000
0010
1000
0001
0000
0010
0001
,
0010
0011
1100
0120
,
0000
0130
0100
0000
0010
0000
1000
0000
,
0001
0020
0000
0230
,
0000
2000
0000
0000
,
3300
0000
1000
0100
1000
0100
0000
1100
,
1100
0000
0010
0001
0010
0001
0000
0011
,
0011
0000
0001
0100
0001
0100
0000
0101
,
0101
0000
0010
1000
0010
1000
0000
1010
,
1010
0000
0001
0010
0100
0010
0000
0110
,
0110
0000
0010
1000
0100
0010
0000
0011
,
0011
0000
0001
0100
0010
1000
0000
1010
,
1010
0000
1000
0100
0010
0001
0000
0011
,
1100
0000
0001
0100
0010
0000
1000
0100
,
0010
0000
0010
0001
0100
0000
0100
0010
,
1000
0000
1000
0010
0001
0000
0001
0010
,
1000
0000
1000
0100
0001
0000
0001
0100
,
2000
3000
0000
0000
;

//---------------dance-double - ----------------
#NOTES:
     dance-double:
     :
     Challenge:
     9:
     0.554,0.546,0.549,0.350,0.080:
00000000
00000000
00000000
00000000
,
00000000
00000000
00000000
00000000
,
00000000
00000000
00000000
00000000
,
00000000
00000000
00000000
00000000
,
00000000
00000000
01000000
00010000
00100000
00000000
00100000
00010000
,
01000000
00000000
01000000
00100000
10000000
01000000
00100000
00001000
,
00010000
00000100
00000010
00000100
00000001
00000000
00000001
00001000
,
00000100
00000000
00000100
00010000
00001000
01000000
00100000
10000000
,
01000000
00100000
00010000
00100000
00001000
00010000
00000000
00010000
,
00001000
00100000
00000000
00100000
00001000
00010000
00000100
00001000
,
00000010
00000001
00001000
00000100
00010000
00000000
00010000
00001000
,
00100000
00000000
00100000
00010000
01000000
00100000
10000000
01000000
,
00100000
01000000
11000000
00000000
00000000
01100000
00000000
00000000
,
00110000
00000000
00011000
00000000
00000000
00001100
00000000
00000000
,
00000110
00000000
00000011
00000000
00000000
00000101
00000000
00000000
,
00001010
00000000
00001100
00000000
00000000
00011000
00000000
00000000
,
00101000
00000000
00110000
00000000
00000000
11000000
00000000
00000000
,
01010000
00000000
10100000
00000000
00000000
10010000
00000000
00000000
,
00110000
00000000
00011000
00000000
00000000
00001100
00000000
00000000
,
00010100
00000000
00011000
00000000
00000000
00101000
00000000
00000000
,
00010010
00000000
00000000
00000110
00000000
00000000
00000010
00001000
00000100
00000010
00000000
00000000
,
00000001
00000000
00000000
00000011
00000000
00000000
00000001
00000010
00000001
00000010
00000000
00000000
,
00000001
00000000
00000000
00000101
00000000
00000000
00000001
00000100
00000010
00001000
00000000
00000000
,
00001000
00000000
00000000
00001100
00000000
00000000
00000100
00001000
00000010
00001000
00000000
00000000
,
00000100
00010000
00001000
01010000
,
01000000
00000000
00000000
01100000
00000000
00000000
00100000
10000000
01000000
00100000
00000000
00000000
,
10000000
00000000
00000000
11000000
00000000
00000000
10000000
00010000
01000000
00200000
00000000
00000000
,
10300000
20000000
31000000
02000000
,
03100000
00000000
00100000
01000000
10000000
01000000
00100000
00000000
,
01100000
00000000
01000000
00010000
00100000
00001000
00010000
00000000
,
00001100
00000000
00001000
00000010
00000100
00000001
00000010
00000000
,
00001100
00000000
00000100
00010000
00001000
00100000
00010000
00000000
,
01010000
00000000
00010000
01000000
00100000
10000000
01000000
00000000
,
00110000
00000000
00010000
01000000
00100000
01000000
00010000
00000000
,
00001010
00000000
00000010
00000100
00000010
00001000
00000100
00000000
,
00110000
00000000
00010000
00010000
01000000
01000000
00100000
00000000
,
01010000
02000000
03010000
00020000
,
00130000
00200000
00301000
00002000
,
00013000
00000100
00002000
00000000
00003010
00000100
00000202
00000000
,
00000303
00002020
00003030
00020200
,
00030300
00000200
00001300
00002000
,
00103000
00200000
01300000
02000000
,
03100000
00000000
00200000
00000000
01300000
10000000
20020000
00000000
,
30030000
02020000
03030000
00202000
,
00303000
00000000
00010000
00100000
00010000
01000000
00100000
10000000
,
01000000
00010000
01000000
10000000
00100000
00010000
00100000
10000000
,
11000000
00000000
10000000
01000000
00100000
01000000
10000000
00010000
,
00100000
00001000
00010000
00000100
00001000
00000010
00001000
00000100
,
00010100
00000000
00001000
00000010
00000100
00000010
00001000
00000100
,
00000010
00000100
00001000
00000001
00000010
00001000
00000010
00000000
,
00000110
00000000
00000010
00001000
00000100
00010000
00001000
00100000
,
00010000
01000000
00100000
00001000
00010000
00000010
00000100
00000010
,
00010000
00000000
00001000
00000000
01000000
00000000
00010000
00000000
00100000
00000000
00000000
01000000
00010000
00000000
01000000
00000000
,
00100000
00000000
00000000
00000000
00100000
00000000
10000000
00000000
01000000
00000000
00000000
01000000
00100000
00000000
00100000
00000000
,
00200000
00000000
00000000
00000000
00310000
00000000
00100000
00000000
00002000
00000000
00000000
00013000
00001000
00000000
00010000
00000000
,
00000020
00000000
00000000
00000000
00000130
00000000
00000010
00000000
00001000
00000000
00000000
00001000
00000100
00000000
00000010
00000000
,
00000002
00000103
00000010
00001000
,
00000100
00001000
00000010
00000100
,
00000001
00000100
00000010
00000000
00001000
00000000
00000100
00000000
,
00000010
00000010
00000100
00001000
,
00000100
00000200
00020300
00032000
,
00000000
00100000
00203000
00000000
02300000
00000000
03200000
00000000
,
00320000
20030000
00000000
32000000
,
00000000
00200000
00000000
00000000
,
03300000
00000000
00110000
00000000
00000000
11000000
00000000
00000000
,
10010000
00000000
01010000
00000000
00000000
10100000
00000000
00000000
,
11000000
00000000
01100000
00000000
00000000
00110000
00000000
00000000
,
01010000
00000000
00110000
00000000
00000000
00011000
00000000
00000000
,
00001100
00000000
00001001
00000000
00000000
00000101
00000000
00000000
,
00001010
00000000
00001100
00000000
00000000
00000011
00000000
00000000
,
00000101
00000000
00001010
00000000
00000000
00001001
00000000
00000000
,
00001010
00000000
00000010
00001000
00000100
00010000
00001000
00100000
,
00001000
00000000
01000000
00000000
00100000
00000000
10000000
00000000
01000000
00000000
00000000
01000000
00100000
00000000
00010000
00000000
,
02000000
00000000
00000000
00000000
03010000
00000000
00100000
00000000
00001000
00000000
00000000
00010000
00000100
00000000
00001000
00000000
,
00000020
00000000
00000000
00000000
00000130
00000000
00000010
00000000
00001000
00000000
00000000
00000100
00010000
00000000
00001000
00000000
,
00200000
00000000
00000000
00000000
00310000
00000000
00100000
00000000
00002000
00000000
00000000
00013000
00001000
00000000
00010000
00000000
,
00000200
00000300
00000000
00000000
;

//---------------dance-single - ----------------
#NOTES:
     dance-single:
     :
     Easy:
     6:
     0.398,0.455,0.310,0.382,0.000:
0000
0000
0000
0000
,
0000
0000
0000
0000
,
0000
0000
0000
0000
,
0000
0000
0000
0000
,
0000
0001
0101
0100
,
0101
0000
0001
0000
0101
0000
0001
0100
,
0010
0100
0110
0010
,
0110
0000
0100
0000
0110
0000
0010
1000
,
0010
1000
1100
0100
,
1100
0000
1000
0000
1100
0000
1000
0100
,
1000
0100
0110
0010
,
0011
0000
0100
0000
0101
0000
0001
1000
,
0001
0000
1000
0000
0000
0001
0000
0000
,
0100
0000
0010
0000
0000
1000
0000
0000
,
0010
0000
0100
0000
0000
0001
0000
0000
,
0010
0000
0100
0000
0000
1000
0000
0000
,
0100
0000
1000
0000
0000
0010
0000
0000
,
0100
0000
0001
0000
0000
0100
0000
0000
,
0010
0000
1000
0000
0000
0001
0000
0000
,
0010
0000
0100
0000
0000
1000
0000
0000
,
0100
2000
0000
0000
,
0100
0200
0000
0000
,
0000
3300
0000
1010
,
0000
0101
0000
0110
,
0000
0202
0000
0300
,
0010
0020
0000
0000
,
0000
0033
0000
0011
,
0000
1100
0000
0110
,
0000
0001
1000
2020
,
3030
1000
0100
0022
,
0033
0001
0100
2002
,
3003
0001
0100
0220
,
0330
0010
1000
0202
,
0303
1000
0100
0022
,
0033
0001
0100
2020
,
3030
1000
0100
0022
,
0033
0002
0103
2000
,
3100
2000
3100
2000
,
3010
0200
0310
2000
,
0000
3200
0000
2300
,
0000
3200
0310
0020
,
0031
0020
0130
0020
,
0031
0020
0130
0020
,
0000
0032
0000
2000
,
3003
0000
0001
1000
0001
0000
1000
0000
,
1000
0000
0001
1000
0001
0000
1000
0000
,
1000
0000
0010
1000
0010
0000
1000
0000
,
1000
0000
0100
0010
0100
0000
0010
0000
,
0010
1001
0010
1001
,
0010
0110
0001
0110
,
1000
1010
0001
1100
,
0001
0101
1100
0011
,
1010
0000
0001
1000
0100
0000
0100
1000
,
0010
0000
0100
0010
1000
0000
1000
0001
,
0200
0300
0010
1000
0010
0000
0100
0001
,
0100
0000
0001
0010
0001
0000
0100
0010
,
0100
0020
0000
0000
,
1000
2000
0000
0000
,
3030
0002
0000
0000
,
0010
0020
0000
0000
,
0033
0002
0100
0103
,
0000
0001
0200
0000
0010
0000
0010
0000
,
0010
0320
0000
2030
,
0000
0200
0000
0000
,
3300
0000
0001
0000
1000
0001
0000
0001
,
1000
0000
0001
0000
0001
1000
0000
1000
,
0001
0000
1001
0000
0001
1000
0000
1000
,
0001
0000
1001
0000
0001
1000
0000
1000
,
0010
0000
0100
0000
0010
0100
0000
0100
,
0010
0000
0010
0000
0010
0100
0000
0100
,
0010
0000
0010
0000
0010
0100
0000
0100
,
0010
0000
0010
0000
0010
0100
0000
0100
,
0010
0000
1000
0001
0100
0000
0100
0001
,
0010
0000
0010
0100
1000
0000
0100
1000
,
0010
0000
0100
0001
1000
0000
1000
0100
,
0010
0000
0010
0100
1000
0000
1000
0001
,
0200
0300
0000
0000
;

//---------------dance-single - ----------------
#NOTES:
     dance-single:
     :
     Beginner:
     2:
     0.183,0.301,0.247,0.064,0.000: // measure 1
0000
0000
0000
0000
,  // measure 2
0000
0000
0000
0000
,  // measure 3
0000
0000
0000
0000
,  // measure 4
0000
0000
0000
0000
,  // measure 5
0000
0010
0000
0010
,  // measure 6
0000
0010
0000
0010
,  // measure 7
0010
1000
0000
0001
,  // measure 8
0000
1000
0000
0001
,  // measure 9
1000
0100
0000
0100
,  // measure 10
0000
0100
0000
0100
,  // measure 11
1000
0010
0000
0010
,  // measure 12
0000
0010
0000
0010
,  // measure 13
0100
0110
0000
0000
,  // measure 14
0000
1001
0000
0000
,  // measure 15
0000
1001
0000
0000
,  // measure 16
0000
0110
0000
0000
,  // measure 17
0000
0110
0000
0000
,  // measure 18
0000
0110
0000
0000
,  // measure 19
0000
1001
0000
0000
,  // measure 20
0000
1001
0000
1001
,  // measure 21
0000
0010
0000
0000
,  // measure 22
0100
0100
0000
0000
,  // measure 23
0000
0000
0000
0010
,  // measure 24
0000
1000
0000
0100
,  // measure 25
0000
0110
0000
0000
,  // measure 26
0010
0010
0000
0000
,  // measure 27
0000
0000
0000
0001
,  // measure 28
0000
0001
0000
0001
,  // measure 29
0000
0200
0000
0300
,  // measure 30
0000
0020
0000
0030
,  // measure 31
0000
2000
0000
3000
,  // measure 32
0000
0002
0000
0003
,  // measure 33
0000
0002
0000
0000
,  // measure 34
0003
2000
0000
0000
,  // measure 35
3000
0020
0000
0000
,  // measure 36
0030
0200
0000
0000
,  // measure 37
0300
0010
0000
0010
,  // measure 38
0000
0010
0000
0000
,  // measure 39
0000
0000
0000
1000
,  // measure 40
0000
0001
0000
0100
,  // measure 41
0000
0010
0000
1000
,  // measure 42
0000
0100
0000
0000
,  // measure 43
0000
0000
0000
1000
,  // measure 44
0000
0010
0000
0100
,  // measure 45
0000
0010
0010
0110
,  // measure 46
0000
0100
0100
0110
,  // measure 47
0000
0001
0001
1001
,  // measure 48
0000
1000
1000
1001
,  // measure 49
0000
0000
0000
1001
,  // measure 50
1001
0000
0000
0110
,  // measure 51
0110
0000
0000
0110
,  // measure 52
1001
0000
0000
1001
,  // measure 53
0110
1001
0000
0001
,  // measure 54
0000
1000
0000
0010
,  // measure 55
0000
0100
0000
0010
,  // measure 56
0000
1000
0000
0001
,  // measure 57
0000
0100
0000
0000
,  // measure 58
0010
0010
0000
0000
,  // measure 59
0000
0100
0000
0000
,  // measure 60
0010
0010
0000
0000
,  // measure 61
0000
1000
0000
1000
,  // measure 62
0000
0001
0000
0001
,  // measure 63
0000
0100
0000
0100
,  // measure 64
0000
0100
0000
0000
,  // measure 65
0000
0110
0000
0000
,  // measure 66
0000
0110
0000
0000
,  // measure 67
0000
0110
0000
0000
,  // measure 68
0000
0110
0000
0000
,  // measure 69
0000
1001
0000
0000
,  // measure 70
0000
1001
0000
0000
,  // measure 71
0000
1001
0000
0000
,  // measure 72
0000
1001
0000
0000
,  // measure 73
0000
1000
1000
1000
,  // measure 74
0000
0001
0001
0001
,  // measure 75
0000
0100
0100
0100
,  // measure 76
0000
0010
0010
0010
;
