#TITLE:Infinity;
#SUBTITLE:;
#ARTIST:GIRL NEXT DOOR;
#TITLETRANSLIT:;
#SUBTITLETRANSLIT:;
#ARTISTTRANSLIT:;
#CREDIT:;
#BANNER:bn.png;
#BACKGROUND:bg.png;
#LYRICSPATH:;
#CDTITLE:;
#MUSIC:Infinity.mp3;
#OFFSET:0.124;
#SAMPLESTART:84.300;
#SAMPLELENGTH:12.000;
#SELECTABLE:YES;
#BPMS:0.000=147.000;
#STOPS:;
#BGCHANGES:0.000=GIRL NEXT DOOR Infinity.avi=1.000=1=0=1,
287.000=bg.png=1.000=1=0=1,
99999=-nosongbg-=1.000=0=0=0 // don't automatically add -songbackground-
;

//---------------dance-single - ----------------
#NOTES:
     dance-single:
     :
     Hard:
     8:
     0.447,0.514,0.243,0.201,0.172:
0000
0000
0000
0000
,
0000
0000
0000
0000
,
0000
0000
0000
0000
,
0000
0000
0000
0000
,
0000
0000
0000
0000
,
0000
0000
0000
0000
,
0000
0000
0000
0011
,
0000
0000
0000
0000
,
0000
0000
0000
0000
0000
0010
1000
0000
,
0000
1000
0100
0000
0000
0100
0010
0000
,
0011
0000
0000
0000
0100
0000
0000
0000
0110
0000
0000
0000
0001
0000
0000
0001
,
0000
0000
1000
0000
0100
0000
0000
0000
0000
0000
1000
0000
0010
0000
0000
0100
,
0000
0000
0010
0000
1000
0000
0000
0000
0000
0000
0000
0000
0001
0000
0000
0010
,
0000
0000
0001
0000
1000
0000
0000
0000
0000
0000
0010
0000
0100
0000
0000
0001
,
0000
0000
1000
0000
0100
0000
0000
0000
0000
0000
0000
0000
0010
0000
0000
0100
,
0000
0000
0010
0000
0100
0000
0000
0000
0000
0000
1000
0000
0001
0000
0000
0010
,
0000
0000
0001
0000
0100
0000
0000
0000
0000
0000
0000
0000
0010
0000
0000
1000
,
0000
0000
0001
0000
0010
0000
0000
0000
0000
0000
0100
0000
1000
0000
0000
0010
,
0000
0000
0100
0000
0001
0000
0000
0001
0000
0000
0001
0000
1000
0000
0100
0000
,
0010
0001
1000
0100
0011
0000
0001
0000
,
0100
0000
0010
0000
1000
0100
0000
1000
,
0000
0010
0000
0100
0010
1000
0100
0000
,
0001
0010
0100
0000
0100
0010
0000
0001
,
0100
0010
0000
0010
0100
0010
0001
0000
,
0101
0000
0010
1000
0100
0010
0000
0100
,
0000
0010
0000
0000
0000
0000
0001
0100
,
0001
0010
0000
0100
0000
0100
1000
0010
,
0100
0001
0000
0000
0000
0000
1000
0100
,
1100
0000
0001
0100
0101
0000
0001
0000
,
0100
0000
0010
0000
1000
0000
0100
1000
,
1010
0000
0001
0100
0110
0000
0010
0000
,
1001
0000
0100
0000
1001
0000
0001
0100
,
0110
0000
0010
1000
0110
0000
0010
0001
,
0010
0100
1000
0001
0100
0000
0002
0000
,
0013
0000
2000
0000
3100
0000
1000
0001
,
0010
0200
0000
0000
0000
0000
0300
0000
,
0001
0010
0100
0010
0001
0010
0000
0000
,
0100
1000
0100
0010
0100
1000
0000
0000
,
0001
0100
0010
0100
0001
0010
0002
0000
,
0000
0020
0000
0000
0033
0000
1001
0000
,
0001
0100
1000
0100
0001
0100
0000
0000
,
0010
1000
0010
0001
0010
1000
0000
0000
,
0010
0000
1000
0000
0100
0000
0010
0000
0100
0000
1000
0000
0001
0000
0000
1000
,
0000
0010
0000
0100
1001
0000
2000
0000
,
0000
3100
0010
0000
0000
0000
0002
0000
,
0000
0103
0010
0000
0000
0000
0200
0000
,
0000
0310
0001
0000
0000
0000
2002
0000
,
3003
0000
2002
3003
0000
0000
0020
0000
,
0000
1030
0001
0000
0000
0000
0002
0000
,
0000
0013
1000
0000
0000
0000
0020
0000
,
0000
0031
0100
0000
0000
0000
0110
0000
,
1001
0000
1001
0000
0000
0000
0001
1000
0001
0000
0000
0001
0010
0000
0000
1000
,
0100
0000
0000
0001
0010
0000
0000
1000
0100
0000
0000
0001
0010
0000
0000
1000
,
0100
0000
0000
0001
0010
0000
0000
1000
0100
0000
0000
0000
1002
0000
0000
0000
,
1003
0010
0100
0000
0010
0000
0100
0000
,
1000
0000
0000
0000
0001
0000
0000
0000
0010
0000
0010
0000
0100
0000
0000
0010
,
0100
0000
0000
0100
0010
0000
0000
0010
0100
0000
0000
0100
0001
0000
0000
0001
,
1000
0000
0000
1000
0100
0000
0000
0010
0001
0000
0000
0010
0100
0000
0000
0000
,
1000
0002
0200
0000
0000
0000
0000
0000
,
0000
0000
0000
0000
0000
0000
0000
0000
0303
0000
0000
1000
0010
0000
0000
0100
,
0001
0000
0000
1000
0010
0000
0000
0100
0001
0000
0000
1000
0010
0000
0000
0100
,
0001
0000
0000
1000
0010
0000
0000
0100
0001
0000
0000
1000
0010
0000
0000
0000
,
0100
1000
0001
0000
0010
0000
1000
0000
,
0010
0000
0001
1000
0001
0010
0100
0000
,
1000
0000
0010
0000
0100
0000
0000
0000
0110
0000
0000
0000
0010
0000
0000
1000
,
0010
0000
0000
0100
0010
0000
0000
0010
1000
0000
0000
0001
0020
0000
0000
0000
,
0000
0000
0000
0130
2000
0002
0000
0000
,
0000
0000
0000
0000
3003
0000
1000
0001
,
0010
0100
0010
0001
0100
0110
0000
1100
,
0011
0000
0001
0000
0100
0020
0000
0000
,
1000
0000
0030
0000
1010
0000
0000
1001
0000
0000
1100
0000
0000
0000
0000
0000
,
0100
0000
0010
0001
1000
0010
0220
0000
,
0330
0000
0000
0000
;

//---------------dance-single - ----------------
#NOTES:
     dance-single:
     :
     Medium:
     6:
     0.357,0.452,0.193,0.520,0.008:
0000
0000
0000
0000
,
0000
0000
0000
0000
,
0000
0000
0000
0000
,
0000
0000
0000
0000
,
0000
0000
0000
0000
,
0000
0000
0000
0000
,
0000
0000
0000
1001
,
0000
0000
0000
0000
,
0000
0000
0000
0000
0000
0001
1000
0000
,
0000
0010
0100
0000
0000
0010
1000
0000
,
1000
1000
1000
0001
,
0200
0310
0000
0010
,
2000
3100
0000
0100
,
2000
3010
0000
0100
,
0010
2000
3000
0001
,
0200
0020
0330
0010
,
2000
0200
3300
1000
,
0100
0020
0030
0001
,
0100
0000
0000
0000
0010
0000
0000
0010
0000
0000
0010
0000
0100
0000
0001
0000
,
1000
0010
0100
0001
1000
0000
0001
0000
,
1000
0100
0100
1000
,
0010
0000
0100
0000
0010
1000
0001
0000
,
0001
0010
0100
1000
,
0100
0000
0010
0000
0001
1000
0001
0000
,
0100
0010
1000
0100
,
1000
0010
0100
0001
,
0001
1000
0010
0100
,
0010
0000
1000
0000
0001
1000
0100
0000
,
0100
1000
0010
0100
,
0001
0010
0100
1000
,
0010
0100
0001
0010
,
1000
0000
0010
0000
0001
0100
0010
0000
,
1000
0010
0100
0100
,
0010
1000
0001
0100
,
0010
1000
1000
0001
,
0100
0000
0010
0000
1000
0100
1000
0000
,
0010
0000
0100
0000
0001
0100
0000
0000
,
0100
0000
0010
0000
1000
0100
0000
0000
,
1000
0001
0100
0020
,
0000
2000
3030
0000
,
1000
0000
0001
0000
0010
0001
0000
0000
,
0001
0000
0100
0000
0010
1000
0000
0000
,
1000
0000
0000
0000
0100
0000
0000
0000
0010
0000
0000
0000
0011
0000
0000
0011
,
0000
0011
0000
0000
0000
0000
2002
0000
,
0000
3003
0000
2020
,
0000
3030
0000
2200
,
0000
3300
0000
0020
,
0000
0001
0030
0022
,
0000
0033
0000
0202
,
0000
0303
0000
0220
,
0000
0330
0000
1001
,
1001
0110
0000
0110
1001
0000
0002
0000
,
0203
0320
2030
3200
,
2300
3020
0230
0302
,
0000
0010
0020
0000
0000
0000
0000
0000
,
0000
0000
0033
0002
,
0203
0320
2030
3200
,
2300
3020
0230
0320
,
0000
1030
0200
0000
0000
0000
0020
0000
,
0000
0000
0330
0020
,
0032
0023
0230
0320
,
0032
0023
0230
2300
,
0000
0010
0020
0000
0000
0000
0000
0000
,
0000
0000
3030
0010
1000
0100
0020
0000
,
0000
0001
0002
0000
0033
0000
0011
0000
,
1100
0110
1001
1020
,
0000
0000
0000
1030
0001
0200
0000
0000
,
0000
0000
0300
0010
,
0000
1000
0000
0001
0000
0101
0000
1000
,
1100
0000
0010
0000
0001
0200
0000
0000
,
0310
0000
1000
0000
0000
2002
0000
0000
,
0000
0000
0000
3003
;

//---------------dance-single - ----------------
#NOTES:
     dance-single:
     :
     Easy:
     3:
     0.252,0.301,0.059,0.159,0.000:
0000
0000
0000
0000
,
0000
0000
0000
0000
,
0000
0000
0000
0000
,
0000
0000
0000
0000
,
0000
0000
0000
0000
,
0000
0000
0000
0000
,
0000
0000
0000
0100
,
0000
0000
0000
0000
,
0000
0000
0000
0001
,
0000
1000
0000
0001
,
1000
0001
1000
0010
,
0010
0010
0000
1000
,
0100
1000
0000
0001
,
0100
0001
0000
0100
,
0100
0010
0000
0010
,
1000
0001
0000
0001
,
1000
0100
0000
0100
,
1000
0010
0000
0010
,
1000
1100
0000
1000
,
0100
0010
0011
0001
,
0100
0010
0100
0010
,
0010
0010
0000
0100
,
0010
1000
0100
1000
,
0010
0100
0000
0100
,
0001
0100
0001
0010
,
0100
0010
0001
1000
,
1000
0001
0001
1000
,
0001
1001
0000
0001
,
0100
0010
1000
0010
,
0010
0010
0000
0010
,
1000
0100
1000
0010
,
0100
0001
0000
0001
,
0100
1000
0100
0001
,
0010
0100
1000
1000
,
0010
0100
0001
0010
,
0001
0100
0010
0000
,
0100
0010
1000
0000
,
0001
1000
0010
0000
,
0010
1000
0100
0020
,
0000
0000
0030
0000
,
0010
0001
0100
0000
,
0100
0001
0010
0000
,
0010
0100
1000
0001
,
1000
0001
0000
0200
,
0000
0300
0000
0002
,
0000
0003
0000
0200
,
0000
0300
0000
0020
,
0000
0200
0330
0020
,
0000
0030
0000
2000
,
0000
3000
0000
2000
,
0000
3000
0000
0010
,
1000
0100
0000
0100
0010
0000
0010
0000
,
0010
0001
0001
1000
,
0001
0100
0010
1000
,
0000
0200
2000
0000
0000
0000
0000
0000
,
0000
0000
3300
1000
,
0100
1000
1000
0010
,
0100
0001
0010
0001
,
0000
0100
0020
0000
0000
0000
2000
0000
,
0000
0000
3030
1000
,
0010
0100
0100
0010
,
1000
0100
0010
0002
,
0000
0010
0020
0000
0000
0000
0000
0000
,
0000
0033
0010
0001
,
0000
0100
0000
0101
,
0010
0110
0010
1020
,
0000
0000
0000
1030
0010
0200
0000
0000
,
0000
0000
0300
0010
,
0000
0100
0000
0010
0000
1000
0000
0001
,
1000
0000
0001
0000
0000
0100
0000
0000
,
0000
0000
0010
0000
0000
2002
0000
0000
,
0000
0000
0000
3003
;

//---------------dance-double - ----------------
#NOTES:
     dance-double:
     :
     Challenge:
     8:
     0.432,0.640,0.428,0.310,0.046:
00000000
00000000
00000000
00000000
,
00000000
00000000
00000000
00000000
,
00000000
00000000
00000000
00000000
,
00000000
00000000
00000000
00000000
,
00000000
00000000
00000000
00000000
,
00000000
00000000
00000000
00000000
,
00000000
00000000
00000000
02000000
,
00000000
00000000
00000000
00000000
,
00000000
00000000
03000000
00000000
00000000
00010000
00100000
00000000
,
00000000
00100000
00001000
00000000
00000000
00001000
00011000
00000000
,
00011000
00000000
00000000
00000000
00011000
00000000
00000000
00000000
00010100
00000000
00000000
00000000
00001000
00000000
00000000
00000001
,
00000000
00000000
00000100
00000000
00000110
00000000
00000000
00000000
00000000
00000000
00000010
00000000
00001000
00000000
00000000
00000100
,
00000000
00000000
00001000
00000000
00001010
00000000
00000000
00000000
00000000
00000000
00000000
00000000
00000100
00000000
00000000
00010000
,
00000000
00000000
00001000
00000000
00010000
00000000
00000000
00000000
00000000
00000000
00001000
00000000
00100000
00000000
00000000
00010000
,
00000000
00000000
00100000
00000000
00101000
00000000
00000000
00000000
00000000
00000000
00000000
00000000
00010000
00000000
00000000
01000000
,
00000000
00000000
10000000
00000000
01100000
00000000
00000000
00000000
00000000
00000000
00100000
00000000
10000000
00000000
00000000
01000000
,
00000000
00000000
01000000
00000000
01100000
00000000
00000000
00000000
00000000
00000000
00000000
00000000
00100000
00000000
00000000
00010000
,
00000000
00000000
01000000
00000000
00100000
00000000
00000000
00000000
00000000
00000000
10000000
00000000
00010000
00000000
00000000
00100000
,
00000000
00000000
00001000
00000000
00100000
00000000
00000000
00100000
00000000
00000000
00100000
00000000
00010000
00000000
00100000
00000000
,
00001000
00010000
00000010
00000100
00000202
00000303
00000001
00000000
,
00000100
00000010
00001000
00000000
00000100
00010000
00002000
00000000
,
00010000
00000000
00100000
00000000
00013000
00000000
00001000
00100000
,
00010000
00000000
00010000
01000000
00100000
00000000
20000000
00000000
,
01000000
00000000
30100000
00000000
10100000
01010000
10010000
00000000
,
10000000
00000000
00010000
00100000
00001000
00000000
00010000
00000000
,
00000100
00000000
00001000
00000010
00000100
00000000
00000010
00000000
,
00000010
00002000
00000000
00000100
00000000
00003010
00000000
00000010
,
00001000
00000200
00000000
00000300
00010100
00011000
00110000
00000000
,
01010000
00000000
00010000
01000000
00100000
00000000
01000000
00000000
,
10010000
00000000
10000000
01000000
00100000
00000000
01000000
00000000
,
00110000
00000000
00100000
00001000
00010000
00000000
00010000
00000000
,
00010100
00000000
00010000
00000100
00001100
00001100
00001100
00000000
,
00001001
00000000
00000001
00000100
00000010
00000000
00001000
00000000
,
00001100
00000000
00000100
00010000
00001000
00000000
02000000
00000000
,
00100000
00000000
10000000
00000000
03010000
00000000
10000000
01000000
,
00010000
02000000
00000000
03000000
01100000
01100000
10010000
00000000
,
10000000
01000000
00100000
00010000
00100000
01000000
00000000
00000000
,
01000000
00100000
01000000
00001000
00010000
00001000
00000000
00000000
,
00010000
00000010
00000100
00000001
00001000
00000100
00000020
00000000
,
00000000
00000002
00000000
00000000
00000033
00000000
00000000
00000000
,
00000001
00000100
00000010
00001000
00000100
00001000
00000000
00000100
,
00010000
00001000
00100000
00010000
01000000
00010000
00000000
00000000
,
00010000
00000000
10000000
00000000
00100000
00000000
01000000
00000000
10000000
00000000
01000000
00000000
00200000
00000000
00000000
00001000
,
00000000
00020000
00000000
00000000
00000000
00330000
02000000
00000000
,
00000000
00001000
03001000
00000000
00000000
00000000
00200000
00000000
,
00000000
01000000
01300000
00000000
00000000
00000000
20000000
00000000
,
00000000
00100000
30100000
00000000
00000000
00000000
02000000
00000000
,
00000000
00000200
03000300
00021000
,
00001000
00000010
00030100
00001200
,
00010000
00001000
00100300
00200000
,
00010000
00001000
00300100
00011000
,
00110000
00001010
00000000
00001010
00101000
00000000
00200000
00000000
,
00010000
01000000
10000000
10000000
,
01000000
01000000
00010000
00020000
,
00300000
00100000
00200000
00000000
00000000
00000000
00000000
00000000
,
00000000
00000000
00330000
00102000
,
00010000
00100000
01000000
01000000
,
00100000
00010000
00100000
00023000
,
00000000
00000100
00000200
00000000
00000000
00000000
00030300
00000000
,
00000000
00000000
00000000
00000120
,
00001000
00000100
00000001
00000100
,
00001000
00000100
00000001
00000230
,
00000000
00000001
00000002
00000000
00000000
00000000
00000000
00000000
,
00000303
00000000
00000000
00000010
00001000
00000100
00020000
00000000
,
00000000
00000100
00030100
00000000
00000000
00000000
00011000
00000000
,
01010000
00011000
00001100
00000200
,
00000000
00000300
00000000
00010000
00001000
00200000
00000000
00000000
,
00000000
00000000
00300000
00000000
00000000
00000000
00010000
01000000
,
00100000
10000000
01000000
00100000
01000000
10010000
00000000
00010100
,
00011000
00000000
00011000
00001010
00000101
00000220
00000000
00000000
,
00000330
00000000
00000000
00000000
00001010
00000000
00000000
00001100
00000000
00000000
00022000
00000000
00000000
00000000
00000000
00000000
,
00000000
00000000
00000000
00000000
,
00000000
00000000
00000000
00000000
00000000
00033000
00000000
00000000
;

//---------------dance-single - ----------------
#NOTES:
     dance-single:
     :
     Beginner:
     1:
     0.129,0.206,0.067,0.101,0.000: // measure 1
0000
0000
0000
0000
,  // measure 2
0000
0000
0000
0000
,  // measure 3
0000
0000
0000
0000
,  // measure 4
0000
0000
0000
0000
,  // measure 5
0000
0000
0000
0000
,  // measure 6
0000
0000
0000
0000
,  // measure 7
0000
0000
0000
0001
,  // measure 8
0000
0000
0000
0000
,  // measure 9
0000
0000
0000
1000
,  // measure 10
0000
1000
0000
1000
,  // measure 11
1000
1000
0000
1001
,  // measure 12
0000
0000
0000
0010
,  // measure 13
0000
0000
0000
1000
,  // measure 14
0000
0000
0000
0001
,  // measure 15
0000
0000
0000
0100
,  // measure 16
0000
0000
0000
0010
,  // measure 17
0000
0000
0000
0100
,  // measure 18
0000
0000
0000
0010
,  // measure 19
0000
0100
0000
1000
,  // measure 20
0000
0000
0000
0001
,  // measure 21
0000
0000
0000
0001
,  // measure 22
0000
0001
0000
1000
,  // measure 23
0000
0000
0000
1000
,  // measure 24
0000
1000
0000
0010
,  // measure 25
0000
0000
0000
0100
,  // measure 26
0000
0100
0000
0010
,  // measure 27
0000
0010
0000
1000
,  // measure 28
1000
1000
0000
0000
,  // measure 29
0001
0000
0001
0000
,  // measure 30
0001
0000
0000
0000
,  // measure 31
1000
0000
1000
0000
,  // measure 32
1000
0000
0000
0000
,  // measure 33
0010
0000
0010
0000
,  // measure 34
0010
0000
0000
0100
,  // measure 35
0000
0010
0000
1000
,  // measure 36
1000
1000
0000
0001
,  // measure 37
0000
0000
0000
0000
,  // measure 38
1000
0000
0000
0000
,  // measure 39
0010
0000
0010
0010
,  // measure 40
0000
0000
0000
0100
,  // measure 41
0000
0000
0000
0010
,  // measure 42
0000
0000
0000
1000
,  // measure 43
0000
1000
0000
1001
,  // measure 44
0000
0000
0000
0020
,  // measure 45
0000
0030
0000
0020
,  // measure 46
0000
0030
0000
0020
,  // measure 47
0000
0030
0000
0220
,  // measure 48
0000
0330
0000
2000
,  // measure 49
0000
3000
0000
2000
,  // measure 50
0000
3000
0000
0002
,  // measure 51
0000
0003
0000
1001
,  // measure 52
0000
0000
0110
0120
,  // measure 53
0000
0000
0000
0130
,  // measure 54
0000
0100
0000
0200
,  // measure 55
0000
0000
0000
0000
,  // measure 56
0000
0300
0000
0010
,  // measure 57
0000
0000
0000
1000
,  // measure 58
0000
1000
0000
0002
,  // measure 59
0000
0000
0000
0000
,  // measure 60
0000
0000
0003
1000
,  // measure 61
0000
0000
0000
0010
,  // measure 62
0000
0000
0000
0100
,  // measure 63
0000
0100
0000
0000
,  // measure 64
0000
0000
0010
0010
,  // measure 65
0000
1000
0000
0001
,  // measure 66
0000
0001
0000
0002
,  // measure 67
0000
0000
0000
0000
,  // measure 68
0000
0000
0003
1000
,  // measure 69
0000
1000
0000
1001
,  // measure 70
0000
0010
0010
1001
,  // measure 71
0000
0100
0000
0000
;
