#TITLE:INNOCENCE OF SILENCE;
#SUBTITLE:(Cube Hard's Not So Innocent Mix);
#ARTIST:nc feat. NRG Factory;
#TITLETRANSLIT:;
#SUBTITLETRANSLIT:;
#ARTISTTRANSLIT:;
#CREDIT:;
#BANNER:Innocence-of-Silence-(Cube-Hard-mix)-banner.png;
#BACKGROUND:INNOCENCE-OF-SILENCE-(Club-Hard's-Not-So-Innocent-Mix).png;
#LYRICSPATH:;
#CDTITLE:;
#MUSIC:INNOCENCE OF SILENCE (Cube Hard's Not So Innocent Mix).mp3;
#OFFSET:0.032;
#SAMPLESTART:10.980;
#SAMPLELENGTH:12.000;
#SELECTABLE:YES;
#BPMS:0.000=174.000,96.000=87.000,112.000=174.000;
#STOPS:;
#BGCHANGES:;

//---------------dance-single - ----------------
#NOTES:
     dance-single:
     :
     Hard:
     9:
     0.480,0.751,0.233,0.137,0.112:
0000
0000
0000
0000
,
0000
0000
0000
0000
,
0000
0000
0000
0000
,
0000
0000
0000
0000
,
0000
0000
0000
0000
,
0000
0000
0000
0000
,
0000
0000
0000
0000
,
0000
0000
0000
0000
,
1000
0001
0100
0000
0001
0000
0010
0000
,
0001
0010
0001
0000
0100
0000
0010
0000
,
0100
0010
1000
0000
1000
0000
0001
0000
,
0010
0001
0100
0000
0010
0000
0100
0000
,
0010
1000
0100
0000
1000
0000
1000
0000
,
0001
0100
0010
0000
0010
0000
0010
0000
,
0010
1000
0001
0000
0001
0000
0001
0000
,
1000
0100
1000
0010
,
0100
0010
1000
0010
0100
0001
0010
0000
,
0001
1000
0100
0010
0100
1000
0010
0000
,
0100
0010
1000
0001
0010
0100
0010
0000
,
0001
0100
0010
1000
0100
0010
0100
0000
,
1000
0001
0100
0010
0100
0001
0010
0000
,
0001
0010
0100
0010
0001
0100
0010
0000
,
0100
0010
1000
0001
0010
0001
0100
0000
,
0010
1000
1001
0000
0001
0100
0101
0000
,
1001
0000
0001
0100
0000
0000
0000
0000
0000
0000
0100
0010
0000
1000
0100
0010
,
0100
1000
0001
0100
0000
0000
0000
0000
0000
0000
0001
0100
0000
1000
0100
0001
,
0010
0100
0010
0100
0000
0000
0000
0000
0010
0010
0001
0100
0000
0001
0100
1000
,
0000
0000
1000
0100
0000
0000
0000
0000
0100
0010
0001
0010
0100
1000
0001
0100
,
0010
0000
1000
0100
0000
0000
0000
0000
,
0000
0000
1000
0100
0000
1000
0001
0100
,
0001
0010
0100
0010
0000
0000
0000
0000
,
0000
0000
0001
0100
0000
0010
1000
0100
,
0010
0001
0010
0100
0000
0000
0000
0000
,
0000
0010
1000
0001
0000
1000
0100
0001
,
0000
0000
0001
0100
0000
0000
0000
0000
,
0010
0001
1000
0100
1000
0010
0100
0001
,
0010
0001
0000
0001
0000
1000
0000
1000
,
0000
0010
0000
0100
0000
0010
0000
1000
,
0001
0100
0000
0100
0000
0010
0000
0010
,
0000
1000
0000
1000
0000
0001
0000
1000
,
0001
0100
0000
0100
0000
0100
0000
0010
,
0000
1000
0000
0001
0000
0010
0000
0001
,
0000
0011
0000
1100
0000
0110
0000
1001
,
0000
1100
0000
0011
0000
0110
0000
1000
,
0001
0000
2000
0000
0000
3200
0000
0000
,
2300
0000
0000
0020
0000
0000
3030
0000
,
1000
0100
1000
0010
,
0100
0000
0001
0000
0100
0010
1000
0000
,
0001
0000
2000
0000
0000
3020
0000
0000
,
0230
0000
0000
0002
0000
0000
0000
0303
,
1001
0000
0000
0000
,
1001
0000
0000
0101
0000
0000
0001
0000
0100
0000
0010
0000
1001
0000
0000
0000
,
1001
0000
0110
0000
0010
1000
0001
0000
,
0010
0000
0011
0000
0001
0100
0010
0000
,
0100
0000
0010
0000
0100
0010
0100
0000
,
0001
0000
1000
0000
1000
0001
0100
0000
,
0110
0000
0020
0000
0000
1000
0000
0000
,
0001
0000
0000
0200
0000
0000
0330
0000
,
1001
0000
0001
0100
0010
1000
0100
1000
,
0010
0100
0001
0020
0000
0001
0031
0000
,
0011
0000
0001
0000
0001
1000
0000
1000
,
0100
0000
0100
0020
0000
0000
0031
0000
,
1001
0000
0000
0000
0001
0000
0000
0100
0000
0000
0010
0000
0000
1000
0000
0000
,
1001
0000
0000
0000
1000
0000
0000
0001
0000
0000
0010
0000
0001
0000
0000
0000
,
1100
0000
0100
0000
1000
0100
0010
0000
,
0010
0000
0011
0000
0001
0100
0010
0000
,
0000
0000
0000
0000
0100
0000
0000
0010
0000
0000
1000
0000
0000
0001
0000
0000
,
0011
0000
0000
0000
0001
0000
0000
0100
0000
0000
0010
0000
0000
1000
0000
0000
,
0001
1000
0001
0100
,
0001
0100
0010
0100
,
0000
0000
2000
0000
0000
0010
0000
0000
,
0100
0000
0000
0002
0000
0000
3003
0000
,
0001
0100
0010
0000
0100
0000
0010
0000
,
1000
0100
0010
1000
,
0001
1001
0010
0110
,
0010
0000
1000
0000
1000
0001
0100
0000
,
0001
0100
0001
0010
,
0100
0010
0001
0100
,
0010
0000
2000
0000
0000
0100
0000
0000
,
0010
0000
0000
0002
0000
0000
3003
0000
,
0001
0100
0010
0000
0100
0000
0010
0000
,
1000
0010
1000
0000
0100
0000
1000
0000
,
1100
0010
0011
0100
,
0010
1000
0001
0100
0010
0001
0010
0100
,
2000
0000
0000
0000
,
3000
0000
0000
0000
;

//---------------dance-single - ----------------
#NOTES:
     dance-single:
     :
     Medium:
     7:
     0.385,0.645,0.121,0.281,0.072:
0000
0000
0000
0000
,
0000
0000
0000
0000
,
0000
0000
0000
0000
,
0000
0000
0000
0000
,
0000
0000
0000
0000
,
0000
0000
0000
0000
,
0000
0000
0000
0000
,
0000
0000
0000
0000
,
0010
1000
0200
0300
,
1000
0010
0200
0300
,
0010
1000
0002
0003
,
0001
0100
0020
0030
,
0100
0010
0200
0300
,
0010
1000
0002
0003
,
0001
0010
0200
0300
,
1000
0000
0010
0000
0100
0010
1000
0000
,
0001
1000
0200
1300
,
1000
0100
0020
0130
,
0010
0100
2000
3100
,
1000
0010
0200
0301
,
0001
0010
0200
0310
,
0010
0001
0200
0310
,
2000
3001
0200
0310
,
2000
0001
0010
3100
,
0000
0000
1000
0100
0000
0000
0000
0000
0000
0000
0010
0001
0000
0100
0001
0000
,
0100
0000
0010
1000
0000
0000
0000
0000
0000
0000
1000
0100
0000
1000
0001
0100
,
0000
0000
0010
0100
0000
0000
0000
0000
0000
0010
1000
0010
0000
0001
0100
0001
,
0000
0000
0100
0100
0000
0000
0000
0000
1000
0001
0010
0100
1000
0001
0100
0010
,
1000
0000
1000
0100
0000
0000
0000
0000
,
0000
0000
1000
0100
0000
0100
1000
0100
,
1000
0100
1000
0100
0000
0000
0000
0000
,
0000
0000
1000
0100
0000
1000
0100
0000
,
0010
0000
0001
0010
0000
0000
0000
0000
,
0000
0001
0100
0010
0000
0010
0100
0010
,
0000
0100
0000
0000
,
0010
1000
0001
0100
,
0000
0001
0000
1000
0000
0001
0000
1000
,
0000
0001
0000
0100
0000
0010
0000
0100
,
0000
0010
0000
0010
0000
1000
0000
1000
,
0000
0001
0000
0001
0000
1000
0000
0001
,
0000
0100
0000
0010
0000
1000
0000
0100
,
0000
0010
0000
0001
0000
0010
0000
0100
,
0000
0010
0000
0010
0000
0001
0000
1000
,
0000
0001
0000
0100
0000
1000
0000
0100
,
0020
0000
0000
0000
,
0000
0000
0000
0030
,
0100
0010
1000
0001
,
0010
0100
0100
0010
,
0022
0000
0000
0000
,
0000
0000
0000
0033
,
2002
0000
0000
3003
,
1001
0000
0000
0101
0000
0000
0001
0000
0100
0000
0010
0000
1010
0000
0000
0000
,
0001
0000
2000
0000
0000
0100
0000
0000
,
0010
0000
0000
0200
0000
0000
3300
0000
,
1000
0010
0100
0001
,
0011
0001
0100
0010
,
0000
0000
0200
0000
0000
1000
0000
0000
,
0010
0000
0000
0002
0000
0000
0303
0000
,
0000
0000
0001
0100
0010
0000
0010
1000
,
0001
0000
0001
1000
0000
1000
0100
0000
,
0000
0000
2000
0000
0000
0010
0000
0000
,
0100
0000
0000
0020
0000
0000
3030
0000
,
0000
1000
0001
0100
,
0110
0010
1000
0001
,
0000
0000
0002
0000
0000
0100
0000
0000
,
0010
0000
0000
0200
0000
0000
0303
0000
,
0001
0100
0010
1000
,
1001
0000
0001
0000
0100
0001
0100
0000
,
0010
0010
0100
0100
,
0010
1000
0001
0100
,
0000
0000
1010
0000
0000
0101
0000
0000
,
1100
0000
0000
0022
0000
0000
0033
0000
,
0001
0100
0010
0000
1000
0000
0001
0000
,
1000
0001
0100
0000
0010
0000
1000
0000
,
0000
1000
1000
0001
,
1001
0000
0001
0000
0100
0001
0100
0000
,
0010
0000
1000
0000
0010
1000
0100
0000
,
1000
0000
0010
0000
0010
0100
0001
0000
,
0000
0000
0102
0000
0000
0100
0000
0000
,
0013
0000
0000
2200
0000
0000
3300
0000
,
0010
1000
0001
0000
0100
0000
0100
0000
,
0001
0100
0010
0000
1000
0000
0010
0000
,
0000
0010
1000
0001
,
0010
0100
0010
0000
0001
1000
0010
0100
,
0002
0000
0003
0000
;

//---------------dance-double - ----------------
#NOTES:
     dance-double:
     :
     Challenge:
     9:
     0.561,0.785,0.370,0.201,0.329:
00000000
00000000
00000000
00000000
,
00000000
00000000
00000000
00000000
,
00000000
00000000
00000000
00000000
,
00000000
00000000
00000000
00000000
,
00000000
00000000
00000000
00000000
,
00000000
00000000
00000000
00000000
,
00000000
00000000
00000000
00000000
,
00000000
00000000
00000000
00000000
,
00100000
10000000
01000000
00100000
01000000
10000000
01000000
00000000
,
00100000
00001000
00010000
00000100
00001000
00000100
00010000
00000000
,
00001000
00000010
00000100
00000001
00000010
00000100
00001000
00000000
,
00000100
00010000
00001000
00100000
00010000
00100000
00001000
00000000
,
00001000
00100000
00010000
01000000
00100000
10000000
01000000
00000000
,
10000000
01000000
00100000
00010000
00100000
01000000
10000000
00000000
,
10000000
00010000
00100000
00001000
00010000
00000100
00001000
00000010
,
00000100
00000001
00000010
00000100
00010000
00000100
00100000
00001000
,
00001000
00000000
00010000
00000000
00001000
00010000
00000000
00001000
00000000
00010000
00000000
00001000
00000000
00000000
00000000
00000000
,
00010000
00000000
01000000
00000000
00100000
10000000
00000000
00100000
00000000
10000000
00000000
00100000
00000000
00000000
00000000
00000000
,
10000000
00000000
01000000
00000000
00100000
00010000
00000000
00100000
00000000
00100000
00000000
00010000
00000000
00000000
00000000
00000000
,
00100000
00000000
00001000
00000000
00010000
00000100
00000000
00001000
00000000
00000100
00000000
00001000
00000000
00000000
00000000
00000000
,
00001000
00000000
00000010
00000000
00000100
00000010
00000000
00001000
00000000
00000001
00000000
00000010
00000000
00000000
00000000
00000000
,
00000100
00000000
00001000
00000000
00000100
00010000
00000000
00001000
00000000
00100000
00000000
00010000
00000000
00000000
00000000
00000000
,
00010000
00000000
01000000
00000000
00100000
10000000
00000000
10000000
00000000
01000000
00000000
00100000
00000000
00100000
01000000
10000000
,
00010000
00000000
00100000
00000000
00001000
00010000
00000000
00000100
00000000
00001000
00000000
00000010
00000000
00000100
00000010
00001000
,
00000001
00000000
00000010
00000100
00000000
00000000
00000000
00000000
00000000
00000000
00000010
00010000
00000000
00010000
00001000
00100000
,
00010000
01000000
00100000
00100000
00000000
00000000
00000000
00000000
00000000
00000000
01000000
00010000
00000000
00010000
00100000
01000000
,
00100000
00001000
00010000
00000100
00000000
00000000
00000000
00000000
00000000
00000100
00001000
00000010
00000000
00000001
00000100
00000010
,
00000000
00000000
00001000
00000010
00000000
00000000
00000000
00000000
00000001
00001000
00000010
00010000
00001000
00100000
00010000
01000000
,
00100000
01000000
10000000
01000000
00000000
00000000
00000000
00000000
,
00000000
00000000
01000000
00100000
00000000
01000000
00010000
00100000
,
00001000
00010000
00000100
00001000
00000000
00000000
00000000
00000000
,
00000000
00000000
00000100
00001000
00000000
00000100
00010000
00001000
,
00010000
00010000
00000010
00000100
00000000
00000000
00000000
00000000
,
00000100
00000010
00001000
00000010
00000000
00000100
00000001
00001000
,
00000100
00010000
00001000
00001000
00000000
00000000
00000000
00000000
,
00001000
00100000
00010000
01000000
00100000
10000000
01000000
00100000
,
00010000
00100000
00000000
01000000
00000000
10000000
00000000
01000000
,
00000000
00100000
00000000
00010000
00000000
01000000
00001000
00010000
,
00000000
00010000
00000000
00000100
00000000
00001000
00000000
00000010
,
00000000
00000100
00000000
00000001
00000000
00000010
00000000
00000001
,
00000100
00000010
00000000
00000110
00000000
00000010
00000000
00001010
,
00000000
00001000
00000000
00010100
00000000
00000100
00000000
00101000
,
00000000
00010000
00000000
00001100
00000000
00000100
00000000
00110000
,
00000000
00000000
00110000
00000000
00000000
00000000
00011000
00000000
00000000
00000000
00001100
00000000
00000000
00000000
00000100
00010000
,
00000020
00000000
00000000
00000000
,
00000000
00000000
00000000
00000030
,
00000100
00000010
00001000
00000100
,
00010000
00001000
00010000
00000010
,
02020000
00000000
00000000
00000000
,
00000000
00000000
00000000
03030000
,
00000000
00000000
00000000
00000000
,
11000000
00000000
00000000
00110000
00000000
00000000
00101000
00000000
00100000
00000000
00001000
00000000
00010100
00000000
00000000
00000000
,
00001000
00000000
00000000
00000000
00110000
00000000
00000000
00010000
01000000
00000000
00100000
00000000
10100000
00000000
00000000
00000000
,
10000000
00000000
00000000
00000000
01100000
00000000
00000000
00100000
10000000
00000000
00010000
00000000
01000000
00000000
00000000
00000000
,
10010000
00000000
00000000
00000000
10000000
00000000
00000000
01000000
00000000
00000000
10000000
00000000
00000000
00100000
00000000
00000000
,
10010000
00000000
00000000
00000000
00010000
00000000
00000000
00100000
00000000
00000000
00001000
00000000
00000000
00010000
00000000
00000000
,
00010010
00000000
00000000
00000000
00000010
00000000
00000000
00000010
00001000
00000000
00000100
00000000
00000010
00000000
00000000
00000000
,
00000001
00000000
00000000
00000000
00000011
00000000
00000000
00000001
00000100
00000000
00000010
00000000
00001000
00000000
00000100
00000000
,
00000010
00000000
00000001
00000010
00000100
00000010
00000001
00000100
,
00000010
00001000
00000100
00010000
00001000
00100000
00010000
10000000
,
01000000
00000000
00000000
00000000
01100000
00000000
00000000
00100000
01000000
00000000
10000000
00000000
01000000
00000000
10000000
00000000
,
00100000
00000000
00000000
00000000
01100000
00000000
00000000
01000000
00010000
00000000
00100000
00000000
00001000
00000000
00010000
00000000
,
00000100
00000000
00000000
00000000
00011000
00000000
00000000
00011000
00000000
00000000
00011000
00000000
00000000
00011000
00000000
00000000
,
00022000
00000000
00033000
00000000
00101000
00000000
00000000
00110000
00000000
00000000
00011000
00000000
00000000
00001100
00000000
00000000
,
00000110
00000000
00000000
00000000
00001000
00000000
00000000
00000010
00001000
00000000
00000100
00000000
00000010
00000000
00000000
00000000
,
00000001
00000000
00000000
00000000
00000011
00000000
00000000
00000001
00000010
00000000
00000001
00000000
00000100
00000000
00000000
00000000
,
00000000
00000000
00000000
00000000
00000110
00000000
00000000
00001100
00000000
00000000
00011000
00000000
00000000
00110000
00000000
00000000
,
02020000
00000000
03030000
00000000
01010000
00000000
00000000
10100000
00000000
00000000
10010000
00000000
00000000
00101000
00000000
00000000
,
00011000
00001000
00100000
00010000
,
00100000
00001000
00010000
00000100
,
00000000
00000000
00020000
00000000
00000000
00030200
00000000
00000000
,
00002300
00000000
00000000
00000020
00000000
00000000
00003030
00000000
,
00000010
00001000
00000100
00000000
00001000
00000000
00001100
00000000
,
00001000
00000001
00000010
00000000
00000100
00000000
00000110
00000000
,
00000000
00000000
00000000
00000000
00000002
00000000
00000000
00000203
00000000
00000000
00000320
00000000
00000000
00002030
00000000
00000000
,
00003200
00000000
00000000
00000000
00002300
00000000
00000000
00003020
00000000
00000000
00020030
00000000
00000000
00032000
00000000
00000000
,
00103000
00000000
01000000
00000000
01000000
00100000
00010000
00000000
,
00010000
00000000
01000000
00000000
00100000
10000000
00010000
10000000
,
00000000
00000000
20000000
00000000
00000000
32000000
00000000
00000000
,
03200000
00000000
00000000
00002000
00000000
00000000
00303000
00000000
,
00100000
00001000
00010000
00000000
00000100
00000000
00001000
00000000
,
00000010
00000100
00000001
00000000
00001000
00000000
00000001
00000100
,
00000010
00000000
00000010
00010000
00001000
01000000
00100000
10000000
,
01000000
00010000
01000000
10000000
00010000
00100000
00001000
00010000
,
00000200
00000000
00000000
00000000
,
00000300
00000000
00000000
00000000
;

//---------------dance-single - ----------------
#NOTES:
     dance-single:
     :
     Easy:
     5:
     0.311,0.373,0.056,0.064,0.000:
0000
0000
0000
0000
,
0000
0000
0000
0000
,
0000
0000
0000
0000
,
0000
0000
0000
0000
,
0000
0000
0000
0000
,
0000
0000
0000
0000
,
0000
0000
0000
0000
,
0000
0000
0000
0000
,
0001
0100
0010
0000
,
0100
0010
1000
0000
,
0001
1000
0100
0000
,
1000
0100
1000
0000
,
0100
1000
0010
0000
,
0100
0001
0010
0000
,
0100
0010
0001
0000
,
0001
0100
0010
0010
,
1000
0001
0100
0100
,
0001
1000
0100
0100
,
1000
0001
0100
0100
,
0001
1000
0100
0100
,
1000
0001
0010
0010
,
0001
1000
0010
0010
,
1000
0001
0010
0010
,
0001
1000
0010
0010
,
0000
1000
0000
0000
0000
0100
0000
0000
,
0010
0000
0000
0000
0000
0001
0000
0000
,
0100
0000
0010
0000
,
0000
1000
0000
0000
0010
0000
1000
0000
,
0001
0100
0000
0000
,
0000
0010
0000
0100
,
0001
1000
0000
0000
,
0000
1000
0000
0010
,
1000
1000
0000
0000
,
1000
0000
0000
0001
,
0000
0100
0000
0000
,
0010
1000
0100
0010
,
0000
0001
0000
1000
0000
0001
0000
1000
,
0000
0001
0000
1000
0000
0001
0000
1000
,
0000
0001
0000
0100
0000
0001
0000
0100
,
0000
0001
0000
0100
0000
0001
0000
0100
,
0000
0010
0000
0100
0000
0010
0000
0100
,
0000
0010
0000
1000
0000
0010
0000
1000
,
0000
0100
0000
1000
0000
0100
0000
1000
,
0000
0100
0000
0010
0000
0100
0000
0010
,
0200
0000
0000
0000
,
0000
0000
0000
0300
,
0001
0001
0001
0001
,
0001
0001
0001
0001
,
2020
0000
0000
0000
,
0000
0000
0000
0000
,
3030
0000
0000
0000
,
1001
0000
0110
0000
0010
0100
0010
0000
,
0100
0001
0100
1000
,
0100
0001
0100
1000
,
0100
0001
0010
0001
,
0010
0000
0001
0000
0100
0001
0100
0000
,
0010
1000
0010
0001
,
0010
1000
0010
0001
,
0010
1000
0100
1000
,
0010
0100
0001
0100
,
0000
0010
1000
0001
,
0010
0100
1000
0100
,
1000
0010
0100
0001
,
1000
0000
0010
0000
0100
0010
0100
0000
,
0010
1000
0001
0100
,
0001
0010
0100
0010
,
0001
0001
0001
0001
,
1001
0010
0110
0010
,
1000
0001
1000
0000
0100
0000
0010
0000
,
1000
0100
0010
0001
,
0000
0000
0002
0000
0000
0100
0000
0000
,
0100
0000
0000
0200
0000
0000
0303
0000
,
0001
0100
0010
1000
,
0100
0001
0100
1000
,
0010
0100
0100
0100
,
0110
0010
0010
0010
,
1001
0001
0100
0010
,
0010
1000
0100
0100
,
1000
0000
0020
0000
0000
1000
0000
0000
,
1000
0000
0000
2000
0000
0000
3030
0000
,
1000
0010
0100
0001
,
0010
0001
0100
0010
,
1000
0001
1000
0010
,
0100
0000
0010
0000
1000
0001
0100
0001
,
0020
0000
0030
0000
;

//---------------dance-single - ----------------
#NOTES:
     dance-single:
     :
     Beginner:
     2:
     0.152,0.304,0.121,0.032,0.000: // measure 1
0000
0000
0000
0000
,  // measure 2
0000
0000
0000
0000
,  // measure 3
0000
0000
0000
0000
,  // measure 4
0000
0000
0000
0000
,  // measure 5
0000
0000
0000
0000
,  // measure 6
0000
0000
0000
0000
,  // measure 7
0000
0000
0000
0000
,  // measure 8
0000
0000
0000
0000
,  // measure 9
0010
0000
0000
0000
,  // measure 10
0010
0000
0000
0000
,  // measure 11
1000
0000
0000
0000
,  // measure 12
1000
0000
0000
0000
,  // measure 13
0001
0000
0000
0000
,  // measure 14
0001
0000
0000
0000
,  // measure 15
0100
0000
0000
0000
,  // measure 16
0100
0000
0100
0000
,  // measure 17
0010
0000
0000
0000
,  // measure 18
1000
0000
0000
0000
,  // measure 19
0001
0000
0000
0000
,  // measure 20
0100
0000
0000
0000
,  // measure 21
0010
0000
0000
0000
,  // measure 22
0001
0000
0000
0000
,  // measure 23
0010
0000
0000
0000
,  // measure 24
0100
0000
1000
0000
,  // measure 25
1001
0000
0000
0000
,  // measure 26
0010
0000
1000
0000
,  // measure 27
0100
0000
0010
0000
,  // measure 28
0001
0000
1000
0000
,  // measure 29
0001
0001
0000
0000
,  // measure 30
0000
1000
0000
1000
,  // measure 31
0000
0010
0000
0000
,  // measure 32
0000
0100
0000
0010
,  // measure 33
0000
1000
0000
0000
,  // measure 34
0001
0000
0000
1000
,  // measure 35
0000
0100
0000
0000
,  // measure 36
0010
0010
0010
0010
,  // measure 37
0100
0000
0000
0000
,  // measure 38
0100
0000
0000
0000
,  // measure 39
0010
0000
0000
0000
,  // measure 40
1000
0000
0000
0000
,  // measure 41
0001
0000
0001
0000
,  // measure 42
1000
0000
1000
0000
,  // measure 43
0001
0000
1000
0000
,  // measure 44
0001
1000
0100
0010
,  // measure 45
0220
0000
0000
0000
,  // measure 46
0000
0000
0000
0330
,  // measure 47
0110
0000
0000
0000
,  // measure 48
0100
0000
0000
0000
,  // measure 49
2002
0000
0000
0000
,  // measure 50
0000
0000
0000
0000
,  // measure 51
3003
0000
0000
0000
,  // measure 52
0110
0000
0010
0010
,  // measure 53
1001
0000
0000
0000
,  // measure 54
1000
0000
0000
0000
,  // measure 55
0001
0000
0001
0000
,  // measure 56
1001
0000
1000
0000
,  // measure 57
0010
0000
0000
0000
,  // measure 58
0100
0000
0000
0000
,  // measure 59
1000
0000
1000
0000
,  // measure 60
1000
0000
0001
0001
,  // measure 61
1001
0000
0010
0000
,  // measure 62
0010
0000
0010
0000
,  // measure 63
0100
0000
0000
0000
,  // measure 64
0110
0000
0000
0000
,  // measure 65
0010
0000
0000
0000
,  // measure 66
1000
0000
0000
0000
,  // measure 67
0001
0000
0001
0000
,  // measure 68
1001
1001
1001
0000
,  // measure 69
0010
0000
0000
0000
,  // measure 70
0100
0000
0000
0000
,  // measure 71
0010
0000
0010
0000
,  // measure 72
0010
0000
0010
0000
,  // measure 73
1001
0000
0000
0000
,  // measure 74
0100
0000
0000
0000
,  // measure 75
0010
0000
1000
0000
,  // measure 76
1001
0000
0001
0000
,  // measure 77
0100
0000
0000
0000
,  // measure 78
0010
0000
0000
0000
,  // measure 79
1000
0000
1000
0000
,  // measure 80
0001
0000
0001
0000
,  // measure 81
1000
0000
0000
0000
,  // measure 82
0010
0000
0000
0000
,  // measure 83
0100
0000
0100
0000
,  // measure 84
0010
0000
1000
1000
,  // measure 85
1001
0000
0000
0000
;
