#TITLE:Coalesce;
#SUBTITLE:;
#ARTIST:onSlot;
#TITLETRANSLIT:;
#SUBTITLETRANSLIT:;
#ARTISTTRANSLIT:;
#CREDIT:;
#BANNER:bn.png;
#BACKGROUND:bg.png;
#LYRICSPATH:;
#CDTITLE:PandemiXium-cdtitle.png;
#MUSIC:Coalesce.mp3;
#OFFSET:0.022;
#SAMPLESTART:70.920;
#SAMPLELENGTH:12.000;
#SELECTABLE:YES;
#BPMS:0.000=137.020,66.000=68.500,112.000=137.040;
#STOPS:112.000=1.314
;
#BGCHANGES:;

//---------------dance-single - ----------------
#NOTES:
     dance-single:
     :
     Hard:
     7:
     0.401,0.487,0.354,0.206,0.083:
0000
0000
0000
0000
,
0000
0000
0000
0000
,
0000
0000
0000
0000
,
0000
0000
0000
0000
,
0000
0000
1000
0001
,
0010
0001
0100
0001
,
0010
1001
0001
0100
,
0001
0010
0001
1000
,
0100
0000
0101
0000
0001
1000
0100
0000
,
1000
0000
1001
0000
0001
0100
0010
0000
,
0100
0000
1001
0000
0010
1000
0100
0000
,
1000
0000
0011
0000
0001
0100
0010
0000
,
1000
0001
0010
0000
0010
0001
1000
0000
,
0001
0100
0010
0000
0010
1000
0001
0010
,
0001
0100
0010
0000
1000
0001
0010
0001
,
0100
0010
1000
0100
2200
0000
0000
0000
,
0000
3300
2002
0000
,
3003
0000
1000
0002
0200
0303
0001
2000
,
0200
0000
0000
0000
3300
0000
0000
0000
1000
0000
0000
0001
0000
0000
0100
0000
,
0001
0000
0001
0100
0020
0000
0130
0010
,
2000
0000
0000
0000
0000
0000
3000
0000
0001
0000
1000
0000
0001
0000
0000
0100
,
0001
0100
0110
0000
0010
1000
0100
0000
,
1000
0100
0000
0010
0001
0000
1000
0001
0100
0000
0001
0000
0101
0000
0000
0001
,
0100
0010
0000
0010
0100
0000
0010
0000
2000
0000
0000
0000
0010
0000
0100
0000
,
0002
0000
0000
0000
0000
0000
3003
0000
1001
0000
0001
0000
0101
0000
0000
0001
,
0100
0010
1000
0100
1000
0000
0000
0000
0010
0000
1000
0000
0100
0000
0000
0000
,
1000
0100
0010
0001
0010
0000
0000
0000
0001
0000
0000
0000
1000
0000
0000
0000
,
0001
0100
0010
0000
1000
0001
0100
0000
,
1001
0000
1100
0000
0011
0000
1100
0011
,
1100
0000
0101
0000
1010
0000
0101
1010
,
0101
0000
1001
0000
0110
0000
1001
1001
,
1001
0110
0000
1001
,
0000
0000
1000
0100
0010
0002
0010
0010
,
0013
0000
0001
0010
0100
2000
0100
0100
,
3100
0000
1000
0001
0100
0001
0020
0001
,
0031
0000
0001
0010
0000
0100
0010
0000
,
0001
0010
0001
0100
0010
0000
0000
0000
0200
0000
0000
0000
0310
0000
0100
0000
,
1001
0000
0002
0000
0013
0000
0001
0100
,
1010
0000
2000
0000
3100
0000
1000
0001
,
0101
0000
0002
0000
0013
0000
0001
1000
,
1100
0000
1000
0001
0010
0001
0100
0010
,
1001
0000
0001
0100
0001
0010
0001
1000
,
1100
0000
1000
0010
0100
0010
1000
0001
,
1100
0000
1000
0001
0010
0001
0100
0010
,
1000
0010
1000
0200
0020
0000
0000
0000
0000
0000
0000
0000
0000
0000
0300
0000
,
0000
0030
0000
0000
0000
0000
0000
0000
;

//---------------dance-double - ----------------
#NOTES:
     dance-double:
     :
     Challenge:
     8:
     0.443,0.552,0.619,0.334,0.123:
00000000
00000000
00000000
00000000
,
00000000
00000000
00000000
00000000
,
00000000
00000000
00000000
00000000
,
00000000
00000000
00000000
00000000
,
00000000
00000000
00000000
00000000
10000000
01000000
00000000
00010000
,
00100000
00010000
00000000
00100000
00001000
00010000
00000000
00001000
,
00010000
00000100
00002000
00000000
00003100
00001000
00000000
00000100
,
00001000
00000010
00000000
00000010
00000100
00000001
00000000
00000001
,
00000010
00000000
00000000
00000001
00000010
00000000
00000000
00000000
00000001
00000000
00001000
00000000
00000100
00000000
00000000
00000000
,
00001100
00000000
00011000
00000000
00010000
01000000
00100000
00000000
,
00100000
00000000
10010000
00000000
10000000
00010000
01000000
00000000
,
01010000
00000000
00110000
00000000
00100000
00001000
00010000
00000000
,
00010000
00000100
00010100
00000000
00000100
00001000
00000001
00000010
,
00000001
00000100
00000010
00001000
00000100
00010000
00001000
00010000
,
00100000
01000000
10000000
01000000
10000000
00010000
01000000
00100000
,
10000000
01000000
10000000
00010000
02020000
00000000
00000000
00000000
,
00000000
03030000
00020200
00000000
,
00030300
00000000
00000100
00001000
00000100
00000000
00001000
00000001
,
00000100
00000000
00000000
00000000
00000000
00000000
00000010
00000100
00000010
00000000
00001000
00000000
00000100
00000000
00000010
00000000
,
00000001
00000000
00000000
00001000
00000001
00000010
00000100
00001000
00000200
00000000
00010300
00001000
00100000
00010000
00100000
01000000
,
20000000
00000000
00000000
00000000
30010000
00000000
01000000
00000000
01100000
00000000
01000000
00000000
10010000
00000000
00000000
01000000
,
00010000
00100000
00000000
00100000
00002000
00000000
00023000
00000000
00000200
00000000
00030300
00000100
00010000
00001000
00010000
00000010
,
00002000
00000000
00000000
00000000
00003000
00000000
00000010
00001000
00000001
00000000
00000010
00000000
00000011
00000000
00000001
00000100
,
00000010
00000000
00000000
00000010
00000100
00000010
00001000
00000100
00010000
00000000
00000000
00001000
00100000
00010000
01000000
00100000
,
10000000
00000000
00000000
10000000
00200000
01300000
00200000
10300000
10010000
00000000
00000000
00000000
10000000
00000000
00000000
00000000
,
00010000
00100000
00010000
00000000
00100000
00000000
00101000
00000000
,
00100000
00001000
00010000
00000000
00011000
00000000
00010100
00000000
,
00010000
00000010
00000100
00000000
00002002
00000000
00000000
00000000
,
00003003
00001001
00011000
20020000
,
30030000
10010000
00011000
00002002
,
00003003
00001001
00011000
20020000
,
30030000
01010000
00000000
00101000
,
00000000
00011000
00010100
00202000
,
00303000
01001000
00010100
00022000
,
00033000
00011000
00001100
00000220
,
00000330
00000011
00000110
00001100
,
00000000
00011000
10010000
01100000
,
10010000
11000000
01100000
00110000
,
00101000
00011000
00010100
00001100
,
00000011
00000000
00000001
00000100
00000010
00001000
00000100
00010000
,
00001000
00100000
00110000
00000000
11000000
00000000
10000000
00010000
,
20020000
30030000
11000000
00000000
00110000
00000000
00100000
00002000
,
00020000
00033000
00011000
00000000
00001100
00000000
00001000
00000001
,
00002000
00003000
00001001
00000000
00011000
00000000
10010000
00000000
,
01100000
20200000
00000000
00000000
,
30300000
00000000
00000000
00000000
;

//---------------dance-single - ----------------
#NOTES:
     dance-single:
     :
     Medium:
     5:
     0.304,0.309,0.206,0.128,0.000:
0000
0000
0000
0000
,
0000
0000
0000
0000
,
0000
0000
0000
0000
,
0000
0000
0000
0000
,
0000
0000
1000
0001
,
0100
0001
1000
0010
,
1000
0010
1000
0000
0010
0000
1000
0000
,
0100
0010
0001
0010
,
0001
0010
0001
0000
0001
0000
1000
0000
,
0001
0100
0010
0000
0100
0000
0010
0000
,
0100
0010
1000
0000
0001
0000
1000
0000
,
1000
0001
0100
0000
0001
0000
0100
0000
,
0100
0010
1001
0000
0001
0000
1000
0000
,
0001
1000
0001
0000
1000
0000
0100
0000
,
0010
0001
0010
0000
0001
0000
0100
0000
,
0010
1000
2002
0000
,
3003
0000
0202
0000
,
0303
0000
0001
1000
0100
0000
1000
0100
,
1000
0000
1000
0001
,
0100
0000
0001
0100
0001
0000
0100
0001
,
0200
0300
0001
1001
,
1000
0001
0100
0000
0001
0000
0101
0000
,
0001
0100
1000
0000
1000
0000
1010
0000
,
1000
0010
0001
0000
0101
0000
0011
0000
,
0001
1000
0100
0000
1000
0000
0001
0000
,
0001
0100
0010
1000
0100
0000
1000
0000
,
1000
0001
0100
0000
0101
0000
0001
0000
,
0001
0100
0010
0000
0220
0000
0000
0000
,
0330
0000
0010
0000
0100
0000
0010
0100
,
0010
0000
1000
0000
0010
0000
1000
0010
,
1000
0000
0010
0000
0100
0000
0010
1000
,
0001
1001
0010
1001
,
0100
0000
0001
0000
1000
0000
0001
0100
,
0020
0000
0130
0000
0010
0000
0010
0100
,
0002
0000
0103
0000
0001
0000
1000
0001
,
2000
0000
3001
0000
0100
0000
0010
1000
,
0002
0000
0013
0000
0001
0000
0010
0001
,
0011
0000
0100
0000
1000
0000
0100
1000
,
1100
0000
1000
0000
0010
0000
1000
0010
,
1010
0101
0000
1001
,
0000
0000
0010
0000
0100
0000
0010
0100
,
0110
0000
1000
0000
0001
0000
1000
0001
,
1001
0000
0001
0000
0100
0000
0010
1000
,
1010
0000
1000
0000
0100
0000
0010
0001
,
0100
2002
0000
0000
,
3003
0000
0000
0000
;

//---------------dance-single - ----------------
#NOTES:
     dance-single:
     :
     Easy:
     3:
     0.217,0.243,0.118,0.265,0.000:
0000
0000
0000
0000
,
0000
0000
0000
0000
,
0000
0000
0000
0000
,
0000
0000
0000
0000
,
0000
0000
0001
0000
,
1000
0000
0001
0000
,
0001
0101
0100
0000
,
0100
0000
0010
0000
,
1000
1001
0001
0000
,
1000
0001
0100
0000
,
0001
1000
0010
0000
,
0010
1000
0100
0000
,
0100
1000
1010
0000
,
0100
0000
0010
0000
,
0100
0000
0001
0010
,
0001
0100
2020
0000
,
0000
3030
0202
0000
,
0303
0001
0001
2000
,
0100
3000
1000
0000
,
0001
0100
0020
0100
,
0030
0000
0010
0110
,
0100
0010
2000
0001
,
0002
3003
0001
1000
,
0010
0000
2000
0000
0200
3300
0020
0000
,
0002
0033
0001
0100
0010
0000
0000
0000
,
0000
0100
0010
0000
,
0000
0000
1001
0000
,
0000
1000
0010
0100
,
0001
1000
0001
2000
,
3000
0001
1000
0002
,
0003
0010
0100
0020
,
0030
0100
0010
0200
,
0300
0010
1000
0200
,
0300
0100
1000
0020
,
0030
0100
0010
0002
,
0003
1001
0000
0110
,
0000
0010
1000
0200
,
1300
1000
0100
0020
,
0031
0010
0001
0200
,
0301
0101
0000
1010
,
0000
1000
0010
0200
,
0300
0010
1000
0002
,
0003
1000
0001
0200
,
0300
0001
0100
0010
,
1000
2200
0000
0000
,
3300
0000
0000
0000
;

//---------------dance-single - ----------------
#NOTES:
     dance-single:
     :
     Beginner:
     1:
     0.062,0.087,0.039,0.000,0.000:
0000
0000
0000
0000
,
0000
0000
0000
0000
,
0000
0000
0000
0000
,
0000
0000
0000
0000
,
0000
0000
0010
0000
,
0000
0000
0000
0000
,
0000
0000
0100
0000
,
0000
0000
0000
0000
,
0000
0000
1001
0000
,
0000
0000
0000
0000
,
0000
0000
0010
0000
,
0000
0000
0000
0000
,
0000
0000
1000
0000
,
0000
0000
0001
0000
,
0000
0000
0100
0000
,
0010
0000
1001
0000
,
0000
0000
0110
0000
,
0000
0000
0000
0010
,
0000
0000
0100
0000
,
0000
0000
0000
0000
,
0000
0000
0001
0000
,
0000
0000
1000
0000
,
0000
0000
0010
0000
,
0000
0000
0100
0000
,
0000
0000
0010
0000
,
0000
0000
1000
0000
,
0000
0000
0001
0000
,
0000
0000
0100
0000
,
0000
0010
0000
0000
,
0000
0100
0000
0000
,
0000
1000
0000
0000
,
0000
0001
0000
0001
,
0000
0001
0000
0000
,
0000
1000
0000
0000
,
0000
0010
0000
0000
,
0000
0100
0000
0000
,
0000
0010
0000
0000
,
0000
1000
0000
0000
,
0000
0001
0000
0000
,
0000
1000
0000
1000
,
0000
1000
0000
0000
,
0000
0001
0000
0000
,
0000
0100
0000
0000
,
0000
0010
0000
0100
,
0000
1001
0000
0000
;
