#TITLE:the keel;
#SUBTITLE:-Nu Style Gabba Mix-;
#ARTIST:TERANOID VS Akino;
#TITLETRANSLIT:;
#SUBTITLETRANSLIT:;
#ARTISTTRANSLIT:;
#CREDIT:;
#BANNER:bn.PNG;
#BACKGROUND:bg.PNG;
#LYRICSPATH:;
#CDTITLE:;
#MUSIC:17 the keel (Nu-Style Gabba mix).mp3;
#OFFSET:-0.361;
#SAMPLESTART:12.140;
#SAMPLELENGTH:12.000;
#SELECTABLE:YES;
#BPMS:0.000=173.000,151.000=86.500,181.000=173.000,182.000=86.500,186.000=173.000,194.000=86.500,198.000=173.000;
#STOPS:26.000=0.346
,27.000=0.346
,28.000=1.039
,85.000=0.346
,86.000=0.346
,87.000=0.346
,102.000=1.039
,181.000=1.059
,294.000=2.425
;
#BGCHANGES:;

//---------------dance-single - ----------------
#NOTES:
     dance-single:
     :
     Challenge:
     9:
     0.546,0.577,0.431,0.110,0.583: // measure 1
0000
0000
0000
0000
,  // measure 2
0000
0000
0000
0000
,  // measure 3
0000
0000
0000
0000
,  // measure 4
0000
0000
0000
0000
,  // measure 5
0000
0000
0000
0000
,  // measure 6
0000
0000
0000
0000
,  // measure 7
0000
0000
1100
0101
,  // measure 8
1001
0000
0000
0001
0000
0000
0100
0000
0010
1000
0000
1000
,  // measure 9
0100
0000
0000
0010
0000
0000
0001
0000
0001
0100
0000
0100
,  // measure 10
0010
0000
0000
0100
0000
0010
1000
0000
1000
0001
0000
0001
,  // measure 11
0010
0000
0010
0100
0000
0000
0010
0000
0010
0001
1000
0000
,  // measure 12
0100
0000
0000
0010
0000
0001
0010
0000
0100
1000
0000
0000
,  // measure 13
1001
0000
0000
0010
0000
0100
0001
0000
0001
0010
0000
0000
,  // measure 14
0100
0000
0000
0010
0000
0001
0010
0000
0100
1000
0000
1000
,  // measure 15
0010
0000
0100
0010
0000
1000
0001
0000
0010
0100
0000
1000
,  // measure 16
0001
0000
0000
0001
0000
0001
0100
0000
0010
1000
0000
0001
,  // measure 17
0100
0000
0010
1000
0000
0001
0100
0000
0010
1000
0000
0001
,  // measure 18
0100
0000
0000
0010
0000
1000
0100
0000
0010
0001
0000
0010
,  // measure 19
0000
0100
0010
0001
0000
1000
0000
0000
0010
0200
0000
0000
,  // measure 20
0320
0000
0000
1030
0000
0000
0001
0000
0000
0010
0000
0100
,  // measure 21
0000
1000
0000
0001
0000
0000
0001
0000
0000
0100
0010
1000
,  // measure 22
0001
0010
1000
0010
0000
0000
1100
0000
0000
0101
0000
0000
,  // measure 23
0001
0010
0100
2000
0000
0000
3001
0000
0000
0100
0000
0000
,  // measure 24
0010
1000
1100
1001
,  // measure 25
0101
0011
0001
0010
,  // measure 26
0100
0000
0000
1000
0000
0001
0000
0000
0000
0100
0000
0000
,  // measure 27
0010
0000
1000
0010
0000
0000
0110
0000
0000
0010
0000
0000
,  // measure 28
1000
0000
1000
0001
0000
0000
0011
0000
0001
0010
0000
0000
,  // measure 29
0110
0000
0010
0100
0000
0000
1100
0000
1000
0100
0000
0010
,  // measure 30
0001
0000
0001
0100
0000
0100
0010
0000
0000
1001
0000
0100
,  // measure 31
0010
0000
0100
0010
0000
0100
0010
0000
0100
0010
0000
0100
,  // measure 32
0010
0000
0100
0010
0000
0100
0020
0000
0000
0130
0000
0001
,  // measure 33
1000
0000
0001
1000
0000
0001
1000
0000
0001
1000
0000
0001
,  // measure 34
1000
0000
0001
1000
0000
0001
1000
0000
0000
0010
1000
0001
,  // measure 35
0010
0000
0000
0100
0000
1000
0100
0000
0010
0001
0000
0001
,  // measure 36
0000
0100
0000
0100
0000
0010
0000
1000
0000
0001
0010
0100
,  // measure 37
0010
0001
0100
0010
1000
0001
0010
0100
0010
0001
0000
1000
,  // measure 38
0000
0001
0000
0020
0000
0000
0000
0000
0000
0031
0000
0000
,  // measure 39
0100
0000
1000
0100
0010
0000
0100
0001
,  // measure 40
0010
0000
0100
1000
0010
0000
0100
0001
,  // measure 41
1000
0000
0100
0010
0001
0000
0001
0010
,  // measure 42
1000
0000
0000
0000
0100
0000
0010
0000
0001
0000
0000
0000
0011
0000
0000
0001
,  // measure 43
0010
0100
0000
1000
0000
0100
0000
1000
0000
0000
0010
0000
0200
0000
0000
0000
,  // measure 44
0000
0000
0300
0000
0000
0010
2000
0000
,  // measure 45
3002
0023
0032
0023
,  // measure 46
0100
0000
0000
0000
0000
0000
0000
0000
0000
0000
0000
0000
0000
0000
0000
0000
0000
0030
0000
0000
0000
0000
0000
0000
0000
0000
0000
0000
0000
0000
0000
0000
0100
0000
0000
0000
0000
0000
0000
0000
0010
0000
0000
0000
0000
0000
0000
0000
0001
0000
0000
0000
0000
0000
0000
0000
1000
0000
0000
0000
0000
0000
0000
0000
,  // measure 47
0010
0000
0000
0001
0000
0000
0010
0000
0000
0100
0000
0000
0001
0000
0000
0000
0100
0000
0010
0000
0000
0000
0010
0000
,  // measure 48
1000
0000
1000
0100
0000
0010
0001
0000
0010
0100
0000
1000
,  // measure 49
0100
0000
0000
0000
0100
0000
0010
0000
0000
0000
0010
0000
0001
0000
0000
0010
0000
0000
1000
0000
0000
0010
0000
0000
,  // measure 50
0001
0000
0000
0100
0000
0000
1000
0000
0000
0100
0000
0000
0010
0000
0000
0000
0100
0000
0000
0000
0001
0000
0000
0000
,  // measure 51
0010
0000
0100
0000
0010
0000
0001
0000
0100
0000
0010
1000
,  // measure 52
0010
1000
0001
0201
0000
0000
0310
0000
0000
0110
0000
0000
,  // measure 53
1001
0110
0101
1010
,  // measure 54
0101
1010
1100
0011
,  // measure 55
0110
1001
0110
1001
,  // measure 56
0110
1001
0101
0101
,  // measure 57
0011
0011
0110
1100
,  // measure 58
0110
1100
1010
0101
,  // measure 59
0110
1001
0110
0110
,  // measure 60
1001
0000
0000
0000
0000
0000
2002
0000
0000
3003
0001
0000
0100
0000
0000
0000
0010
0000
1000
0000
0000
0000
1000
0000
,  // measure 61
0100
0000
0100
0010
0000
0010
0001
0000
0001
0010
0000
0010
,  // measure 62
0001
0000
0001
0100
0000
0100
0010
0000
0010
1000
0000
1000
,  // measure 63
0001
0000
0001
0010
0000
0001
0100
0000
0100
0010
0000
1000
,  // measure 64
0001
0000
0001
1000
0000
1000
0010
0000
1000
0100
0000
0100
,  // measure 65
0010
0000
0010
0100
0000
0100
1000
0000
1000
0010
0000
0010
,  // measure 66
0100
0000
0001
0010
0000
0100
1000
0000
0100
1000
0000
0100
,  // measure 67
1000
0000
0100
1000
0000
0000
0001
0000
0000
0001
0000
0000
,  // measure 68
1000
0000
0000
0000
0000
0000
0001
0000
0000
1000
0000
0000
0001
0000
0000
1000
0000
0000
0001
0000
0000
0000
0000
0000
0100
0000
0000
0000
0000
0000
0000
0000
0010
0000
0000
0000
1000
0000
0000
0000
0000
0000
0000
0000
1000
0000
0000
0000
,  // measure 69
0100
0000
0000
0110
0000
0000
0001
0000
0001
0010
0000
0010
,  // measure 70
0100
0000
0000
0011
0000
0000
0101
0000
0001
0100
0000
0100
,  // measure 71
0010
0000
0000
1001
0000
0000
0101
0000
0001
0100
0000
0010
,  // measure 72
1000
1100
1000
0100
,  // measure 73
0010
0000
0000
0001
0000
0000
0010
0000
0100
0000
1000
0000
,  // measure 74
0001
0000
0100
0000
0010
1000
0100
0000
0000
1001
0000
0000
;
