#TITLE:robin;
#SUBTITLE:;
#ARTIST:S-C-U;
#TITLETRANSLIT:;
#SUBTITLETRANSLIT:;
#ARTISTTRANSLIT:;
#CREDIT:;
#BANNER:bn.png;
#BACKGROUND:bg.png;
#LYRICSPATH:;
#CDTITLE:;
#MUSIC:23.S-C-U - robin.mp3;
#OFFSET:-10.465;
#SAMPLESTART:62.240;
#SAMPLELENGTH:12.000;
#SELECTABLE:YES;
#BPMS:0.000=190.000;
#STOPS:159.500=1.263
;
#BGCHANGES:;

//---------------dance-single - Pandemonium X----------------
#NOTES:
     dance-single:
     Pandemonium X:
     Hard:
     8:
     0.522,0.571,0.330,0.170,0.024: // measure 1
1000
0000
0001
0100
0000
1000
0100
0000
,  // measure 2
1000
0001
0000
1000
0000
0001
0000
0100
,  // measure 3
0000
0001
0010
0100
1000
0000
0000
0001
,  // measure 4
0010
0100
1000
0000
0000
0000
0000
0000
,  // measure 5
1000
0000
0001
0010
0000
1000
0010
0000
,  // measure 6
0100
0010
0000
1000
0000
0001
0000
1000
,  // measure 7
0000
1000
0100
0010
0001
0000
0000
1000
,  // measure 8
0100
0010
0001
0000
0000
0000
0000
0000
,  // measure 9
1001
0000
0110
0000
0000
0000
0000
0110
,  // measure 10
0000
1000
1001
0000
0000
0000
0000
0000
,  // measure 11
0001
0100
0010
1000
,  // measure 12
0001
0010
0100
0000
0010
0001
0100
0000
,  // measure 13
0101
0000
1100
0000
0000
0000
0000
1010
,  // measure 14
0000
0001
0011
0000
0000
0000
0000
0000
,  // measure 15
1000
0010
1000
0001
,  // measure 16
0010
0100
0010
0001
,  // measure 17
1001
0000
1001
0000
0001
0000
0001
0101
,  // measure 18
0000
0100
0110
0000
0010
0000
1000
0000
,  // measure 19
0110
1001
0001
0100
,  // measure 20
0010
1000
0001
0000
0001
0010
1000
0000
,  // measure 21
1010
0000
0011
0000
0001
0000
0100
0110
,  // measure 22
0000
0010
1010
0000
1000
0000
0001
0000
,  // measure 23
0010
0000
0000
0100
0000
0000
1000
0000
,  // measure 24
0000
0100
0000
0000
0010
0000
0001
0000
,  // measure 25
2001
0001
0100
3001
,  // measure 26
1002
0100
1000
0103
,  // measure 27
2001
0100
0001
3100
,  // measure 28
1002
0100
1000
0103
,  // measure 29
1020
1000
0100
1030
,  // measure 30
0210
0001
0010
0301
,  // measure 31
0120
1000
0100
1030
,  // measure 32
0210
0001
0010
0301
,  // measure 33
0102
0100
0100
0103
,  // measure 34
2100
0100
0100
3100
,  // measure 35
0102
0100
0100
0103
,  // measure 36
2100
0100
0100
3100
,  // measure 37
1020
1000
1000
1030
,  // measure 38
0021
0001
0001
0031
,  // measure 39
0001
0010
0000
1000
0100
0000
1000
0010
,  // measure 40
0000
0100
0001
0000
0001
1000
0001
1000
,  // measure 41
0101
0000
0100
0010
0000
1000
0000
0001
,  // measure 42
0000
0010
0100
1000
0000
0100
0000
1000
,  // measure 43
0010
0100
0000
0001
0000
1000
0100
0010
,  // measure 44
0000
0100
1000
0100
2000
0000
0010
3010
,  // measure 45
0000
0000
0100
0000
0100
0001
0010
1000
,  // measure 46
0000
0110
0000
0010
0001
0100
0001
0000
,  // measure 47
1000
0000
0010
1000
0000
0010
0000
0100
,  // measure 48
0000
0001
0010
1000
0010
0001
0100
0000
,  // measure 49
1001
0000
0001
0100
0000
0010
0000
1000
,  // measure 50
0000
0001
0010
0001
0000
0100
0000
0010
,  // measure 51
1000
0001
0000
0100
0000
1000
0100
0010
,  // measure 52
0000
0100
0001
0010
0200
0000
0010
0310
,  // measure 53
0000
0000
0100
0000
0010
0001
1000
0001
,  // measure 54
0000
0010
0000
0100
1000
0010
0100
0000
,  // measure 55
0010
0000
0100
0010
0000
0100
0000
0001
,  // measure 56
0000
0001
0100
0010
2000
0000
3200
0000
,  // measure 57
0310
0000
0000
0000
0000
0000
0000
0000
0000
0000
0000
0000
0000
0000
0010
0100
,  // measure 58
0010
0000
0000
0001
0000
0000
0100
0000
0100
0000
0000
0010
0000
0000
1000
0000
,  // measure 59
0001
0000
0000
0000
,  // measure 60
0001
0000
0000
0001
0000
0000
1000
0000
0010
0000
0000
0010
0000
0000
0100
0000
,  // measure 61
0001
0000
0001
0010
0100
0000
0100
1000
,  // measure 62
0010
0000
0100
0001
1000
0000
1000
0100
,  // measure 63
0010
0000
0010
0001
0100
0000
0001
0100
,  // measure 64
0001
0000
1000
0001
0100
0000
0001
0000
,  // measure 65
0010
0000
0100
0010
0000
0100
0010
0000
,  // measure 66
0010
0001
0000
1000
0000
0001
0000
1000
,  // measure 67
0000
0001
0010
0100
1000
0000
0000
0001
,  // measure 68
0010
0100
1000
0000
0000
0000
0000
0000
,  // measure 69
0001
1000
0001
1000
0001
1000
0001
1000
,  // measure 70
0010
0100
0010
0100
0010
0100
0010
0100
,  // measure 71
0010
1000
0100
0010
0100
1000
0001
0010
,  // measure 72
0100
0100
0100
0000
0000
0000
0000
0000
;

//---------------dance-single - Pandemonium X----------------
#NOTES:
     dance-single:
     Pandemonium X:
     Medium:
     6:
     0.392,0.470,0.283,0.075,0.000:
1000
0000
0000
0001
0000
0000
0100
0000
,
0010
1000
0000
0001
0000
0010
0000
0200
,
0000
0000
0000
0000
,
0310
0000
0000
0000
,
0100
0000
0000
1000
0000
0000
0010
0000
,
0010
0100
0000
0001
0000
0100
0000
0010
,
0000
0000
1000
0000
0000
0001
0000
0000
,
0020
0000
0000
0030
,
0110
0000
0110
0000
0000
0000
0000
1001
,
0000
1001
0000
0000
,
0101
0101
0000
0000
,
0001
0100
1000
0100
,
0110
0000
1010
0000
0000
0000
0000
1010
,
0000
0101
0000
0000
,
0001
1000
0100
1000
,
0010
0100
0001
0010
,
0110
0110
0010
0100
,
1100
0101
0001
1000
,
0110
1001
0001
0100
,
0010
0010
0100
0001
,
0110
0110
0100
1000
,
1100
1100
1000
0010
,
0100
0000
0000
0100
0000
0000
0100
0000
,
0000
0100
0000
0000
0100
0000
0010
0000
,
1000
0000
0001
1000
0000
0100
0000
0020
,
0000
0000
0000
0030
,
0001
0000
0010
0100
0000
1000
0000
0200
,
0000
0000
0000
0300
,
1000
0000
0010
0100
0000
0001
0000
2000
,
0000
0000
0000
0000
3000
0001
0100
0001
,
1000
0000
0001
0100
0000
0010
1000
0000
,
0001
0100
0000
0001
0000
0001
0010
0100
,
1000
0000
0100
1000
0000
0010
0000
0200
,
0000
0000
0000
0300
,
0010
0000
1000
0010
0000
0100
0000
0002
,
0000
0000
0000
0003
,
1000
0000
0001
1000
0000
0001
0000
0200
,
0000
0000
0000
0310
,
1000
0010
0000
1000
0010
0000
0100
0001
,
0000
0100
0001
0000
0001
0010
0100
1000
,
0001
0000
1000
0010
0000
0100
0000
0010
,
0000
1000
0010
1000
0000
0010
0000
0100
,
0010
1000
0000
0001
0000
0001
0010
0100
,
0000
0100
1000
0100
1000
0000
0100
0100
,
0000
0000
1000
0000
0100
1000
0010
0100
,
0000
0010
0000
0100
0010
0000
1000
0000
,
0001
0000
0000
1000
0000
0010
0000
0100
,
0000
0010
1000
0010
,
0110
0000
0010
1000
0000
0010
0000
1000
,
0000
1000
0100
0010
0000
0100
0000
0100
,
1000
0001
0000
0100
0000
0001
0010
0100
,
0000
0010
0001
0010
0001
0000
0001
0001
,
0000
0000
0001
0000
0001
0100
1000
0100
,
0000
0010
0000
0100
0010
0000
1000
0000
,
0001
0000
0000
1000
0000
0100
0000
1000
,
0000
0010
0100
0010
1000
0000
0010
0000
,
0100
0000
0000
0000
,
0010
0000
1000
0000
,
1001
0000
0000
0000
,
0001
0000
0010
0000
,
1100
0000
0101
0000
,
1001
0000
0110
0000
,
1010
0000
0011
0000
,
1100
0000
0110
0000
,
0010
0001
0010
0100
,
0010
0001
1000
0010
,
0100
0010
1000
0010
1000
0000
0000
0001
,
0100
0001
0100
0000
0000
0000
0000
0000
,
0001
0010
0100
1000
,
0100
0010
0001
1000
,
0010
0100
0001
0010
,
0100
1000
0100
0000
0000
0000
0000
0000
;

//---------------dance-single - Pandemonium X----------------
#NOTES:
     dance-single:
     Pandemonium X:
     Easy:
     4:
     0.272,0.302,0.000,0.094,0.000:
0001
0000
0000
1000
0000
0000
0010
0000
,
0100
0000
0000
0001
0000
1000
0000
0200
,
0000
0000
0000
0000
,
2000
0000
0000
3300
,
1000
0000
0000
0001
0000
0000
0100
0000
,
0001
0000
0000
0010
0000
0010
0000
0010
,
0000
0000
0100
0000
0000
1000
0000
0000
,
0001
0000
0000
0000
,
1000
0000
0001
0000
0000
0000
0000
0100
,
0000
0100
0000
0000
,
0010
0010
0000
0000
,
1000
0000
0001
0000
,
0010
0000
0010
0000
0000
0000
0000
0100
,
0000
0010
0000
0000
,
0001
0000
0000
0100
0000
0000
0010
0000
,
0000
0100
0000
0000
0001
0000
1000
0000
,
0100
0000
0100
0000
0000
0000
0000
1000
,
0000
0001
0100
0000
0000
0000
0000
0000
,
0010
0010
0000
0000
,
0100
0000
0001
0000
,
1000
0000
0001
0000
0000
0000
0000
0100
,
0000
0001
0100
0000
0000
0000
0000
0000
,
0010
0000
0000
0010
0000
0000
0100
0000
,
0000
0100
0000
0000
0010
0000
1000
0000
,
0001
0000
0000
1000
0000
1000
0000
2000
,
0000
0000
0000
3000
,
0001
0000
0000
0100
0000
0100
0000
0200
,
0000
0000
0000
0300
,
0010
0000
0000
0100
0000
0100
0000
0200
,
0000
0000
0000
0300
,
0010
0000
0000
1000
0000
0000
0001
0000
,
0000
0010
0000
0000
0001
0000
1000
0000
,
0001
0000
0000
0100
0000
0010
0000
2000
,
0000
0000
0000
3000
,
1000
0000
0000
0001
0000
0010
0000
0200
,
0000
0000
0000
0300
,
0010
0000
0000
0001
0000
1000
0000
0020
,
0000
0000
0000
0130
,
0010
0000
0000
0100
0000
0000
0001
0000
,
0000
1000
0000
0000
0100
1000
0100
1000
,
0001
1000
0010
1000
,
0001
0010
0100
0010
,
0001
1000
0010
0100
,
0001
1000
0100
1000
,
0000
0001
0100
0001
,
0010
0010
0001
0100
,
1000
0100
0010
1000
,
0001
0000
0000
0000
,
1000
0001
1000
0100
,
1000
0010
0100
0001
,
0010
0100
0010
0001
,
0100
0010
0010
1000
,
0000
0001
1000
0100
,
1000
0010
0100
0100
,
0010
1000
0001
0010
,
0100
1000
0100
0010
,
0100
0000
0000
0000
,
0100
0000
1000
0000
,
0001
0000
0000
0000
,
0100
0000
0001
0000
,
0010
0000
0100
0000
,
0010
0000
0001
0000
,
1000
0000
0010
0000
,
1000
0000
0001
0000
,
1000
0001
0100
0001
,
0010
0000
0000
0100
0000
0100
0000
0200
,
0000
0000
0000
0000
,
0020
0000
0000
0330
,
0010
0001
0100
1000
,
0100
0010
1000
0001
,
0010
0100
1000
0001
,
0100
0001
0100
0000
0000
0000
0000
0000
;

//---------------dance-single - Pandemonium X----------------
#NOTES:
     dance-single:
     Pandemonium X:
     Beginner:
     1:
     0.127,0.168,0.009,0.000,0.000:
1000
0000
0000
0000
,
0001
0000
1000
0000
,
0100
0000
0000
0000
,
1000
0000
0000
0000
,
0001
0000
0000
0000
,
0100
0000
0100
0000
,
0010
0000
0000
0000
,
1000
0000
0000
0000
,
0001
0001
0000
0000
,
1000
1000
0000
0000
,
0010
0010
0000
0000
,
0100
0000
0000
0000
,
0010
0010
0000
0000
,
0100
0100
0000
0000
,
0001
0000
0000
0000
,
1000
0000
0000
0000
,
0100
0100
0000
0000
,
1000
1000
0000
0000
,
0001
0001
0000
0000
,
0100
0000
0000
0000
,
0010
0010
0000
0000
,
0100
0100
0000
0000
,
0001
0000
0000
0000
,
0000
0000
0000
0000
,
1000
0000
0000
0000
,
0001
0000
0000
0000
,
1000
0000
0000
0000
,
0001
0000
0000
0000
,
1000
0000
0000
0000
,
0001
0000
0000
0000
,
1000
0000
0000
0000
,
0010
0000
0000
0000
,
0100
0000
0000
0000
,
0001
0000
0000
0000
,
0010
0000
0000
0000
,
0001
0000
0000
0000
,
1000
0000
0000
0000
,
0010
0000
0000
0000
,
0100
0000
0000
0010
,
0000
0000
1000
1000
,
0001
0000
0000
0000
,
0100
0000
0000
0000
,
0010
0000
1000
0000
,
0010
0000
0000
0100
,
0000
0010
0000
0000
,
0000
0000
0000
0000
,
1000
0000
0000
0000
,
0000
0001
0000
0001
,
0001
0000
0000
0000
,
1000
0000
0000
0000
,
0010
0000
0010
0000
,
1000
0000
0000
0000
,
0100
0000
0000
0000
,
1000
0000
0000
0000
,
0001
0000
0001
0000
,
0001
0000
0000
0000
,
0100
0000
0000
0000
,
0000
0000
0000
0000
,
0110
0000
0000
0000
,
0000
0000
0000
0000
,
0010
0000
0000
0000
,
1000
0000
0000
0000
,
0001
0000
0000
0000
,
0100
0000
0000
0000
,
0001
0000
0000
0000
,
1000
0000
0000
0000
,
0000
0010
0010
0000
,
0100
0100
0000
0000
,
0010
0000
1000
0000
,
0001
0000
1000
0000
,
0010
0000
0100
0000
,
0001
0001
0000
0000
;
