#TITLE:The Sampling Paradise;
#SUBTITLE:;
#ARTIST:Mamonis;
#TITLETRANSLIT:;
#SUBTITLETRANSLIT:;
#ARTISTTRANSLIT:;
#CREDIT:;
#BANNER:bn.png;
#BACKGROUND:bg.png;
#LYRICSPATH:;
#CDTITLE:;
#MUSIC:20 The Sampling Paradise.mp3;
#OFFSET:1.180;
#SAMPLESTART:0.400;
#SAMPLELENGTH:12.000;
#SELECTABLE:YES;
#BPMS:0.000=150.000,197.000=75.000,198.500=150.000;
#STOPS:128.000=1.200
,157.000=0.200
,157.500=0.200
,158.000=0.200
,158.500=0.200
,193.500=0.400
,196.500=0.400
,198.500=1.800
;
#BGCHANGES:;

//---------------dance-single - ----------------
#NOTES:
     dance-single:
     :
     Hard:
     9:
     0.557,0.654,0.092,0.135,0.576: // measure 1
0000
0000
0000
0000
,  // measure 2
0000
0000
0000
0000
,  // measure 3
0000
0000
0000
0000
,  // measure 4
0000
0000
0000
0000
,  // measure 5
0000
0000
0000
0000
,  // measure 6
0001
0100
0001
0010
0100
0000
0000
0000
,  // measure 7
0010
0001
0100
0010
1000
0001
0010
0100
,  // measure 8
1000
0001
0010
0100
1000
0001
0100
0001
,  // measure 9
0011
1100
0101
1010
,  // measure 10
1001
0001
0100
0000
0100
0010
1000
0100
,  // measure 11
1000
1000
0010
0100
0001
0010
0100
0000
,  // measure 12
0100
0010
0001
0000
0001
1000
0001
0000
,  // measure 13
0001
0100
0010
1000
0010
0001
0010
0000
,  // measure 14
0100
0010
1000
0000
1000
1000
0001
0000
,  // measure 15
0001
0010
0001
1000
0100
0010
0001
0000
,  // measure 16
0001
0100
1000
0100
0010
1000
0001
0010
,  // measure 17
0001
0000
0001
0010
0000
0100
1000
0000
0010
0000
2000
0000
0002
0000
3003
0000
,  // measure 18
0001
0100
0001
0010
0001
0100
1000
0000
,  // measure 19
1000
0100
0010
1000
0001
0010
0100
0000
,  // measure 20
0100
1000
0010
1000
0100
1000
0010
0000
,  // measure 21
0100
0010
1000
0001
0010
0100
1000
0001
,  // measure 22
0100
0000
0000
0010
0000
1000
0000
0000
0001
0000
0000
0010
0000
0001
0000
0000
,  // measure 23
0100
0000
0000
0010
0000
1000
0000
0000
0001
0010
0001
0010
0001
0010
0001
0010
,  // measure 24
0001
0000
1000
0000
0001
0100
0000
1000
0000
0100
0000
0010
0000
1000
0100
0000
,  // measure 25
2002
0000
0000
0000
,  // measure 26
3003
0000
0000
0000
,  // measure 27
0000
0000
0000
0000
,  // measure 28
0000
0000
0000
0000
,  // measure 29
0000
0000
0000
0000
0000
0000
0000
0000
0000
0000
0000
0000
0000
0000
0000
0000
0000
0000
0001
0000
1000
0000
0001
0000
0000
0000
0000
1000
0000
0000
0001
0000
0000
0000
0000
0000
0001
0000
0000
0100
0000
0000
0010
0000
0000
1000
0000
0000
,  // measure 30
1010
0000
0000
0000
,  // measure 31
0000
0000
1000
0000
0001
0010
0000
0001
0000
0100
0000
0010
1000
0001
0010
0100
,  // measure 32
1000
0000
0001
1000
0001
1000
0001
1000
,  // measure 33
0001
0000
0000
0000
0100
0000
0010
0000
1000
0010
0000
1000
0000
0000
0000
0000
,  // measure 34
0000
0000
0000
0000
1000
0000
0001
0000
1000
0001
0000
0010
0000
0000
0000
0000
,  // measure 35
0000
0000
0000
0000
0100
0000
0010
0000
0100
0010
0000
0001
0000
0000
0000
0000
,  // measure 36
0000
0000
0000
0000
0001
0000
0100
0010
0000
0010
1000
0000
0002
0000
1003
0000
,  // measure 37
2000
3100
1000
1000
0100
0000
0100
0100
,  // measure 38
0010
0000
0010
0010
0001
0000
0001
0001
,  // measure 39
0100
0000
0000
0010
0100
0000
0000
0100
0001
0000
0000
0001
0010
0000
0000
0010
,  // measure 40
0100
0000
0000
0100
1000
0000
0001
0000
0010
0000
0100
0000
1000
0000
0001
0000
,  // measure 41
0001
0100
0000
0010
0000
1000
0000
0010
0000
0100
0010
0000
0100
0000
0010
0000
,  // measure 42
1000
0100
0000
0010
0000
0001
0000
0001
0000
0010
0001
0000
1000
0000
0001
0000
,  // measure 43
0100
0001
0000
0010
0000
0100
0010
0100
0000
0010
0001
0010
0001
0000
0001
0100
,  // measure 44
0000
0100
0010
0000
0100
0000
0010
0000
2000
0000
3200
0000
0310
0000
0001
0000
,  // measure 45
0010
0001
0000
0010
0000
0100
0000
1000
0000
0001
1000
0000
0100
0000
0010
0000
,  // measure 46
0001
0010
0000
0010
0000
0010
0000
0001
0000
0001
0100
0000
0010
0000
0100
0000
,  // measure 47
0010
0100
0000
0010
0000
1000
0001
0010
0000
0100
0010
0100
0010
0000
0000
0100
,  // measure 48
0000
0000
1000
0000
0000
0001
0000
0000
1000
0000
0001
0000
0010
0000
0001
0000
,  // measure 49
0100
0010
0000
1000
0000
0001
0000
0000
1000
0000
0001
0000
0010
0100
0000
0010
,  // measure 50
0000
0100
0000
0000
0220
0000
0000
0000
0000
0000
0330
0000
0010
0000
0000
0001
,  // measure 51
0000
0000
0100
0000
0000
0000
0010
0000
0010
0000
0100
0000
0001
0000
0000
1000
,  // measure 52
0000
0000
0100
0000
0000
0010
0001
0000
1000
0000
0001
0000
0100
0000
0010
0000
,  // measure 53
1000
0000
0001
0000
0010
0000
0100
0000
1000
0000
0001
0000
0010
0000
0010
0001
,  // measure 54
0000
0100
0000
0010
0000
1000
0001
0000
1000
0000
0100
0000
1000
0000
0001
0000
,  // measure 55
0100
0000
0010
0000
1000
0001
0000
0010
0000
0001
0100
0000
2002
0000
0000
0000
,  // measure 56
0000
0000
3003
1000
0000
0001
0100
0000
0010
0000
1000
0000
0100
0000
0110
0000
,  // measure 57
0010
0001
0100
1000
0100
0010
2000
0001
,  // measure 58
0001
0000
0000
3001
0000
0000
0000
0000
0000
0001
0000
1000
0001
0000
1000
0000
0010
0000
0200
0000
0000
0000
0000
0000
,  // measure 59
0000
0000
0000
0000
,  // measure 60
0000
0000
0000
0000
0300
0000
0010
0100
,  // measure 61
0010
1000
0000
0001
0000
1000
0000
0001
0000
1000
0001
0000
0010
0000
0100
0000
,  // measure 62
1000
0100
0000
0010
0000
0001
0000
0100
0000
0010
0100
0000
0010
0000
0100
0000
,  // measure 63
0001
1000
0000
0010
0000
0010
0100
0001
0000
1000
0001
1000
0001
0000
0001
1000
,  // measure 64
0000
1000
0100
0000
0010
0000
0001
0000
0200
0000
0320
0000
0130
0000
0001
0000
,  // measure 65
0010
0100
0000
0100
0000
1000
0000
0010
0000
1000
0001
0000
0010
0000
0001
0000
,  // measure 66
0100
0001
0000
0100
0000
0001
0000
0100
0000
0010
0100
0000
0001
0000
1000
0000
,  // measure 67
1000
0001
0000
0100
0000
0010
0100
0001
0000
1000
0100
0010
0001
0000
0000
1000
,  // measure 68
0000
0000
0010
0000
0000
0100
0000
0010
0000
1000
0000
1001
0000
0000
0000
0000
;

//---------------dance-single - ----------------
#NOTES:
     dance-single:
     :
     Medium:
     7:
     0.386,0.455,0.076,0.017,0.042:
0000
0000
0000
0000
,
0000
0000
0000
0000
,
0000
0000
0000
0000
,
0000
0000
0000
0000
,
0000
0000
0000
0000
,
0001
1000
0100
1000
0001
0000
0000
0000
,
0001
0100
0010
1000
,
0001
0100
0010
1000
0001
0100
0010
1000
,
0001
0001
1000
1000
,
0001
0000
0100
0000
0010
0100
0010
0000
,
0100
0000
0010
0000
1000
0010
1000
0000
,
0001
0000
0010
0000
0100
0010
0100
0000
,
0010
0001
0100
0000
0100
0010
1000
0000
,
1001
0000
0001
0000
0001
0100
0001
0000
,
0100
0000
0010
0000
0100
0010
0100
0000
,
0100
0000
0001
0000
1000
0001
1000
0000
,
0001
0100
0010
0000
0100
0010
1000
0000
,
0001
1000
0100
0000
1000
0000
1001
0000
,
0001
0100
0010
0000
0100
0000
0110
0000
,
0010
1000
0100
0000
1000
0000
1100
0000
,
1000
0001
0100
0000
0100
0001
0010
0000
,
0001
0100
0010
0000
0100
0010
1000
0000
,
0001
1000
0100
0000
0100
0010
0001
0000
,
0001
0010
0100
1000
0001
0010
0100
1000
,
0002
0000
0000
0000
,
1003
0000
0000
0000
,
0000
0000
0000
0000
,
0000
0000
0000
0000
,
0000
0000
0100
0010
,
1001
0000
0000
0000
,
1000
0001
0100
0001
,
0011
0000
0000
0000
,
1001
0000
0001
0100
0001
0100
0001
0000
,
0000
0000
0010
0100
0010
0100
0010
0000
,
0000
0000
1000
0010
1000
0010
1000
0000
,
0000
0000
1000
0001
1000
0001
1000
0000
,
0000
0001
0001
1000
,
1000
0010
0010
0100
,
0100
0010
0100
0001
,
1000
0000
1000
0001
1000
0001
0100
0010
,
0100
0010
0100
0010
0100
0000
0010
1000
,
0010
1000
0010
1000
0010
0000
1000
0001
,
1000
0001
1000
0001
1000
0000
0001
0100
,
0001
0100
0001
0100
0001
0100
0001
0010
,
0001
0010
0001
0010
0001
0000
0010
0100
,
0010
0100
0010
0100
0010
0000
0100
1000
,
0100
1000
0100
1000
0100
0000
1000
0000
,
0100
0000
0010
0000
0001
0000
1000
0001
,
0100
0000
0000
0101
0000
0000
0000
0000
0001
0000
1000
0000
0100
0000
0000
1100
,
0000
0000
2000
0000
0000
3000
0001
0000
,
0100
0000
0010
0000
1000
0010
1000
0000
,
0010
0000
0100
0000
0010
1000
0010
0000
,
1000
0000
0001
0000
0010
0001
0010
0000
,
0001
0000
0100
1000
0100
0010
1000
0000
,
0001
0000
0010
0001
0010
0000
0001
0000
,
0100
0000
0010
0100
0010
0000
0100
0000
,
0010
0000
0000
0000
1000
0000
0000
0000
0001
0000
1000
0000
0100
0000
0000
1000
,
0000
1000
0000
1000
0000
0000
0000
0000
0000
0000
0000
0000
0000
0000
0000
0000
,
0000
0000
0000
0000
,
0000
0000
0000
0000
0000
0000
0010
0100
,
0001
0100
0010
1000
0100
0000
1000
0100
,
0010
0001
0010
0100
0010
0000
0010
0001
,
1000
0001
0100
0001
0100
0000
0001
0100
,
0010
1000
0100
0010
0001
0010
0100
0010
,
0001
0100
0010
1000
0001
0000
0001
0100
,
0010
1000
0100
0010
0001
0000
0001
0100
,
0010
0000
0000
0000
0100
0000
0010
0000
1000
0000
0000
0000
0001
0000
0000
0001
,
0000
0000
0100
0000
0000
0010
0000
1000
0000
0001
0000
0010
0000
0000
0000
0000
;

//---------------dance-single - ----------------
#NOTES:
     dance-single:
     :
     Easy:
     4:
     0.263,0.398,0.109,0.042,0.025:
0000
0000
0000
0000
,
0000
0000
0000
0000
,
0000
0000
0000
0000
,
0000
0000
0000
0000
,
0000
0000
0000
0000
,
0001
1000
0001
0000
,
0200
0000
0000
0000
,
0000
0000
0000
0000
,
0310
0100
0010
0100
,
1001
0001
1000
0100
,
1000
0001
0100
0001
,
1000
0100
1000
0001
,
0100
0100
0001
0001
,
1000
0010
1000
0001
,
0010
0001
1000
0010
,
1000
0001
0010
0001
,
1000
0000
0000
0000
,
1001
0001
0100
0010
,
0100
0001
0010
0100
,
0010
0001
0100
0010
,
0100
0001
0001
0100
,
0010
1000
0010
0000
0100
0000
0000
0000
,
0010
1000
0010
0000
0100
0000
0000
0000
,
0010
1000
0001
0010
,
0100
0000
0000
0000
,
1001
0000
0000
0000
,
0000
0000
0000
0000
,
0000
0000
0000
0000
,
0000
0000
0110
0101
,
1010
0000
0000
0000
,
0000
0000
0000
0000
,
1001
0000
0000
0000
,
0000
0000
0000
0000
0100
0000
0000
0000
0010
0000
0000
0010
0000
0000
0000
0000
,
0000
0000
0000
0000
1000
0000
0000
0000
0001
0000
0000
0001
0000
0000
0000
0000
,
0000
0000
0000
0000
0100
0000
0000
0000
0010
0000
0000
0010
0000
0000
0000
0000
,
0000
1000
0000
0010
,
0000
0010
0000
1000
,
0000
0001
0000
0010
,
0000
0100
0100
0100
,
0100
0000
0010
0001
0100
0010
1000
0000
,
0001
0100
0001
0010
,
0001
0100
1000
0100
,
0010
1000
0001
0010
,
0001
0000
1000
0000
0100
1000
0100
0000
,
1000
0010
0100
0010
,
1000
0001
0010
0001
,
0100
0001
1000
0110
,
0110
0000
1001
0000
1001
0000
0001
0100
,
0010
0000
0100
0000
0010
1000
0010
0000
,
0100
0000
0220
0000
0000
0330
0010
0000
,
1000
0001
0010
0001
,
1000
0100
1000
0010
,
0100
0010
1000
0001
,
0010
0001
0100
1000
,
0100
0010
1000
0001
,
0010
0001
1000
0100
,
1000
0010
0100
0002
,
0000
0000
0000
0020
,
0000
0000
0000
0000
,
0000
0000
0033
0001
,
0100
0010
1000
0100
,
1000
0010
0100
0010
,
1000
0001
0010
0001
,
0100
0000
0010
0000
1000
0010
1000
0000
,
0010
0100
0100
0010
,
1000
0001
0001
0010
,
0001
0100
0010
1000
,
0001
0000
0000
0000
0010
0000
0000
0001
0000
1000
0000
1001
0000
0000
0000
0000
;

//---------------dance-single - ----------------
#NOTES:
     dance-single:
     :
     Beginner:
     1:
     0.096,0.142,0.059,0.017,0.000:
0000
0000
0000
0000
,
0000
0000
0000
0000
,
0000
0000
0000
0000
,
0000
0000
0000
0000
,
0000
0000
0000
0000
,
1000
0000
0000
0000
,
0001
0000
0000
0000
,
0100
0000
0000
0000
,
0110
0000
0000
0000
,
1001
0000
0000
0000
,
1000
0000
0000
0000
,
0001
0000
0000
0000
,
1000
0000
1000
0000
,
0100
0000
0000
0000
,
0010
0000
0000
0000
,
0100
0000
0000
0000
,
0001
0000
1000
0000
,
1001
0000
0000
0000
,
0010
0000
0000
0000
,
0100
0000
0000
0000
,
0001
0000
0001
0000
,
1000
0000
0000
0000
,
1000
0000
0000
0000
,
0001
0000
0001
0000
,
0001
0000
0000
0000
,
0110
0000
0000
0000
,
0000
0000
0000
0000
,
0000
0000
0000
0000
,
0000
0000
0010
0000
,
0110
0000
0000
0000
,
0000
0000
0000
0000
,
1000
0000
0000
0000
,
0001
0100
0000
0000
,
0000
0100
0000
0000
,
0000
0100
0000
0000
,
0000
0100
0000
0100
,
0000
0010
0000
0000
,
0000
0010
0000
0000
,
0000
1000
0000
0001
,
0000
1000
0000
0001
,
0000
0000
0000
1000
,
0000
0000
0000
0010
,
0000
0000
0000
1000
,
0000
0100
0000
1000
,
0000
0000
0000
0001
,
0000
0000
0000
0010
,
0000
0001
0000
0100
,
0000
0010
0000
1000
,
0000
0000
0001
0000
,
0000
1001
0000
0010
,
0000
0000
0000
0100
,
0000
0000
0000
0001
,
0000
0000
0000
1000
,
0000
0000
0000
0100
,
0000
0000
0000
1000
,
0000
0000
0000
0001
,
0000
0000
0000
0200
,
0000
0000
0000
0300
,
0000
0000
0000
0000
,
0000
0000
0000
0110
,
0000
0000
0000
0010
,
0000
0000
0000
1000
,
0000
0000
0000
0001
,
0000
0001
0000
0001
,
0000
0000
0000
1000
,
0000
0000
0000
0100
,
0000
1000
0000
0020
,
0000
0000
0000
0000
0000
0000
0000
0000
0000
0000
0000
0000
0000
0000
0000
0000
0000
0000
0000
0000
0000
0000
0000
0000
0000
0000
0000
0000
0000
0000
0000
0000
0000
0000
0000
0000
0000
0000
0000
0000
0000
0000
0000
0000
0000
0000
0000
0000
0000
0000
0000
0000
0000
0000
0000
0000
0000
0000
0000
0000
0000
0000
0000
0000
0000
0000
0000
0000
0000
0000
0000
0000
0000
0000
0000
0000
0000
0000
0000
0000
0000
0000
0000
0000
0000
0000
0000
0000
0000
0000
0000
0000
0000
0000
0000
0000
0000
0000
0000
0000
0000
0000
0000
0000
0000
0000
0000
0000
0000
0000
0000
0000
0000
0000
0000
0000
0000
0000
0000
0000
0000
0000
0000
0000
0000
0000
0000
0000
0000
0000
0000
0000
0000
0030
0000
0000
0000
0000
0000
0000
0000
0000
0000
0000
0000
0000
0000
0000
0000
0000
0000
0000
0000
0000
0000
0000
0000
0000
0000
0000
0000
0000
0000
0000
0000
0000
0000
0000
0000
0000
0000
0000
0000
0000
0000
0000
0000
0000
0000
0000
0000
0000
0000
0000
0000
0000
0000
0000
0000
0000
0000
0000
;

//---------------dance-single - ----------------
#NOTES:
     dance-single:
     :
     Challenge:
     11:
     0.817,0.972,0.286,0.277,0.988: // measure 1
0000
0000
0000
0000
,  // measure 2
0000
0000
0000
0000
,  // measure 3
2001
0000
0100
0000
0001
0001
3001
1000
,  // measure 4
0100
0000
1000
0000
0010
0000
0100
0000
0001
1000
0001
1000
0001
0000
0010
0000
,  // measure 5
2000
0000
0000
0000
3100
0000
0020
0000
0000
0000
0031
0000
1000
0001
1000
0000
,  // measure 6
0001
0100
1000
0100
0010
1000
0001
0010
,  // measure 7
0001
0100
0001
0100
0001
0100
0001
0100
0001
0100
0001
0100
0001
0100
0001
0100
,  // measure 8
0001
0100
0001
0100
0001
0100
0001
0100
0001
0100
0001
0100
0001
0100
0001
0100
,  // measure 9
0101
1010
1100
0011
,  // measure 10
1001
0000
0001
0100
0000
0010
0000
1000
0000
0100
1000
0000
0010
0000
0000
0000
,  // measure 11
0100
0001
0100
0000
0010
0000
1000
0010
0000
0100
0010
0000
0010
0000
0100
0000
,  // measure 12
0001
0000
0001
0100
0000
0001
0000
0010
0000
0100
0010
0001
0000
0000
0000
0000
,  // measure 13
0000
0001
0100
0010
1000
0000
0001
0000
1000
0100
0000
1000
0001
0010
0100
0000
,  // measure 14
0001
0000
0010
0001
0000
0001
0000
0100
0000
0010
1000
0000
0001
0000
0100
0000
,  // measure 15
0010
1000
0100
1000
0001
0100
0001
0010
,  // measure 16
0100
0000
0000
0000
0000
0000
0010
0000
0000
0001
0000
0000
0010
0000
0000
0000
0000
0000
0001
0000
0000
0000
0000
0000
0010
0000
0100
0000
1000
0000
0001
0000
0000
1000
0000
0000
0001
0000
0000
0000
0000
0000
1000
0000
0000
0000
0000
0000
,  // measure 17
1100
0000
0100
0010
0000
0010
0001
0000
0011
0000
1010
0000
1000
0001
0200
0000
,  // measure 18
0310
1000
0001
0010
0001
0100
1000
0100
,  // measure 19
0010
1000
0001
0010
0001
1000
0100
0010
,  // measure 20
0100
1000
0010
0100
0001
1000
0100
0010
,  // measure 21
0002
1000
1003
0100
0002
0010
0013
0001
,  // measure 22
1000
0000
1000
0100
0000
1000
0100
0000
0010
0000
0010
0100
0000
0100
0010
0000
,  // measure 23
0010
0000
0001
0100
0000
0100
0010
0000
0010
0001
0010
1000
0010
0001
0010
1000
,  // measure 24
0100
0000
0110
0000
0001
0010
0000
0110
0000
1001
0000
0101
0000
0001
0020
0000
,  // measure 25
2000
0000
0000
3030
,  // measure 26
0110
0010
0001
0000
0001
0100
0010
0000
,  // measure 27
0100
0001
1000
0000
1000
0001
0100
0000
,  // measure 28
0100
0010
1000
0000
1000
0100
0010
0000
,  // measure 29
0010
0000
0000
0000
0000
0000
0001
0000
0000
0000
0000
0000
0100
0000
0000
0000
0000
0000
0001
0000
1000
0000
0001
0000
0000
0000
0000
1000
0000
0000
0001
0000
0000
0000
0000
0000
0001
0000
0000
0100
0000
0000
0010
0000
0000
1000
0000
0000
,  // measure 30
1010
0010
1000
0000
1000
0001
0010
0000
,  // measure 31
0000
0000
0010
0000
0001
0010
0000
0001
0000
0100
0000
0010
1000
0001
0010
0100
,  // measure 32
1000
0010
1000
0010
1000
0010
1000
0010
1000
0010
1000
0010
1000
0010
1000
0010
,  // measure 33
1000
0000
0000
0000
1001
0000
0001
0100
0020
0100
0000
0100
0000
0130
0000
0000
,  // measure 34
0000
0000
0000
0000
0100
0000
0010
1000
0100
0020
0000
0001
0000
0031
0000
0000
,  // measure 35
0000
0000
0000
0000
0001
0000
0100
0010
1000
0000
1000
0100
0000
0100
0010
0000
,  // measure 36
0010
0100
1000
0001
1000
0000
0010
0100
0000
0010
1000
0000
1000
0002
0203
0302
,  // measure 37
0010
0003
0010
0000
0001
0000
1000
0000
0100
1000
0000
0100
1000
0000
0010
0000
,  // measure 38
0100
0001
0000
0001
0010
0000
0100
0000
1000
0100
0000
0100
1000
0000
0010
0000
,  // measure 39
0100
0001
0000
0001
0010
0001
0000
0001
0100
0001
0000
0001
1000
0001
0000
0001
,  // measure 40
0100
0010
0000
0000
0200
0000
0302
0000
2003
0000
3200
0000
0310
0000
0001
0000
,  // measure 41
0100
0010
0000
1000
0000
1000
0000
0100
0000
1000
0010
0000
0100
0000
0010
0000
,  // measure 42
1000
0001
0000
0010
0000
0001
0100
0010
0000
0100
0001
1000
0001
0000
1000
0000
,  // measure 43
0100
0000
0100
0010
0000
0010
0001
0100
0000
0100
0010
1000
0001
0000
0100
0010
,  // measure 44
0000
0000
0000
1000
0000
0000
0100
0000
0000
0010
0000
0000
0001
0000
0000
0000
0000
0000
0001
0000
0000
1000
0000
0000
0001
0000
0100
0000
0010
0000
1000
0000
0000
0100
0000
0000
1000
0000
0000
0000
0000
0000
1000
0000
0000
0000
0000
0000
,  // measure 45
0010
0100
0000
0001
0000
0001
0000
0010
0000
0001
0100
0000
0010
0000
0100
0000
,  // measure 46
0001
1000
0000
0100
0000
1000
0010
0100
0000
0010
1000
0001
1000
0000
0001
0000
,  // measure 47
0010
0000
0010
0100
0000
0100
1000
0010
0000
0010
0100
0001
1000
0000
1000
0100
,  // measure 48
0000
0100
0010
0000
0010
0001
0000
0100
0000
0010
0000
1000
0001
0000
0100
0000
,  // measure 49
0010
1000
0000
1100
0000
0011
0000
0000
0001
0000
0100
0000
0010
1000
0000
1010
,  // measure 50
0000
0000
0000
0000
1001
0000
0000
0000
0000
0000
0000
0000
0000
0000
0000
0000
0220
0000
0000
0000
0030
0000
0000
0000
0020
0000
0000
0000
0030
0000
0000
0000
0020
0000
0000
0000
0000
0000
0000
0000
0030
0300
0000
0000
0000
0000
0000
0000
0010
0000
0000
0000
0000
0000
0000
0000
0000
0000
0000
0000
0100
0000
0000
0000
,  // measure 51
0001
0000
1000
0000
0000
0000
1000
0100
1000
0000
0100
0000
0010
0000
0000
0001
,  // measure 52
0100
0000
0010
0000
0000
0000
0100
0001
1000
0000
0100
0000
0010
0000
0100
1000
,  // measure 53
0001
0000
0100
0000
0101
0000
1001
0000
1000
0000
0100
0000
0010
0000
0100
1000
,  // measure 54
0000
1100
0000
0110
0000
0011
0000
0001
0100
0000
0010
0000
1000
0000
1000
0001
,  // measure 55
0000
0100
0000
0010
0000
1000
0100
0000
1000
0000
0001
0000
0202
0000
0303
0002
,  // measure 56
0203
0302
0203
0300
0110
0000
0010
1000
0001
0010
0001
0000
0002
0000
0203
0000
,  // measure 57
1300
0000
0000
0000
0000
0000
0100
0000
0000
0010
0000
0000
0000
0000
0000
1000
0000
0000
0001
0000
1000
0000
0001
0000
1000
0000
0000
0000
0000
0000
0100
0000
0000
0000
0000
0000
1100
0000
0000
0000
0000
0000
0100
0000
0000
0000
0000
0000
,  // measure 58
0100
0000
0000
0000
0000
0000
0100
0000
0000
0000
0000
0000
0000
0000
0000
1000
0000
0000
0100
0000
0000
0000
1000
0000
0001
0000
0000
0000
1000
0000
0000
0000
0010
0000
0000
0000
0200
0000
0000
0000
0000
0000
0000
0000
0000
0000
0000
0000
,  // measure 59
1000
0010
0001
0010
,  // measure 60
1000
0000
0000
0000
0000
0000
0000
0000
0000
0000
0000
0000
0000
0000
0000
0000
0010
0000
0000
0000
0000
0000
0000
0000
0000
0000
0000
0000
0000
0000
0000
0000
0320
0030
0000
0000
0000
0000
0000
0000
0000
0000
0000
0000
0000
0000
0000
0000
1000
0000
0000
0000
0000
0000
0000
0000
0010
0000
0000
0000
0000
0000
0000
0000
,  // measure 61
1000
0001
0000
0010
0000
0010
0000
1000
0000
0010
0001
0000
1000
0000
0001
0000
,  // measure 62
0010
0100
0000
0001
0000
0100
1000
0001
0000
1000
0100
0010
0100
0000
0010
0000
,  // measure 63
0001
0000
1000
0001
0000
0001
0100
1000
0000
1000
0100
0010
0100
0000
0010
1000
,  // measure 64
0000
0000
0000
0010
0000
0000
1000
0000
0000
0001
0000
0000
0100
0000
0000
0000
0000
0000
0100
0000
0000
0010
0000
0000
0100
0000
0010
0000
1000
0000
0001
0000
0000
1000
0000
0000
0001
0000
0000
0000
0000
0000
1000
0000
0000
0000
0000
0000
,  // measure 65
0001
1000
0000
0100
0000
0100
0000
0100
0000
0100
1000
0000
0001
0000
1000
0000
,  // measure 66
0100
0010
0000
1000
0000
0010
0001
1000
0000
0001
0010
0100
0010
0000
0100
0000
,  // measure 67
0010
0000
0001
1000
0000
1000
0010
1000
0000
0001
1000
0100
1100
0000
0100
0010
,  // measure 68
0000
0010
0001
0000
0001
0101
0000
1010
0000
1001
0000
0202
0000
0000
0000
0000
,  // measure 69
0303
0000
0000
0000
;
