#TITLE:SA.YO.NA.RA SUPER STAR;
#SUBTITLE:;
#ARTIST:SUPER STAR 満-MITSURU-;
#TITLETRANSLIT:;
#SUBTITLETRANSLIT:;
#ARTISTTRANSLIT:;
#CREDIT:;
#BANNER:bn.png;
#BACKGROUND:bg.png;
#LYRICSPATH:;
#CDTITLE:;
#MUSIC:34 SA.YO.NA.RA. SUPER STAR.mp3;
#OFFSET:1.044;
#SAMPLESTART:73.776;
#SAMPLELENGTH:10.449;
#SELECTABLE:YES;
#BPMS:0.000=170.000,156.000=85.000,182.000=170.000;
#STOPS:182.000=1.060
;
#BGCHANGES:0.000=SAYONARA SUPER STAR.avi=1.000=0=0=1,
0.063=SAYONARA SUPER STAR.avi=1.000=1=0=0,
332.000=Sayonara Superstar.png=1.000=0=0=1,
99999=-nosongbg-=1.000=0=0=0 // don't automatically add -songbackground-
;

//---------------dance-single - ----------------
#NOTES:
     dance-single:
     :
     Hard:
     8:
     0.361,0.569,0.191,0.104,0.074:
0000
0000
0000
0000
,
0000
0000
0000
0000
,
0000
0000
0000
0000
,
0000
0000
0000
0000
,
0000
0000
0000
0000
,
0000
0000
0000
0000
,
0000
0000
0000
0000
,
0000
0000
0000
0000
,
0000
0000
0000
0000
,
1001
0001
0000
0100
0000
0010
0000
0100
,
0010
1000
0000
0001
0000
1000
0001
0010
,
0100
0010
0000
0001
0000
1000
0000
0010
,
0000
0100
0000
0001
1000
0000
0001
0000
,
0010
0000
0001
0010
0000
0100
1000
0000
,
0010
0100
0001
1000
,
0100
0000
0100
1000
0000
1000
0010
0100
,
0101
1100
1001
0000
0000
0000
0000
0000
,
0001
0000
0001
0010
0000
0100
0000
0100
,
0010
0000
0001
1000
0000
0010
0000
0100
,
0001
1000
0100
0010
,
0100
1000
0010
0200
0000
0000
0300
0010
,
1000
0000
0001
0010
0000
0010
0000
0001
,
0100
0100
0010
1000
,
0001
0000
0100
1000
0000
1000
0000
0100
,
0110
0110
0000
1001
0000
0101
0000
0101
,
0100
0000
0010
1000
0000
0001
0000
0010
,
0100
0000
0010
0001
0000
1000
0000
0010
,
0100
0001
0010
0001
,
0010
0100
1000
0002
0000
0000
0000
1003
,
0200
0000
0000
0000
0300
0010
0001
1000
,
0001
0100
1000
0100
,
0010
0000
1000
0001
0000
0010
0000
0200
,
0000
0000
0000
0300
,
1001
0000
0000
0000
,
0000
0000
0000
0000
,
0000
0000
0000
0000
,
0000
0000
0000
0000
,
0000
0000
0000
0000
,
0000
0000
0000
0000
,
0100
0000
0000
0001
0010
0100
0010
0000
,
0001
0000
0100
0000
0010
0000
0000
0100
,
0010
1000
0100
0000
0000
0000
0000
0000
,
1000
0000
0000
1000
0100
0010
0100
0000
,
1000
0000
0010
0000
0100
0000
0000
0001
,
1000
0100
0010
0000
0000
0000
0000
0000
,
0000
0000
0000
1001
,
0000
0000
0001
0100
0001
0000
0010
0000
0100
0000
0010
0000
0001
0000
0000
1000
,
0000
0010
0000
0000
0000
0100
0001
0000
,
0000
0000
0001
0000
0010
0000
0010
0100
0000
1000
0000
0020
0000
0000
0000
0000
,
0000
0000
0130
0010
0200
0000
0000
0000
0001
0000
0000
0000
0301
0000
0000
0000
,
0000
0000
0001
1000
0100
0000
1000
0000
0010
0000
0100
0000
0101
0000
0000
0101
,
0000
0000
0022
0000
0000
0000
0033
0000
0000
0000
0001
0000
1000
0000
0010
1000
,
0000
0001
0000
0010
0000
0000
0000
0000
0000
0000
0100
0000
1000
0000
0010
0100
,
0000
0001
0000
1000
0000
0000
0000
0000
0001
0000
0000
0000
1000
0000
0100
0000
,
0010
0000
0010
1000
0010
0000
0100
0010
,
0001
0000
0001
0100
1000
0000
0100
0010
,
1000
0000
0100
0001
0010
0000
0001
1000
,
0100
0010
0001
0010
0100
0010
0001
0100
,
1000
0000
1000
0100
0010
0000
0100
0010
,
1000
0000
0001
0010
0100
0000
0001
1000
,
0010
1000
0001
0010
0001
1000
0100
1000
,
0001
0100
0001
1000
0001
0100
0001
0010
,
0100
1000
0001
0010
0100
1000
0100
0010
,
0001
0010
0100
1000
0001
1000
2002
0000
,
0000
0000
0000
0000
,
0000
0000
0000
3003
,
0000
0000
0000
0000
,
0000
0000
0000
0000
0000
0000
0000
0100
,
0000
0000
0000
0000
,
0000
0000
0000
0000
0000
0000
0000
0000
0000
0000
0000
0000
1010
0000
0000
0101
,
0000
0000
0000
0000
0000
0000
0000
0000
0000
0000
0000
0000
0000
0000
0000
0000
0000
0000
0000
0000
0000
0000
0000
0000
0011
0000
0000
0000
0000
0000
0000
0000
0000
0000
0000
0000
0000
0000
0000
0000
0000
0000
0000
0000
0000
0000
0000
0000
0000
0000
0000
0000
0000
0000
0000
0000
0000
0000
0000
0000
1100
0000
0000
0000
0000
0000
0000
0000
0000
0000
0000
0000
0000
0000
0000
0000
0000
0000
0000
0000
0000
0000
0000
0000
0000
0000
0000
0000
0000
0000
0000
0000
0000
0000
0000
0000
0011
0000
0000
0000
0000
0000
0000
0000
0000
0000
0000
0000
0000
0000
0000
0000
0000
0000
0000
0000
0000
0000
0000
0000
1010
0000
0000
0000
0000
0000
0000
0000
0000
0000
0000
0000
0000
0000
0000
0000
0000
0000
0000
0000
0000
0000
0000
0000
0000
2002
0000
0000
0000
0000
0000
0000
0000
0000
0000
0000
0000
0000
0000
0000
0000
0000
0000
0000
0000
0000
0000
0000
0000
0000
0000
0000
0000
0000
0000
0000
0000
0000
0000
0000
0000
0000
0000
0000
0000
0000
0000
0000
0000
0000
0000
0000
,
0000
0000
0000
0000
,
0000
0000
0000
3003
;

//---------------dance-single - ----------------
#NOTES:
     dance-single:
     :
     Medium:
     5:
     0.271,0.400,0.026,0.035,0.026:
0000
0000
0000
0000
,
0000
0000
0000
0000
,
0000
0000
0000
0000
,
0000
0000
0000
0000
,
0000
0000
0000
0000
,
0000
0000
0000
0000
,
0000
0000
0000
0000
,
0000
0000
0000
0000
,
0000
0000
0000
0000
,
1001
0000
0000
0000
,
0100
0000
0000
0000
0000
0000
0001
0100
,
0000
0000
0000
0000
,
0000
0000
0010
1000
,
0001
0000
0000
1000
0000
0000
0100
0000
,
1000
0010
0100
0001
,
1000
0000
0001
1000
0000
0000
0000
0000
,
0001
1000
0001
0000
0000
0000
0000
0000
,
0001
0000
0001
0100
0000
0010
0000
0100
,
0010
0000
1000
0010
0000
0100
0000
0010
,
1000
0001
1000
0001
,
0001
0010
0100
2000
0000
0000
3000
0000
,
0100
0000
0000
1000
0000
0100
0000
0010
,
0001
0001
0100
0100
,
0010
0000
0000
0100
0000
0010
0000
1000
,
0001
0001
0000
1000
0000
0100
0000
0001
,
0100
0000
0000
0010
0000
0001
0000
0010
,
0100
0000
0000
0100
0000
1000
0000
0100
,
1000
0010
0100
0010
,
0100
0001
1000
0001
0000
0000
0000
0001
,
0020
0000
0000
0000
0030
0100
1000
0100
,
1000
0100
1000
0010
,
0100
0000
0001
1000
0000
0100
0000
0200
,
0000
0000
0000
0300
,
0110
0000
0000
0000
,
0000
0000
0000
0000
,
0000
0000
0000
0000
,
0000
0000
0000
0000
,
0000
0000
0000
0000
,
0000
0000
0000
0000
,
0001
0000
0000
1000
0001
0100
0001
0000
,
0100
0000
1000
0000
0100
0000
0000
0010
,
0100
0001
1000
0000
0000
0000
0000
0000
,
1000
0000
0000
1000
0100
0010
0001
0000
,
0010
0000
0001
0000
1000
0000
0000
0001
,
0001
1000
0010
0000
0000
0000
0000
0000
,
0000
0000
0000
0110
,
0000
0000
0010
0000
0100
0000
0001
0000
1000
0000
0001
0000
0100
0000
0000
0100
,
0000
0100
0000
0000
0000
0010
0100
0000
,
0000
0010
1000
0000
0001
0000
1000
0000
,
0000
0100
0010
0000
0001
0000
0010
0000
,
0000
0000
0001
0000
0100
0000
0010
0000
1000
0000
0010
0000
0100
0000
0000
0100
,
0000
0000
0001
0000
0000
0000
0000
0000
0000
0000
0010
0000
0001
0000
0000
1000
,
0000
0000
0001
0000
0000
0000
0000
0000
0000
0000
0000
0000
0001
0000
0000
0100
,
0000
0010
0000
0000
0100
0000
0010
1000
,
0010
0000
0100
0010
0100
0000
0010
0000
,
1000
0000
0001
0010
0100
0000
0100
1000
,
0100
0000
0100
0010
0001
0000
0100
0000
,
0010
0000
0001
0100
1000
0000
1000
0100
,
0010
0000
0100
0010
1000
0000
0001
0000
,
1000
0000
0001
0100
0010
0000
0100
0001
,
0100
0000
0010
0100
0010
0000
1000
0010
,
1000
0000
0001
0100
0001
0000
0001
0010
,
0001
0000
0010
0100
0010
0000
0100
1000
,
0100
0010
0001
0010
0100
1000
0002
0000
,
0000
0000
0000
0000
,
0000
0000
0000
0003
,
0000
0000
0000
0000
,
0000
0000
0000
0000
,
0000
0000
0000
0000
,
0000
0000
0000
0000
0000
0000
0000
0000
0000
0000
0000
0000
1000
0000
0000
0001
,
0000
0000
0100
0000
0000
0001
0000
0000
0010
0000
1000
0000
0100
0000
0000
0000
;

//---------------dance-single - ----------------
#NOTES:
     dance-single:
     :
     Easy:
     3:
     0.196,0.277,0.061,0.209,0.000:
0000
0000
0000
0000
,
0000
0000
0000
0000
,
0000
0000
0000
0000
,
0000
0000
0000
0000
,
0000
0000
0000
0000
,
0000
0000
0000
0000
,
0000
0000
0000
0000
,
0000
0000
0000
0000
,
0000
0000
0000
0000
,
0101
0000
0000
0000
,
0100
0000
0000
0010
,
0000
0000
0000
0000
,
0000
0000
0100
0010
,
1000
0000
0000
1000
0000
0000
0001
0000
,
1000
0100
0010
0001
,
0010
0000
0000
0001
0000
0000
0000
0000
,
1000
0001
1000
0000
0000
0000
0000
0000
,
0001
0000
0000
0100
0000
0100
0000
0000
,
0001
0000
0000
0100
0000
0100
0000
0000
,
0010
1000
0010
0100
,
0010
0000
0000
0100
0000
0000
0000
0000
,
0010
0000
0000
1000
0000
1000
0000
0000
,
0001
0010
0001
1000
,
0010
0000
0000
0100
0000
0010
0000
2000
,
0000
0000
3000
0000
,
1001
0000
0000
0001
0000
1000
0000
0000
,
0100
0000
0000
0010
0000
0010
0000
0000
,
0100
1000
0010
0100
,
0001
0000
0000
0100
0000
0000
0000
0000
,
0110
0000
0000
0010
,
1000
1000
0001
0001
,
1000
0000
0000
0100
0000
0100
0000
0200
,
0000
0000
0000
0000
,
0300
0000
0000
0000
,
0000
0000
0000
0000
,
0000
0000
0000
0000
,
0000
0000
0000
0000
,
0000
0000
0000
0000
,
0000
0000
0000
0000
,
0001
0000
0100
0010
,
0010
0100
0001
0000
,
1000
1000
0000
0000
,
0001
0000
0100
0010
,
1000
0010
0100
0000
,
1000
1001
0000
0000
,
0000
0000
0000
0010
,
0000
0100
0000
0001
,
1000
0001
0000
0100
,
0001
0100
0010
1000
,
0010
0100
0100
1001
,
0000
0010
0000
0200
,
0000
0000
0300
0010
,
0010
0010
0000
0100
,
0100
0100
0000
0002
,
0000
0203
0000
0320
,
0000
2030
0000
3002
,
0000
2003
0000
3200
,
0000
2300
3200
2300
,
0000
3200
0000
0320
,
0000
0032
0000
2003
,
0000
3002
0000
0203
,
0000
0302
0000
0103
,
0010
1000
0001
0100
,
0010
1000
0001
2002
,
0000
0000
0000
0000
,
0000
0000
0000
3003
,
0000
0000
0000
0000
,
0000
0000
0000
0000
,
0000
0000
0000
0000
,
0000
0000
0000
2002
,
0000
0000
0000
3003
;

//---------------dance-single - ----------------
#NOTES:
     dance-single:
     :
     Beginner:
     1:
     0.107,0.215,0.087,0.017,0.000:
0000
0000
0000
0000
,
0000
0000
0000
0000
,
0000
0000
0000
0000
,
0000
0000
0000
0000
,
0000
0000
0000
0000
,
0000
0000
0000
0000
,
0000
0000
0000
0000
,
0000
0000
0000
0000
,
0000
0000
0000
0000
,
1000
0000
0000
0000
,
0010
0000
0000
0100
,
0000
0000
0000
0000
,
0000
0000
0001
0001
,
1000
0000
0000
0000
,
0001
0000
1000
0000
,
0100
0000
0000
0000
,
0110
0110
0000
0000
,
1001
0000
0000
0000
,
0010
0000
0000
0000
,
1000
0000
0001
0000
,
0100
0100
0100
0000
,
0110
0000
0000
0000
,
0010
0000
0010
0000
,
1000
0000
0000
0000
,
1001
0000
0010
0000
,
1001
0000
0000
0000
,
0100
0000
0000
0000
,
0001
0000
0001
0000
,
1000
1000
1000
0000
,
0010
0000
0000
0000
,
0100
0000
0000
0000
,
0001
0000
0001
0000
,
1000
0000
0000
0000
,
0110
0000
0000
0000
,
0000
0000
0000
0000
,
0000
0000
0000
0000
,
0000
0000
0000
0000
,
0000
0000
0000
0000
,
0000
0000
0000
0000
,
0010
0000
0000
1000
,
0000
0000
0001
0000
,
0000
1000
0000
0000
,
0100
0000
0000
1000
,
0000
0000
0001
0000
,
0000
0010
0000
0000
,
0000
0000
0000
0100
,
0000
0010
0000
0100
,
0000
0000
0000
0001
,
0000
0000
0000
1000
,
0000
0001
0001
0010
,
0000
0001
0000
1001
,
0000
0000
0000
0010
,
0000
0000
0000
0010
,
0000
0000
0000
0100
,
0000
0000
0000
0001
,
0000
0000
0000
1000
,
0000
0000
0000
0100
,
0000
0000
1000
1000
,
0000
0000
0000
0001
,
0000
0000
0000
0100
,
0000
0000
0000
0001
,
0000
0000
0000
0010
,
0000
0100
0000
1000
,
0001
1000
0001
2002
,
0000
0000
0000
0000
,
0000
0000
0000
3003
,
0000
0000
0000
0000
,
0000
0000
0000
0000
,
0000
0000
0000
0000
,
0000
0000
0000
0000
,
0000
0000
0000
1001
;

//---------------dance-single - ----------------
#NOTES:
     dance-single:
     :
     Challenge:
     9:
     0.608,0.904,0.460,0.217,0.287: // measure 1
0000
0000
0000
0000
,  // measure 2
0000
0000
0000
0000
,  // measure 3
0000
0000
0000
0000
,  // measure 4
0000
0000
0000
0000
,  // measure 5
0000
0000
0000
0000
,  // measure 6
0000
0000
0000
0000
,  // measure 7
0000
0000
0000
0000
,  // measure 8
0000
0000
0000
0000
,  // measure 9
0000
0000
0000
0000
,  // measure 10
0001
0200
0000
1000
0000
0010
0000
0301
,  // measure 11
0001
2000
0000
0100
0000
0001
3001
0100
,  // measure 12
0001
1000
0100
0010
0000
0100
1000
0010
,  // measure 13
0100
0010
1000
0010
1010
0000
0101
0000
,  // measure 14
1001
0001
1000
0100
1000
0001
0100
0001
,  // measure 15
0010
0100
0010
0001
0100
1000
0100
0010
,  // measure 16
1000
0001
0010
0100
1000
0100
0010
0001
,  // measure 17
0001
0010
0100
1000
0100
0010
0001
0010
0100
1000
0100
0010
0001
0010
0100
1000
,  // measure 18
0001
0001
1000
0100
0001
0100
0010
0001
,  // measure 19
0010
0001
0001
0100
0010
0100
0001
0010
,  // measure 20
0110
0011
1010
0101
,  // measure 21
0001
0100
1000
0200
0000
0000
0300
0010
,  // measure 22
0110
0010
1000
0010
0001
0010
1000
0100
,  // measure 23
0010
0001
1000
0010
0100
0010
0001
0010
,  // measure 24
0100
0001
0100
0001
1000
0001
0010
0100
,  // measure 25
1100
0101
0000
0011
0000
1010
0000
1001
,  // measure 26
0110
0100
0001
0010
0100
0010
0001
0100
,  // measure 27
0010
1000
0100
0010
0100
1000
0010
0100
,  // measure 28
1000
0100
0001
0010
1000
0010
0001
0100
,  // measure 29
0001
1000
0100
0020
0000
0000
0000
0031
,  // measure 30
0010
0100
1000
0100
0010
1000
0001
0100
,  // measure 31
0101
0100
0101
0100
0110
0010
0110
0010
,  // measure 32
0110
0010
1010
0101
0001
0011
1000
1100
,  // measure 33
0100
0010
0001
0100
0010
1000
0001
0010
0100
0010
0001
0100
0010
1000
0100
0010
,  // measure 34
0002
0000
0000
0000
,  // measure 35
0203
0000
0000
0000
,  // measure 36
0320
0000
0000
0000
,  // measure 37
0000
0000
2030
0000
,  // measure 38
0002
0000
0000
0000
,  // measure 39
0000
0000
0000
0000
0000
0000
0000
3003
,  // measure 40
0110
0100
0001
0101
1010
0101
1010
0010
,  // measure 41
0110
0010
1001
0100
0101
0001
0100
0110
,  // measure 42
1010
0100
1000
0100
0001
0100
0010
0001
,  // measure 43
0101
0100
0010
1010
0110
1001
1100
1000
,  // measure 44
1100
0100
0110
0010
1100
0100
0010
0101
,  // measure 45
1010
0011
2200
0000
0000
0000
0000
0000
,  // measure 46
0000
0000
0000
0000
0000
0000
0000
0000
0000
0000
0000
0000
0000
0000
0000
0000
0000
0000
0000
0000
0000
0000
0000
0000
0000
0000
0000
0000
0000
0000
0000
0000
0000
3300
0000
0000
0000
0000
0000
0000
0000
0000
0000
0000
0000
0000
0000
0000
0022
0000
0000
0000
0000
0000
0000
0000
0000
0000
0000
0000
0000
0000
0000
0000
,  // measure 47
0033
0001
0100
0010
0100
0000
0001
0000
1000
0000
0100
0000
1100
0000
0000
0101
,  // measure 48
0000
0000
2001
0000
0000
0000
0010
0000
0010
0000
3001
0100
0001
0000
0100
0000
,  // measure 49
0010
0000
1000
0000
0010
0000
1000
0001
0000
0010
0000
0002
0000
0000
0000
0000
,  // measure 50
0000
0000
0013
0100
2000
0000
0000
0000
3001
0000
0000
0000
1010
0000
0010
0000
,  // measure 51
0100
0001
0100
0010
0100
0000
0001
0000
1000
0000
0100
0000
1100
0000
0000
0101
,  // measure 52
0000
0000
0022
0000
0000
0000
0033
0000
0000
0000
0001
0010
0001
0000
0001
0200
,  // measure 53
0000
1000
0000
0020
0000
0000
0000
0000
0330
0000
0100
0010
1000
0000
0001
0020
,  // measure 54
0000
0100
0000
0002
0000
0030
0000
0000
1003
0000
0001
0000
0100
0000
0001
0000
,  // measure 55
0100
0010
1000
0010
0100
0010
1000
0001
,  // measure 56
0010
0100
0010
0001
0100
1000
0100
0010
,  // measure 57
1000
0001
0010
0100
0010
0001
1000
0010
,  // measure 58
0100
0001
1000
0100
0001
0100
1000
0001
,  // measure 59
0100
0001
1000
0100
1000
0001
0010
0100
,  // measure 60
0010
0000
0001
0000
1000
0000
0001
0000
1000
0000
0001
0000
0010
0000
0001
0100
,  // measure 61
0001
0000
0100
0010
1000
0001
0010
0100
1000
0000
1000
0001
0100
0000
0100
0010
,  // measure 62
1000
0000
0010
0100
0001
0010
0100
1000
0001
0000
1000
0000
0001
0100
0010
1000
,  // measure 63
0001
0100
0010
1000
0001
0100
0010
1000
0001
0100
0010
1000
0001
0010
0100
1000
,  // measure 64
0100
0010
0001
0010
0100
1000
0010
0100
0001
0010
0100
0010
0200
0000
0000
0000
,  // measure 65
0000
0000
0000
0000
,  // measure 66
0000
0000
0000
0300
,  // measure 67
0000
0000
0000
0000
,  // measure 68
0000
0000
0000
0000
0000
0000
0000
0000
0000
0000
0000
0000
0000
0000
0000
0000
0000
0000
0000
0000
0000
0000
0000
0000
0000
0000
0000
0000
0000
0000
0000
0000
0000
0000
0000
0000
0000
0000
0000
0000
0000
0100
0010
0000
0000
0000
0000
0000
,  // measure 69
0000
0000
0000
0000
,  // measure 70
0000
0000
0000
0000
0000
0000
0000
0000
0000
0000
0000
0000
1000
0000
0001
0100
,  // measure 71
0000
0010
1000
0000
1000
0100
0000
0010
0001
0000
1000
0002
0200
0000
0000
0000
,  // measure 72
0000
0000
0000
0303
;
