#TITLE:Riders on the Storm;
#SUBTITLE:(Infected Mushroom Remix);
#ARTIST:The Doors;
#TITLETRANSLIT:;
#SUBTITLETRANSLIT:;
#ARTISTTRANSLIT:;
#CREDIT:;
#BANNER:bn.png;
#BACKGROUND:bg.png;
#LYRICSPATH:;
#CDTITLE:;
#MUSIC:Riders on the Storm (Infected Mushroom Remix).mp3;
#OFFSET:-0.040;
#SAMPLESTART:41.760;
#SAMPLELENGTH:12.000;
#SELECTABLE:YES;
#BPMS:0.000=31.250,18.000=62.500,26.000=125.000,58.000=62.500,66.000=125.000,130.000=62.500,144.000=31.250,145.000=125.000,173.000=62.500,175.000=125.000;
#STOPS:;
#BGCHANGES:;

//---------------dance-single - ----------------
#NOTES:
     dance-single:
     :
     Hard:
     9:
     0.431,0.609,0.039,0.155,0.379:
0000
0000
0000
0000
,
0000
0000
0000
0000
,
0000
0000
0000
0000
0000
0000
0000
0000
0000
0000
0000
0000
0000
0000
0000
0001
0100
1000
0100
0010
0100
0000
0000
0000
0000
0000
0000
0000
0000
0000
0000
0000
,
0000
0000
0000
0000
0000
0000
0000
0000
0000
0000
0000
0000
0000
0000
0000
0100
0010
1000
0100
0010
0100
0000
0000
0000
0000
0000
0000
0000
0000
0000
0000
0000
,
0000
0000
0000
0000
0000
0000
0000
0000
0000
0000
0000
0000
0000
0000
0010
0001
0101
0000
0000
0000
0100
0000
0000
0000
1010
0000
0000
0000
1000
0000
0000
0000
,
0100
0010
0100
1000
0001
0000
0000
0000
0001
0010
0100
0010
0001
0000
0000
0000
,
0000
0000
2000
0000
3010
0100
1000
0010
0100
0001
0000
0001
0100
0000
0100
0010
,
0000
0010
1000
0000
1000
0001
0000
0001
0010
0000
0010
0100
0000
0100
1000
0000
,
1000
0001
0000
0001
0100
0000
0010
0000
0100
0010
0000
1000
0010
0000
0100
0001
,
0000
0001
0010
0000
0010
0100
0000
0100
1000
0000
1000
0001
0000
0001
0100
0000
,
0100
0010
0000
0010
1000
0000
0001
0000
0010
0001
0000
0010
0100
0000
0100
0010
,
0000
0010
0001
0000
0001
1000
0000
1000
0010
0000
0100
0010
0000
0100
0001
0000
,
0001
1000
0000
1000
0100
0000
1000
0000
0100
0010
0000
0010
0001
0000
0001
0100
,
0000
0100
0010
0000
0010
0100
0000
0100
0001
0000
1000
0100
0000
0010
0001
0000
,
0001
0100
0000
0100
0010
0000
1000
0000
0100
0000
1000
0000
0101
0000
0001
0000
,
0010
0100
1000
0100
0010
0000
0001
0000
0001
0100
1000
0100
0020
0000
0000
0000
,
0030
0000
0100
0000
0010
1000
0000
0000
1001
0000
0000
0000
1000
0000
0000
0000
,
0001
0000
0100
0000
0001
0000
0010
0001
,
0100
1000
0000
1000
0100
0000
0010
1000
,
0000
0100
0010
0001
1000
0000
0001
0000
,
0100
0010
1000
0100
0010
0000
0100
0000
,
0010
0001
0100
1000
0100
0000
0010
1000
,
0010
0001
0000
0010
0100
0001
1000
0001
,
0100
1000
0100
0010
0001
0000
2000
0000
,
3002
0000
0203
0000
0301
0100
0010
1000
,
0100
0010
0001
0000
0001
1000
0001
1000
,
0001
0100
0100
0000
0001
1000
0010
1000
,
0100
0010
0100
0000
0100
0010
0001
1000
,
0100
1000
0010
0000
0100
0010
1000
0001
,
0010
0001
0100
0000
0100
0010
1000
0001
,
1000
0001
0010
0000
0001
0010
0100
1000
,
0100
0000
0010
0000
0001
0000
1000
0000
0001
0000
0100
0010
0100
0000
0100
0000
,
0010
1000
0010
1000
0010
0000
1000
0000
0100
0010
0100
1000
0010
0100
0001
1000
,
0001
0010
0100
1000
0100
0010
1000
0000
1000
0010
0001
0100
0001
1000
0100
1000
,
0100
0100
0010
0010
0001
1000
0001
0000
0001
0100
1000
0100
0010
1000
0010
0001
,
0010
0000
1000
0000
0010
0000
0001
0000
0100
0001
0000
0000
0010
0000
0000
0000
0100
0000
0010
0000
0001
0000
0010
0000
1000
0000
0010
0000
0100
0000
0010
0000
,
2002
0000
0000
3003
0001
0000
1000
0000
0010
0000
1000
0000
0100
0000
1000
0000
,
0010
0100
0001
0010
0100
1000
0100
0010
,
0001
1000
0001
1000
0001
0010
0100
1000
,
0100
0010
0001
0100
0010
1000
0100
1000
,
0010
1000
0001
0010
0001
0100
1000
0100
,
0010
1000
0001
0010
0100
0010
0001
0100
,
1000
0100
0010
0100
1000
0100
0001
0010
,
0100
0000
0000
0000
0010
0000
0000
0000
0002
2003
3002
2003
3002
2003
3002
2003
3002
2003
3002
2003
0002
0000
0000
0000
3003
0000
0000
0000
0000
0000
0000
0000
;

//---------------dance-single - ----------------
#NOTES:
     dance-single:
     :
     Medium:
     5:
     0.201,0.371,0.054,0.039,0.062:
0000
0000
0000
0000
,
0000
0000
0000
0000
,
0000
0000
0000
0000
0000
0000
0000
0000
0000
0000
0000
0000
0000
0000
0000
1000
0001
1000
0001
1000
0001
0000
0000
0000
0000
0000
0000
0000
0000
0000
0000
0000
,
0000
0000
0000
0000
0000
0000
0000
0000
0000
0000
0000
0000
0000
0000
0000
0100
0010
0100
0010
0100
0010
0000
0000
0000
0000
0000
0000
0000
0000
0000
0000
0000
,
0000
0000
0000
0000
0000
0000
0000
1000
1001
0000
0000
0000
0110
0000
0000
0000
,
0010
0010
0110
0000
0100
0001
1000
0000
,
0000
0000
0100
1000
0010
0100
0010
1000
,
0001
0000
0000
0000
,
0000
0001
0010
0100
0010
0001
1000
0010
,
0100
0000
0000
0000
,
0000
0000
0000
0010
1000
0010
1000
0100
,
0010
0000
0000
0000
,
0000
0000
0000
0000
0100
0010
0001
1000
,
0001
0000
0000
0000
,
0000
0000
0001
0100
0010
1000
1010
0000
,
1000
0001
0101
0000
0001
0010
0100
0000
,
0000
0100
0010
0000
0001
0000
0000
0000
,
0000
0000
0000
0000
0000
0000
0000
1000
,
0100
0010
0000
0000
0010
0000
0001
0100
,
0000
0000
0000
0010
0000
0000
0010
0000
,
0100
0010
0000
0000
1000
0000
0000
0000
,
0000
0000
0000
0000
0000
0000
0000
0001
,
1000
0100
0000
0000
1000
0000
0010
0000
,
0100
0000
0001
0010
0000
0000
0001
0000
,
2000
0000
0002
0000
,
0000
0000
0000
0000
3003
0000
0000
0001
,
0100
1000
0000
0000
1000
0000
0100
0010
,
0000
0000
0000
1000
0000
0000
0000
0000
,
2000
0000
0200
0000
,
0000
0000
0000
0000
3300
0000
0000
0100
,
0010
0100
0000
0000
1000
0000
0001
0000
,
1000
0000
0001
0100
0010
0000
0110
0000
,
0100
0000
0010
0000
1000
0000
0000
0000
0001
0000
1000
0000
0100
1000
0100
0000
,
1000
0000
0010
0000
0100
0001
0100
0000
0001
0000
1000
0000
0010
0100
0010
0000
,
0100
0000
0001
0000
1000
0100
1000
0000
1000
0000
0100
0000
0001
0100
1000
0000
,
1000
0000
0010
0000
0001
0010
0100
0000
0010
0000
1000
0000
0001
1000
0010
0000
,
0101
0000
0001
0000
0000
0100
0010
0000
,
0000
1000
0010
0000
0000
0100
0001
0000
,
1000
0000
0100
0000
0000
0010
0001
0000
,
0000
0001
0010
0000
0000
0100
1000
0000
,
0010
0000
0100
0000
0000
0010
1000
0000
,
0000
1000
0001
0000
0000
0001
0010
0000
,
0001
0000
0100
0000
0000
0010
1000
0000
,
0000
0001
0200
0000
0000
0300
0000
0000
;

//---------------dance-single - ----------------
#NOTES:
     dance-single:
     :
     Easy:
     3:
     0.144,0.169,0.008,0.031,0.000:
0000
0000
0000
0000
,
0000
0000
0000
0000
,
0000
0000
1000
0000
,
0000
0000
0001
0000
,
0000
0000
0100
0010
,
1000
0001
1000
0000
0001
0100
0001
0000
,
0000
0110
0010
1000
,
0100
0000
0000
0000
,
0000
0100
0010
0001
,
0001
0000
0000
0000
,
0000
0000
0001
0100
,
1000
0000
0000
0000
,
0000
0000
1000
0100
,
0010
0000
0000
0000
,
0000
0000
0010
0000
1000
1000
1000
0000
,
0001
0001
0001
0000
0001
0100
0010
0000
,
0000
1000
1000
0000
1000
0000
0001
0000
,
0100
0000
0001
1000
,
0100
0010
0100
0010
,
0001
1000
0010
0100
,
0001
0000
0001
1000
,
0010
0000
0100
0010
,
1000
1000
0001
1000
,
0100
1000
0010
0100
,
0001
1000
0200
0000
,
0000
0000
0300
0000
,
0010
0000
0001
1000
,
0010
0100
0001
1000
,
1000
0000
0002
0000
,
0000
0000
0003
0000
,
1000
0000
0010
1000
,
0010
0100
0002
0000
,
0000
0000
1003
0010
,
0100
0001
1000
0100
,
1000
0010
0100
0001
,
1000
0001
1000
0010
,
0100
0010
1000
0010
,
1000
0010
1000
0010
,
1000
0001
0100
0001
,
0100
0001
0100
0001
,
0100
0001
0010
0001
,
0010
0001
0010
0001
,
0010
0100
1000
0100
,
1000
0000
0200
0000
0000
0300
0000
0000
;

//---------------dance-single - ----------------
#NOTES:
     dance-single:
     :
     Beginner:
     1:
     0.060,0.084,0.008,0.031,0.000: // measure 1
0000
0000
0000
0000
,  // measure 2
0000
0000
0000
0000
,  // measure 3
0000
0000
1000
0000
,  // measure 4
0000
0000
0001
0000
,  // measure 5
0000
0000
0100
0000
,  // measure 6
0010
0000
1000
1000
,  // measure 7
0000
0000
0001
0000
,  // measure 8
0000
0000
0000
0000
,  // measure 9
0000
0000
1000
0000
,  // measure 10
0000
0000
0000
0000
,  // measure 11
0000
0000
0010
0000
,  // measure 12
0000
0000
0000
0000
,  // measure 13
0000
0000
0100
0000
,  // measure 14
0000
0000
0000
0000
,  // measure 15
0000
0000
0001
0000
,  // measure 16
1000
0000
0010
0010
,  // measure 17
0000
0000
0100
0000
,  // measure 18
0000
0000
0000
0000
,  // measure 19
0010
0000
1000
1000
,  // measure 20
0000
0000
0001
0000
,  // measure 21
1000
0000
1000
0000
,  // measure 22
0000
0000
0000
0000
,  // measure 23
0010
0000
0100
0100
,  // measure 24
0100
0000
0000
0000
,  // measure 25
0010
0000
0010
0000
,  // measure 26
0000
0000
0000
0000
,  // measure 27
1000
0000
0001
0001
,  // measure 28
0000
0000
1000
0000
,  // measure 29
0010
0000
0010
0000
,  // measure 30
0000
0000
0000
0000
,  // measure 31
0100
0000
0010
0010
,  // measure 32
0010
0000
0000
0000
,  // measure 33
0000
0000
1001
0000
,  // measure 34
0010
0000
0100
0000
,  // measure 35
0010
0000
1000
0000
,  // measure 36
0001
0000
1000
0000
,  // measure 37
0010
0200
0000
0000
,  // measure 38
0000
0000
0000
0000
,  // measure 39
0300
0020
0000
0000
,  // measure 40
0000
0000
0000
0000
,  // measure 41
0030
2000
0000
0000
,  // measure 42
0000
0000
0000
0000
,  // measure 43
3000
0002
0000
0000
,  // measure 44
0000
0003
0000
0000
;
