#TITLE:Partycrashing;
#SUBTITLE:;
#ARTIST:David Central;
#TITLETRANSLIT:;
#SUBTITLETRANSLIT:;
#ARTISTTRANSLIT:;
#CREDIT:;
#BANNER:bn.png;
#BACKGROUND:bg.png;
#LYRICSPATH:;
#CDTITLE:;
#MUSIC:Partycrashing.mp3;
#OFFSET:-1.032;
#SAMPLESTART:56.100;
#SAMPLELENGTH:12.000;
#SELECTABLE:YES;
#BPMS:0.000=182.880;
#STOPS:;
#BGCHANGES:;

//---------------dance-single - ----------------
#NOTES:
     dance-single:
     :
     Hard:
     9:
     0.591,0.636,0.475,0.081,0.000:
0000
0000
0000
0000
,
0000
0000
0000
0000
,
1001
0000
0101
0000
0001
0100
0000
0100
,
0010
1000
0010
0000
1010
0000
0011
0000
,
1001
0000
0101
0000
0001
0010
0000
0100
,
1000
0010
0100
0000
0101
0000
0100
0000
,
1010
0000
1001
0000
0001
0100
0000
0100
,
0010
1000
0010
0000
1010
0000
0011
0000
,
1001
0000
0101
0000
0001
0010
0000
0001
,
1000
0000
0000
0000
,
0010
1000
1010
0000
0101
0000
1001
0000
,
0001
1000
0010
0000
1010
0000
1010
0000
,
1100
0000
0101
0000
0001
0100
0000
0100
,
0010
1000
0001
0010
0100
1000
0100
0010
,
0001
0000
1100
0000
0001
0100
0000
0010
,
0100
0001
1000
0000
1100
0100
1000
0100
,
1000
0001
0001
0001
,
0001
0000
0000
0000
,
1000
0000
0001
0000
0100
0001
0100
0010
,
1000
0000
0100
0000
0010
0100
0010
0100
,
0010
0001
0100
0001
,
0010
0000
0100
1000
0100
0010
0100
1000
,
0010
0100
0010
1000
,
0001
0010
0100
1000
,
0002
0000
0203
0000
,
0320
0000
2030
0000
,
3100
0100
1000
1000
,
0001
0001
1000
1000
,
0001
0001
0100
0100
,
0001
0100
0010
1000
,
0010
0010
0100
0100
,
0010
1000
0010
0100
,
1001
0000
0000
0000
,
0000
0000
0000
0000
,
1001
0000
0001
0100
0010
0000
0010
0000
,
1001
0000
0001
0100
0010
0000
1000
0000
,
1100
0000
1000
0001
0010
0000
0100
0000
,
1100
0100
0010
0100
1000
0001
0100
0001
,
1000
0000
1000
0010
0110
0000
0010
0100
,
0101
0000
0001
0010
0110
0000
0010
0100
,
1000
0100
0001
0100
1000
0010
0001
0010
,
0100
0000
0000
0000
,
0110
0000
0010
1000
0010
0000
0110
0000
,
1000
0100
0010
0100
1000
0010
0100
0001
,
0100
0000
0001
0100
0010
0000
0100
0000
,
1010
0000
0001
0010
0100
0000
1100
0000
,
1100
0000
1000
0100
0010
0000
1100
0000
,
1000
0100
0010
0001
0010
1000
0010
0001
,
0010
0000
0001
0100
0010
0000
1000
0000
,
0001
1000
0001
1000
0001
0001
1000
1000
,
0001
0000
0001
0100
0010
0000
1010
0000
,
1001
0000
0001
0100
0010
0000
1010
0000
,
0101
0000
0001
0010
0100
0000
1100
0000
,
1000
0100
0001
0100
0010
0001
0100
1000
,
0100
0000
0010
1000
0001
0000
0011
0000
,
1001
0000
0001
0100
0010
0000
1010
0000
,
1001
0000
0001
0100
0010
0000
1010
0000
,
1000
0001
0010
0100
0010
0010
0001
0001
,
0100
0000
0001
0100
0010
0000
0110
0000
,
0010
0000
1000
0001
0010
0000
0000
0000
,
0100
0000
1000
0100
0010
0000
0100
0000
,
1000
0100
0001
0100
1000
0010
0001
0010
,
0100
0100
0010
0010
,
1000
0001
1000
0001
0001
0000
0000
0000
,
0001
0100
0010
1000
0001
0000
0010
0000
,
0001
0010
0100
1000
0001
0010
0100
1000
,
0100
0000
1000
0100
1000
0000
0100
0000
,
1000
0000
0010
0100
0010
0000
0100
0000
,
0001
0000
1000
0001
1000
0000
0001
0000
,
0100
0100
0001
0001
,
1000
0000
0001
0010
0010
0000
0100
0000
,
0010
0000
0001
0001
1000
0000
0010
0100
,
0020
0000
2030
0000
,
3200
0000
0020
0000
,
0330
0000
0000
0000
;

//---------------dance-single - ----------------
#NOTES:
     dance-single:
     :
     Medium:
     6:
     0.487,0.561,0.182,0.081,0.000:
0000
0000
0000
0000
,
0000
0000
0000
0000
,
0001
1000
0010
0100
,
0010
1000
0010
0000
0100
0000
0010
0000
,
1000
0001
0010
0001
,
0010
0100
1000
0000
0100
0000
1000
0100
,
1000
0100
0010
0001
,
0010
0001
0010
0000
0001
0000
0100
0010
,
0100
0010
1000
0001
,
1001
0000
0000
0000
,
0001
0100
0001
0000
0100
0000
0010
0000
,
1000
0010
1000
0000
0010
0000
0010
0000
,
0100
0010
0100
0000
0010
0000
1000
0000
,
0001
0100
0010
0000
0100
0000
0010
0000
,
1000
0100
0010
0001
,
0001
0010
0100
0000
0010
0000
0001
0000
,
1000
0010
0010
0010
,
0110
0000
0000
0000
,
0010
0000
1000
0000
0010
0000
0100
0010
,
0100
0000
0010
0000
1000
0000
0001
1000
,
0001
0000
1000
0000
0100
0000
0010
0001
,
0010
0000
0001
0000
0010
0000
0100
1000
,
0100
0000
1000
0000
0010
0000
0100
0010
,
1000
0000
0001
0000
0010
0000
0100
1000
,
0020
0000
0230
0000
,
0302
0000
2003
0000
,
3100
1000
0100
1000
,
0100
0100
1000
1000
,
0001
1000
0001
1000
,
0001
0001
0100
0001
,
0100
0100
0010
0010
,
0100
0001
0010
0100
,
1100
0000
0000
0000
,
0000
0000
0000
0000
,
1000
0000
0001
1000
0001
0000
1000
0000
,
0010
0000
0100
0010
0100
0000
0010
0000
,
1000
0000
0010
1000
0010
0000
1000
0000
,
0100
0000
0010
0001
0010
0000
0001
0000
,
0001
0000
0001
0010
0100
0000
0010
0100
,
1000
0000
0100
1000
0010
0000
0100
0010
,
1000
0001
1000
0001
1000
0001
1000
0001
,
1000
0000
0000
0000
,
1001
0000
0001
0100
0010
0000
0110
0000
,
0010
0010
0100
0100
,
0110
0000
0010
1000
0100
0000
1100
0000
,
1100
0000
1000
0100
0010
0000
0011
0000
,
0001
0000
0100
0010
1000
0000
1001
0000
,
0001
0100
0010
0000
0100
0010
1000
0000
,
0110
0010
0110
0010
,
1001
0000
0000
0000
,
1001
0000
0001
1000
0010
0000
1010
0000
,
1000
0100
0010
0011
,
0001
0000
0010
0100
1000
0000
0100
0000
,
1000
0100
0010
0001
1000
0100
0010
0001
,
1000
0000
0001
0100
0010
0000
0100
0000
,
0110
0000
0010
1000
0001
0000
0010
0000
,
0100
0000
1000
0100
1000
0000
0100
0000
,
1000
0000
0100
0000
0010
0010
0100
0100
,
0010
0001
0010
0100
,
1000
0000
0100
0000
1000
0000
0010
0100
,
0010
0100
0010
1000
,
0001
0010
0100
1000
0100
0000
1000
0100
,
1000
0100
0010
0001
,
1001
0000
0001
0000
0100
0000
0010
1000
,
0010
0100
0010
1000
,
0001
0010
0100
0100
,
0010
0001
1000
0100
,
0001
0100
1000
0010
,
0001
0010
1000
0010
,
0100
0010
1000
0001
,
0010
0100
1000
0100
,
0010
0001
1000
0001
,
2000
0000
3002
0000
,
0203
0000
0302
0000
,
0003
0000
0000
0000
;

//---------------dance-single - ----------------
#NOTES:
     dance-single:
     :
     Easy:
     4:
     0.325,0.337,0.010,0.020,0.000:
0000
0000
0000
0000
,
0000
0000
0000
0000
,
0001
1000
0001
1000
,
0010
0010
0100
0100
,
0010
1000
0010
1000
,
0100
0100
1000
0000
,
1000
0001
1000
0001
,
0100
0100
0001
0001
,
0100
0010
1000
0010
,
0100
0000
0000
0000
,
0010
1000
0001
0010
,
0100
0100
0010
0010
,
0100
1000
0010
0100
,
0001
0001
1000
0000
,
0001
1000
0010
1000
,
0010
0100
0010
0001
,
0010
0100
0010
1000
,
0001
0000
0000
0000
,
1000
1000
1000
0001
,
1000
1000
1000
0001
,
0100
0100
0100
0010
,
1000
0010
0001
0010
,
0100
0001
0010
0100
,
0010
0001
1000
0010
,
0200
0000
0000
0000
,
0000
0000
0000
0000
,
0310
0000
0100
0000
,
0010
0000
1000
0000
,
0001
0000
1000
0000
,
0100
0100
1000
0000
,
0100
0000
1000
0000
,
0010
0000
0100
0000
,
1001
0000
0000
0000
,
0000
0000
0000
0000
,
0001
1000
0001
0000
,
0100
0010
1000
0000
,
0010
0100
0001
0000
,
1000
0100
0010
0000
,
0100
0000
1000
0000
,
0010
0000
0100
0000
,
0001
0100
0010
1000
,
0001
0000
0000
0000
,
1000
0001
0100
0001
,
0010
0100
1000
0100
,
0010
0100
1000
1000
,
0001
0100
0001
0001
,
0100
0010
1000
1000
,
0001
0010
0100
1000
,
0100
1000
0010
0010
,
0100
0000
0000
0000
,
0010
1000
0001
0010
,
0001
0100
1000
0100
,
0010
1000
0001
0010
,
0100
0100
0100
0100
,
1000
0010
0100
0100
,
0010
1000
0001
0001
,
1000
0100
1000
0010
,
0100
0000
0000
0000
,
0010
1000
0001
0010
,
0100
1000
0100
0000
,
1000
0100
1000
0010
,
0100
0100
0100
0000
,
0010
1000
0001
0010
,
0001
0100
0010
0000
,
0010
0100
0010
1000
,
0001
0010
0100
0100
,
0010
0001
1000
0000
,
0001
1000
0010
0000
,
0100
0001
1000
0000
,
0100
0010
0001
0000
,
1000
0001
0100
0000
,
0001
0100
0010
0000
,
0200
0000
0000
0000
,
0000
0000
0000
0000
,
0300
0000
0000
0000
;

//---------------dance-single - ----------------
#NOTES:
     dance-single:
     :
     Beginner:
     2:
     0.163,0.299,0.111,0.000,0.000: // measure 1
0000
0000
0000
0000
,  // measure 2
0000
0000
0000
0000
,  // measure 3
0010
0000
0000
0000
,  // measure 4
1000
0000
1000
0000
,  // measure 5
0001
0000
0000
0000
,  // measure 6
1000
0000
0100
0000
,  // measure 7
1000
0000
0000
0000
,  // measure 8
0010
0000
0100
0000
,  // measure 9
0001
0000
0000
0000
,  // measure 10
1001
0000
0000
0000
,  // measure 11
0100
0000
0000
0000
,  // measure 12
0010
0000
0000
0000
,  // measure 13
0100
0000
0000
0000
,  // measure 14
0001
0000
0001
0000
,  // measure 15
1000
0000
0000
0000
,  // measure 16
1000
0000
0000
0000
,  // measure 17
0010
0000
0100
0000
,  // measure 18
1001
0000
0000
0000
,  // measure 19
0100
0000
0000
0000
,  // measure 20
0010
0000
0000
0000
,  // measure 21
1000
0000
0000
0000
,  // measure 22
0001
0001
0001
0000
,  // measure 23
1000
0000
0000
0000
,  // measure 24
0010
0000
0000
0000
,  // measure 25
1001
0000
0000
0000
,  // measure 26
0000
0000
0000
0000
,  // measure 27
1001
0000
0000
0000
,  // measure 28
0000
0000
0000
0000
,  // measure 29
0000
0000
0000
0000
,  // measure 30
0000
0000
0000
0000
,  // measure 31
1000
0000
0000
0000
,  // measure 32
0001
0000
0000
0000
,  // measure 33
0110
0000
0000
0000
,  // measure 34
0000
0000
0000
0000
,  // measure 35
1001
0000
0000
0000
,  // measure 36
1000
0000
0000
0000
,  // measure 37
0001
0000
0000
0000
,  // measure 38
0100
0000
0000
0000
,  // measure 39
0010
0000
0010
0000
,  // measure 40
0010
0000
0010
0000
,  // measure 41
0100
0100
0100
0100
,  // measure 42
1001
0000
0000
0000
,  // measure 43
1001
0000
1000
0000
,  // measure 44
0001
0001
0001
0000
,  // measure 45
1000
0000
0010
0000
,  // measure 46
0100
0000
0010
0000
,  // measure 47
1000
0000
0001
0000
,  // measure 48
0100
0100
0100
0000
,  // measure 49
0001
0000
1000
0000
,  // measure 50
0100
0000
0000
0000
,  // measure 51
1000
0000
0010
0000
,  // measure 52
0100
0100
0100
0000
,  // measure 53
0010
0000
1000
0000
,  // measure 54
0001
0001
0001
1000
,  // measure 55
0001
0000
0100
0000
,  // measure 56
0010
0000
0100
0000
,  // measure 57
0001
0000
1000
0000
,  // measure 58
1001
0000
0000
0000
,  // measure 59
1000
0000
0000
0000
,  // measure 60
0001
0000
0000
0100
,  // measure 61
0010
0000
0000
0000
,  // measure 62
0100
0000
0000
0010
,  // measure 63
1000
0000
0000
0000
,  // measure 64
0100
0000
0000
1000
,  // measure 65
0001
0000
0100
0000
,  // measure 66
0110
0000
0000
0000
,  // measure 67
0010
0000
0000
0000
,  // measure 68
1000
0000
0000
0000
,  // measure 69
0001
0000
0000
0000
,  // measure 70
1000
0000
0000
0000
,  // measure 71
0100
0000
0000
0000
,  // measure 72
1000
0000
0000
0000
,  // measure 73
0010
0000
0000
0000
,  // measure 74
0000
0000
0000
0000
,  // measure 75
1001
0000
0000
0000
;
