#TITLE:PARANOiA Millennium;
#SUBTITLE:;
#ARTIST:100;
#TITLETRANSLIT:;
#SUBTITLETRANSLIT:;
#ARTISTTRANSLIT:;
#CREDIT:;
#BANNER:bn.png;
#BACKGROUND:bg.png;
#LYRICSPATH:;
#CDTITLE:;
#MUSIC:PARANOiA Millennium.mp3;
#OFFSET:0.065;
#SAMPLESTART:2.320;
#SAMPLELENGTH:12.000;
#SELECTABLE:YES;
#BPMS:0.000=100.000;
#STOPS:;
#BGCHANGES:;

//---------------dance-single - ----------------
#NOTES:
     dance-single:
     :
     Hard:
     9:
     0.587,0.622,0.462,0.000,0.743:
0000
0000
0000
0000
,
0000
0000
0000
0000
,
0000
0000
0000
0000
,
0000
0000
0000
0000
,
0000
0000
0000
0000
,
1001
0000
0001
0010
0000
0100
1000
0000
0001
0000
0001
1000
0000
0100
0010
0000
,
0100
0000
0100
0001
0000
0001
0100
0000
0010
0000
0010
0001
0000
0001
0100
0000
,
0010
1010
0000
1001
0000
0001
0100
0000
0010
0000
1000
0010
0000
0100
0001
0000
,
0011
0000
0001
0010
0000
0100
1000
0000
1001
0000
0001
0100
0000
0010
1000
0000
,
0010
1000
0100
0010
0100
1000
0010
0100
0001
0010
0001
0100
0010
1000
0001
0010
,
0000
0100
1000
0100
0010
0100
1000
0010
0100
0001
0010
0001
0100
0010
1000
0001
,
0000
0001
0100
1000
0100
0001
0010
1000
0010
0001
0100
0001
0010
0010
0100
1000
,
0100
0000
0010
0001
0100
0000
0110
0000
1001
0000
0001
0100
0010
0000
1010
0000
,
0101
0101
0000
0100
0000
0010
1000
0000
1001
0000
1000
1100
0000
0100
0110
0000
,
0011
1001
0000
0100
0000
0010
1000
0000
1000
0100
0001
0100
1000
0010
0100
0000
,
0101
0101
0000
0100
0000
0010
1000
0000
1001
0000
1000
0100
0000
0100
1000
0000
,
1001
0101
0000
0100
0000
0010
1000
0000
0001
0001
0100
0010
0010
1000
0100
0010
,
0011
1100
0000
1000
0000
0001
0100
0000
0110
0000
0010
1000
0000
0010
0100
0000
,
0101
0101
0000
0010
0000
0010
1000
0000
1000
0100
0001
0100
1000
0100
0001
0100
,
1100
0110
0000
0010
0000
0010
0100
0000
1100
0000
1000
0001
0000
0001
0100
0000
,
0110
0110
0000
0010
0000
0010
1000
0000
0001
1000
0010
0001
0100
0001
0010
0100
,
1000
0010
0100
0100
0001
1001
0101
0011
,
1100
0010
0110
1001
,
0011
0100
0010
1010
,
1001
0000
0000
0010
0000
0000
0101
0000
0000
0100
0010
1000
,
0001
0000
0000
0101
0000
0000
0000
0000
0000
0110
0000
0000
0000
0000
0000
0000
0000
0000
0000
0000
0000
0000
0000
0000
0000
0000
0000
0000
0000
0000
0000
0000
0000
0000
0000
0000
0010
0000
0000
0000
1000
0000
0000
0000
0100
0000
0000
0000
,
0010
0000
0000
0011
0000
0000
1100
0000
0000
1000
1100
0001
,
1010
0000
0000
0100
0001
0000
0000
0000
,
0001
0000
0000
1000
0000
0000
0100
0000
0000
0010
0001
1000
,
0001
0010
1000
0000
0100
0000
0001
0000
1000
0100
0001
0000
0100
1000
0010
0000
,
0001
0010
1000
0000
0100
0000
0001
0000
1000
0100
0001
0000
0100
1000
0010
0000
,
0001
0000
1000
0000
0100
0000
0001
0000
1000
0100
0001
0000
0100
1000
0010
0000
,
0001
0010
1000
0000
0100
0000
0001
0000
1000
0100
0001
0000
0100
1000
0010
0000
,
0010
0001
0001
0001
0010
0001
0001
0000
0010
1000
1000
1000
0010
1000
1000
0000
,
0100
1000
0100
1000
1000
1000
1000
0000
0100
0001
0100
0001
0001
0001
0001
0000
,
0010
0000
1000
0000
0100
0000
0001
0010
1000
0000
0100
0000
0001
0000
0010
1000
,
0100
0000
0001
0000
0010
0000
1000
0100
0001
0000
0010
0000
1000
0000
0000
0000
,
0001
0100
0010
1000
0100
0001
0100
1000
0010
0100
0001
0010
0001
0100
1000
0100
,
0000
0010
1000
0001
0010
1000
0010
0001
0100
1000
0100
0001
0010
1000
0001
0100
,
0001
0000
0100
0100
0000
0010
0010
1000
0001
0000
0010
0010
0000
0100
1000
0001
,
0100
0000
0000
0000
;

//---------------dance-single - ----------------
#NOTES:
     dance-single:
     :
     Medium:
     7:
     0.380,0.489,0.100,0.000,0.472:
0000
0000
0000
0000
,
0000
0000
0000
0000
,
0000
0000
0000
0000
,
0000
0000
0000
0000
,
0010
0100
0010
1000
,
1001
0000
0000
0110
0000
0000
0010
0000
1000
0000
0000
0010
0000
0000
0100
0000
,
0100
0000
0000
0010
0000
0000
1000
0000
0001
0000
0000
0010
0000
0000
0100
0000
,
1000
0100
0000
0100
0000
0000
1000
0000
0100
0000
0000
0100
0000
0000
0010
0000
,
0100
0000
0000
1000
0000
0000
0010
0000
0100
0000
0000
0001
0000
0000
1000
0000
,
0000
1001
0000
1001
0000
0000
0001
0000
0100
0000
0010
1000
0000
0010
0100
0000
,
0010
0000
1000
0000
0001
0000
0010
0100
1000
0000
0100
0000
1000
0000
0010
0000
,
0000
0110
0000
0110
0000
0000
0000
0000
0010
0000
0000
1000
0000
0000
0010
0000
,
0100
0000
0010
1000
0001
0000
1000
0000
0001
0000
0001
0100
0010
0000
0100
0000
,
0010
0010
0000
1000
0000
0000
0001
0000
1000
0000
0000
0100
0000
0000
1000
0000
,
0100
0100
0000
1000
0000
0000
0010
0000
0100
0010
1000
0001
0100
0000
0000
0000
,
0001
0100
0000
0010
0000
0000
0100
0000
0010
0000
0000
1000
0000
0000
0100
0000
,
1000
1000
0000
0100
0000
1000
0100
0000
1000
0100
0010
0001
0010
0000
0000
0000
,
0001
0100
0000
0010
0000
0000
0100
0000
0010
0000
0000
1000
0000
0000
0010
0000
,
0100
0100
0000
0010
0000
0000
1000
0000
0001
0010
0100
0010
0001
0000
0000
0000
,
1000
1000
0000
0010
0000
0000
0100
0000
0010
0000
0000
1000
0000
0000
0001
0000
,
0010
0010
0000
0100
0000
0000
1000
0000
0100
1000
0100
0001
0100
1000
0010
0001
,
0010
0100
0010
1000
0001
0100
0100
0010
,
1000
0000
0100
0010
,
0001
0000
0000
0001
,
0100
0000
0001
1000
,
0001
1000
0000
1000
0000
0000
0000
0000
0000
0000
0000
0000
1000
0000
0000
0000
,
0010
0100
0010
1000
,
0010
0000
0000
0100
0001
0000
0000
0000
,
1000
0100
0010
0001
,
0010
0010
0000
0000
0000
0000
0000
0000
0000
0000
0000
0110
0000
0000
0011
0000
,
0001
0001
0000
0000
0000
0000
0000
0000
0001
0100
1000
0100
0001
0010
1000
0000
,
1000
1000
0000
0000
0000
0000
0000
0000
0000
0000
0000
1100
0000
0000
0011
0000
,
0001
0001
0000
0000
0000
0000
0000
0000
0001
0100
0010
0100
0010
0001
0010
1000
,
0100
0100
0000
1000
0000
0100
1000
0000
0100
0000
1000
0010
0000
0100
0010
0000
,
1000
1000
0000
0010
0000
0100
0010
0000
1000
0100
0010
0001
0010
0100
1000
0000
,
0001
0001
0000
1000
0000
0010
0100
0000
0001
0000
0001
1000
0000
1000
0100
0000
,
1000
0100
0000
0010
0000
0010
0001
0000
0001
0010
0100
0010
0001
1000
0010
0100
,
0001
0000
0100
0000
0010
0000
1000
0100
0010
0000
0010
0100
1000
0000
0010
1000
,
0001
0000
1000
0000
0100
0000
0010
0001
0010
0000
0001
0010
0100
0000
0100
1000
,
0010
0000
0000
0000
;

//---------------dance-single - ----------------
#NOTES:
     dance-single:
     :
     Easy:
     5:
     0.251,0.352,0.100,0.000,0.075:
0000
0000
0000
0000
,
0000
0000
0000
0000
,
0000
0000
0000
0000
,
0000
0000
0000
0000
,
0000
0000
0000
0000
,
1000
0000
0010
0000
1000
0000
0001
1000
,
0100
0000
1000
0000
0010
0000
0100
0100
,
0010
0000
1000
0000
0001
0000
0010
0100
,
1000
0000
0100
0000
0010
0000
0100
1000
,
0010
0000
0100
0000
0001
0000
1000
0001
,
0010
0000
0001
0000
0100
0000
0010
0010
,
1000
0000
0001
0000
0010
0100
1000
0100
,
0010
0010
0100
0100
,
0110
0010
0001
0000
0001
0010
0100
1000
,
1010
0010
0100
0000
0010
0010
0010
0000
,
0110
0010
1000
0000
0110
0010
1000
0001
,
0011
0010
0100
0000
0010
0010
0010
0000
,
0011
0010
0100
0000
0100
1000
0010
0100
,
0110
0010
1000
0000
1000
0001
0010
0000
,
0110
0100
1000
0000
1100
1000
0010
0100
,
0110
0010
1000
0000
1000
0100
0001
0000
,
0001
0000
0100
0000
0010
0001
0100
1000
,
0100
0000
0010
1000
,
0100
0000
0000
1000
,
0100
0000
0001
0100
,
1000
0000
0000
1000
,
0010
0100
0010
1000
,
0010
0000
0000
0100
0001
0000
0000
0000
,
0001
0000
0100
1000
,
0100
0010
0000
0000
0000
0000
0000
0000
0000
0000
0000
0100
0000
0000
0010
0000
,
1000
0001
0000
0000
0000
0000
0000
0000
0000
0000
0000
0000
0000
0000
0000
0000
,
1000
0001
0000
0000
0000
0000
0000
0000
0000
0000
0000
0001
0000
0000
0100
0000
,
0010
0100
0000
0000
0000
0000
0000
0000
0000
0000
0000
0000
0000
0000
0000
0000
,
0010
1000
0000
0000
0000
0000
0000
0000
0000
0000
0000
1000
0000
0000
0001
0000
,
0010
0010
0000
0000
0000
0000
0000
0000
0000
0000
0000
0000
0000
0000
0000
0000
,
0100
0100
0000
0000
0000
0000
0000
0000
0000
0000
0000
1000
0000
0000
0010
0000
,
0100
0010
0000
0000
0000
0000
0000
0000
0100
0010
1000
0001
1000
0000
0000
0000
,
0001
1000
0100
0001
0100
1000
0010
0001
,
0010
0000
0100
0000
0010
0000
1000
0000
0001
0000
0010
0000
0100
0000
1000
0010
,
0100
0000
0000
0000
;

//---------------dance-single - ----------------
#NOTES:
     dance-single:
     :
     Beginner:
     1:
     0.128,0.176,0.161,0.000,0.000: // measure 1
0000
0000
0000
0000
,  // measure 2
0000
0000
0000
0000
,  // measure 3
0000
0000
0000
0000
,  // measure 4
0000
0000
0000
0000
,  // measure 5
0000
0000
0000
0000
,  // measure 6
0010
0000
1000
0000
,  // measure 7
0001
0000
0010
0000
,  // measure 8
0100
0000
0010
0000
,  // measure 9
0001
0000
1000
0000
,  // measure 10
0010
0000
0100
0000
,  // measure 11
0010
0000
1000
0000
,  // measure 12
0001
0000
1000
0000
,  // measure 13
0010
0010
0100
0100
,  // measure 14
1001
0000
0000
0010
,  // measure 15
1001
0000
0100
0000
,  // measure 16
0110
0000
0000
1000
,  // measure 17
0110
0000
0001
0000
,  // measure 18
0001
0000
0000
1000
,  // measure 19
1001
0000
0010
0000
,  // measure 20
0110
0000
0000
1000
,  // measure 21
1001
0000
0100
0000
,  // measure 22
0010
0000
0000
1000
,  // measure 23
1000
0000
0001
0100
,  // measure 24
1000
0000
0000
0100
,  // measure 25
0010
0000
1000
0001
,  // measure 26
0001
0000
0000
0001
,  // measure 27
0010
0100
1000
0001
,  // measure 28
0100
0000
0010
0000
,  // measure 29
0100
0000
0010
0000
,  // measure 30
1001
0000
0000
0100
,  // measure 31
1001
0000
0010
0000
,  // measure 32
1001
0000
0000
0100
,  // measure 33
1001
0000
0010
0000
,  // measure 34
1001
0000
0000
0010
,  // measure 35
1001
0000
0100
0000
,  // measure 36
1001
0000
0000
0010
,  // measure 37
1001
0000
0100
0000
,  // measure 38
0010
0000
0000
0000
,  // measure 39
1000
0000
0000
0000
,  // measure 40
1001
0000
0000
0000
;
