#TITLE:Northern Lights;
#SUBTITLE:(GMS remix);
#ARTIST:Oforia;
#TITLETRANSLIT:;
#SUBTITLETRANSLIT:;
#ARTISTTRANSLIT:;
#CREDIT:;
#BANNER:bn.png;
#BACKGROUND:bg.png;
#LYRICSPATH:;
#CDTITLE:;
#MUSIC:Northern Lights (GMS remix).mp3;
#OFFSET:-0.049;
#SAMPLESTART:39.780;
#SAMPLELENGTH:12.000;
#SELECTABLE:YES;
#BPMS:0.000=145.000;
#STOPS:156.000=1.241
,216.500=1.655
,246.500=0.828
;
#BGCHANGES:;

//---------------dance-single - ----------------
#NOTES:
     dance-single:
     :
     Hard:
     8:
     0.375,0.415,0.071,0.045,0.205:
0000
0000
0000
0000
,
0000
0000
0000
0000
,
0000
0000
0000
0000
,
0000
0000
0000
0000
,
0000
0000
0000
0000
,
0000
0000
0000
0000
,
0000
0000
0000
0000
,
0000
0000
0000
0000
,
1000
0001
0100
0001
,
0100
0010
0100
0001
,
1000
0100
1000
0010
,
0100
0001
0100
0010
,
1000
0001
1000
0100
,
1000
0010
1000
0100
,
0010
1000
0001
0010
,
0100
1000
0001
1000
,
1010
0010
0001
0010
,
1000
0100
0001
0100
,
1000
0010
0001
0010
,
1000
0100
0001
0100
,
0010
0001
0010
1000
,
0010
0001
0100
0010
,
1000
1000
1000
1000
,
2002
0000
0000
3003
,
0001
0100
0001
1000
0000
1000
0010
0000
,
0100
0010
1000
0001
0000
0001
0010
0000
,
0010
0100
1000
0100
0000
1000
0010
0000
,
0100
0010
1000
0001
0000
0001
0010
0000
,
0001
1000
0100
1000
0000
0100
0010
0000
,
0100
1000
0010
0100
0000
0010
1000
0000
,
1000
0001
0010
0100
0000
1000
0100
0000
,
0100
0010
0001
0100
0000
0010
1000
0000
,
1000
0001
0010
0001
1000
0010
0100
0000
,
0010
1000
0010
1000
0001
0010
0100
0000
,
0100
0010
0001
1000
0010
0100
0001
0000
,
0001
1000
0100
0010
0001
0010
0100
0000
,
0010
0001
0100
0010
1000
0001
0010
0000
,
0100
1000
0100
0010
0100
1000
0001
0000
,
0100
0010
1000
0001
0010
0001
1000
0000
,
0000
0000
0000
0000
0010
0000
0000
1000
0000
0000
0001
0000
0000
0010
0000
0001
,
0000
0000
1000
0000
0001
0000
0000
0100
0000
0000
0010
0000
0000
0100
0000
0001
,
0000
0000
1000
0000
0010
0000
0000
1000
0000
0000
0100
0000
0000
1000
0000
0001
,
0000
0000
0010
0000
0001
0000
0000
0001
0000
0000
1000
0000
0000
0010
0000
0010
,
0000
0000
0100
0000
0001
0000
0000
0010
0000
0000
0100
0000
0000
0010
0000
0001
,
0000
0000
0100
0000
0010
0000
0000
1000
0000
0000
0001
0000
0000
0010
0000
0100
,
0000
0000
1000
0000
0010
0000
0000
0100
0000
0000
0001
0000
0000
1000
0000
0010
,
0000
0000
0100
0000
0001
0000
0000
1000
0000
0000
0100
0000
0000
0010
0000
0001
,
0000
1000
0001
0000
0101
0000
0000
0100
0000
0000
0010
0000
0000
1000
0000
0010
,
0000
0000
0100
0000
0001
0000
0000
1000
0000
0000
0100
0000
0000
0010
0000
0001
,
0000
0000
1000
0000
0010
0000
0000
0100
0000
0000
0010
0000
0000
1000
0000
0001
,
0000
0000
0010
0000
0001
0000
0000
0100
0000
0000
0010
0000
0000
0100
0000
0010
,
0000
0000
1000
0000
0010
0000
0000
0100
0000
0000
0100
0000
0000
0010
0000
1000
,
0000
0000
0010
0000
0100
0000
0000
0001
0000
0000
0010
0000
0000
0100
0000
0100
,
0000
0000
0010
0000
0001
0000
0000
1000
0000
0000
0010
0000
0000
0100
0000
0100
,
0000
0010
1001
0000
1001
0000
1001
0000
,
1001
0001
1000
0010
,
1000
0001
0010
0001
,
0100
1000
0100
0020
,
1000
1030
0010
0100
,
0010
1000
0001
0010
,
0001
1000
0010
0100
,
0001
0000
1000
0000
0001
1000
0220
0000
,
0330
0000
0000
0000
;

//---------------dance-single - ----------------
#NOTES:
     dance-single:
     :
     Medium:
     5:
     0.306,0.332,0.027,0.027,0.000:
0000
0000
0000
0000
,
0000
0000
0000
0000
,
0000
0000
0000
0000
,
0000
0000
0000
0000
,
0000
0000
0000
0000
,
0000
0000
0000
0000
,
0000
0000
0000
0000
,
0000
0000
0000
0000
,
1000
0001
1000
0001
,
1000
0001
1000
0001
,
1000
0001
1000
0001
,
1000
0001
1000
0001
,
0100
0010
0100
0010
,
0100
0010
0100
0010
,
0100
0010
0100
0010
,
0100
0010
0100
0010
,
1001
0001
1000
0100
,
1000
0001
0100
0001
,
1000
0100
1000
0001
,
0100
0001
1000
0100
,
1000
0001
0010
0001
,
1000
0010
1000
0001
,
0010
0001
1000
0010
,
0200
0000
0000
0300
,
0010
0000
0000
1000
0000
0001
1000
0000
,
1000
0000
0000
0100
0000
0010
0001
0000
,
0001
0000
0000
0100
0000
0010
0100
0000
,
0001
0000
0000
1000
0000
0100
1000
0000
,
0100
0000
0000
1000
0000
0010
0100
0000
,
0010
0000
0000
1000
0000
0001
0100
0000
,
0100
0000
0000
0010
0000
0100
0001
0000
,
1000
0000
0000
0001
0000
0000
1000
0000
,
0001
0000
1000
0000
0100
1000
0100
0000
,
1000
0000
0010
0000
0100
0010
0100
0000
,
0001
0000
0010
0000
0100
1000
0100
0000
,
0100
0000
0010
0000
0001
0010
0001
0000
,
0001
0000
1000
0000
0010
1000
0010
0000
,
0010
0000
0100
0000
0001
0010
0001
0000
,
0001
0000
1000
0000
0010
0100
0001
0000
,
0000
0010
1000
0010
,
0100
0010
1000
0000
0001
0000
0010
0000
,
0001
0010
1000
0000
0010
0000
0001
0000
,
0100
0010
1000
0000
0010
0000
0100
0010
,
1000
0001
0010
0000
0001
0000
1000
0000
,
0001
1000
0100
0000
1000
0000
0010
0000
,
0100
0010
0100
0000
0001
0000
1000
0000
,
0100
1000
0100
0000
1000
0000
0010
0000
,
0100
0001
1000
0000
0001
0000
1000
0000
,
0001
1000
0100
0000
1000
0000
0010
0000
,
0100
0010
0100
0000
0001
0000
0010
0000
,
0100
1000
0010
0000
0100
0000
0001
0000
,
0010
0100
1000
0000
0001
0000
1000
0000
,
0001
0100
0010
0000
1000
0000
0010
0000
,
0100
0010
1000
0000
0001
0000
0010
0000
,
0001
1000
1001
0000
0001
0000
0001
0000
,
0001
1000
1000
1000
,
1000
0010
0010
0010
,
0010
0100
0100
0100
,
0100
0010
1000
0001
,
0010
0001
0100
0010
,
1000
0001
0010
0100
,
1000
0001
1000
2002
,
3003
0000
0000
0000
;

//---------------dance-single - ----------------
#NOTES:
     dance-single:
     :
     Easy:
     3:
     0.195,0.249,0.009,0.018,0.000:
0000
0000
0000
0000
,
0000
0000
0000
0000
,
0000
0000
0000
0000
,
0000
0000
0000
0000
,
0000
0000
0000
0000
,
0000
0000
0000
0000
,
0000
0000
0000
0000
,
0000
0000
0000
0000
,
1000
0000
0001
0000
,
0100
0000
0010
0000
,
1000
0000
0010
0000
,
0100
0000
0001
0000
,
1000
0000
0010
0000
,
1000
0000
0100
0000
,
1000
0000
0001
0000
,
0010
0000
0001
0000
,
0100
0010
1000
0010
,
0100
0010
1000
0001
,
1000
0001
1000
0001
,
1000
0001
1000
0001
,
0100
0100
0010
0010
,
1000
1000
0001
0001
,
0010
0010
0010
0010
,
0000
0000
0000
0000
,
0010
0000
0000
0001
,
1000
0000
0000
0010
,
0100
0000
0000
0010
,
1000
0000
0000
0010
,
0001
0000
0000
0001
,
0100
0000
0000
0100
,
1000
0000
0000
1000
,
0010
0000
0000
0000
,
0100
0000
0000
0010
,
1000
0000
0000
0100
,
0010
0000
0000
0001
,
1000
0000
0000
0010
,
0100
0000
0000
0010
,
1000
0000
0000
0100
,
0010
0000
0000
0001
,
0000
1000
0001
0100
,
0100
0001
1000
0100
,
0100
1000
0001
0100
,
0100
0001
1000
0100
,
0010
0001
1000
0010
,
0010
1000
0001
0010
,
0010
0001
1000
0010
,
0010
1000
0001
0010
,
0100
1000
0001
0100
,
0001
0010
0100
1000
,
0010
1000
0100
0010
,
0001
0100
0001
0010
,
0100
1000
0100
1000
,
0010
0100
0001
0010
,
0100
1000
0100
0010
,
0001
0000
1000
0000
0000
1000
0000
0000
,
1000
0000
0000
1000
0000
0000
1000
0000
,
0000
1000
0000
0000
1000
0000
0000
1000
,
0000
1000
0000
0000
,
0000
0001
0000
1000
,
0000
0010
0000
0100
,
0000
0001
0000
1000
,
0000
0010
0000
2002
,
3003
0000
0000
0000
;

//---------------dance-single - ----------------
#NOTES:
     dance-single:
     :
     Beginner:
     1:
     0.076,0.110,0.018,0.009,0.000: // measure 1
0000
0000
0000
0000
,  // measure 2
0000
0000
0000
0000
,  // measure 3
0000
0000
0000
0000
,  // measure 4
0000
0000
0000
0000
,  // measure 5
0000
0000
0000
0000
,  // measure 6
0000
0000
0000
0000
,  // measure 7
0000
0000
0000
0000
,  // measure 8
0000
0000
0000
0000
,  // measure 9
0010
0000
0000
0000
,  // measure 10
1000
0000
0000
0000
,  // measure 11
1000
0000
0000
0000
,  // measure 12
0001
0000
0000
0000
,  // measure 13
0001
0000
0000
0000
,  // measure 14
0100
0000
0000
0000
,  // measure 15
0100
0000
0000
0000
,  // measure 16
0010
0000
0000
0000
,  // measure 17
0110
0000
0000
0000
,  // measure 18
0100
0000
0000
0000
,  // measure 19
0001
0000
0000
0000
,  // measure 20
1000
0000
0000
0000
,  // measure 21
1000
0000
0000
0000
,  // measure 22
0100
0000
0000
0000
,  // measure 23
0010
0000
0000
0000
,  // measure 24
0001
0000
0000
0000
,  // measure 25
1000
0000
0000
0000
,  // measure 26
1000
0000
0000
0000
,  // measure 27
1000
0000
0000
0000
,  // measure 28
1000
0000
0000
0000
,  // measure 29
0001
0000
0000
0000
,  // measure 30
0001
0000
0000
0000
,  // measure 31
0001
0000
0000
0000
,  // measure 32
0001
0000
0000
0000
,  // measure 33
0100
0000
0000
0000
,  // measure 34
0100
0000
0000
0000
,  // measure 35
0100
0000
0000
0000
,  // measure 36
0100
0000
0000
0000
,  // measure 37
0010
0000
0000
0000
,  // measure 38
0010
0000
0000
0000
,  // measure 39
0010
0000
0000
0000
,  // measure 40
0000
0010
0000
0000
,  // measure 41
0000
1000
0000
0000
,  // measure 42
0000
0001
0000
0000
,  // measure 43
0000
1000
0000
1000
,  // measure 44
0000
1000
0000
0000
,  // measure 45
0000
0010
0000
0000
,  // measure 46
0000
0100
0000
0000
,  // measure 47
0000
0001
0000
0001
,  // measure 48
0000
0001
0000
0000
,  // measure 49
0000
0100
0000
0000
,  // measure 50
0000
0010
0000
0000
,  // measure 51
0000
0100
0000
0100
,  // measure 52
0000
0100
0000
0000
,  // measure 53
0000
0010
0000
0000
,  // measure 54
0000
1000
0000
0000
,  // measure 55
0000
1000
0000
0000
,  // measure 56
0000
0001
0000
0000
,  // measure 57
0000
0100
0000
0000
,  // measure 58
0000
0010
0000
0000
,  // measure 59
0000
0110
0000
0000
,  // measure 60
0000
0010
0000
0000
,  // measure 61
0000
1000
0000
0000
,  // measure 62
0000
0002
0000
0003
;
