#TITLE:I'm Not Alone;
#SUBTITLE:;
#ARTIST:Calvin Harris;
#TITLETRANSLIT:;
#SUBTITLETRANSLIT:;
#ARTISTTRANSLIT:;
#CREDIT:;
#BANNER:bn.png;
#BACKGROUND:bg.png;
#LYRICSPATH:;
#CDTITLE:;
#MUSIC:I'm Not Alone.mp3;
#OFFSET:0.333;
#SAMPLESTART:66.524;
#SAMPLELENGTH:12.000;
#SELECTABLE:YES;
#BPMS:0.000=65.500,64.000=65.000,65.000=131.000;
#STOPS:;
#BGCHANGES:;

//---------------dance-single - ----------------
#NOTES:
     dance-single:
     :
     Hard:
     7:
     0.276,0.399,0.076,0.177,0.203: // measure 1
0000
0000
0000
0000
,  // measure 2
0000
0000
0000
0000
,  // measure 3
0000
0000
0001
0000
1000
0001
0100
0000
,  // measure 4
0000
0000
0010
0000
0010
1000
0100
0000
,  // measure 5
0000
0000
1001
0001
0100
0010
0020
0000
,  // measure 6
0030
0000
0110
0010
1000
0100
0020
0000
,  // measure 7
0030
0000
0001
0100
0010
1000
0100
1000
,  // measure 8
0010
0200
0000
0300
0000
0000
0000
0000
,  // measure 9
0000
0000
0000
0000
0001
0000
0000
0100
0000
0000
0020
0000
0000
0000
0030
0000
,  // measure 10
0000
0000
0010
0000
1000
0000
0000
0100
0000
0000
0020
0000
0000
0000
0030
0000
,  // measure 11
0000
0001
0100
0001
0010
0000
0000
0100
0000
0000
2000
0000
0000
0000
3000
0001
,  // measure 12
0100
0020
2000
0000
0000
0000
0000
0000
0000
0000
0000
0000
3030
0000
0000
0000
,  // measure 13
0000
0000
0000
0000
0000
0000
0000
0000
0001
0000
0000
0010
0000
0000
0100
0000
0000
1000
0000
0000
1000
0000
0000
0000
0000
0000
0000
0000
0000
0000
0000
0000
,  // measure 14
0010
0000
0000
0100
0000
0000
0010
0000
1000
0000
0000
0001
0000
0000
0010
0000
0000
0001
0000
0000
0100
0000
0000
0000
0000
0000
0000
0000
0000
0000
0000
0000
,  // measure 15
0010
0000
0000
1000
0000
0000
0001
0000
0010
0000
0000
0010
0000
0000
0100
0000
0000
0100
0000
0000
1000
0000
0000
0000
0000
0000
0000
0000
0000
0000
0000
0000
,  // measure 16
1000
0000
0000
0010
0000
0000
0100
0000
0001
0000
0000
0010
0000
0000
0100
0000
0000
1000
0000
0000
0001
0000
0000
0000
1000
0000
0000
0000
0001
0000
0000
0000
,  // measure 17
0110
0000
0101
0000
1010
0000
0000
1000
0000
0000
0001
0000
0000
0010
0000
0000
,  // measure 18
0100
0000
0000
0000
0000
0000
0000
0000
0000
0000
0000
0000
0100
0000
0000
0010
,  // measure 19
0000
0000
0001
0000
0100
0000
0000
0010
0000
0000
1000
0000
0000
0100
0000
0000
,  // measure 20
0001
0000
0000
0000
0000
0000
0000
0000
0000
0000
0000
0000
0001
0000
0000
0100
,  // measure 21
0000
0000
1000
0000
0010
0000
0000
0100
0000
0000
0010
0000
0000
1000
0000
0000
,  // measure 22
0002
0000
0000
0003
0000
0000
0000
0000
0000
0000
0000
0000
0001
0000
0000
0100
,  // measure 23
0000
0000
0010
0000
1000
0000
0000
0100
0000
0000
0010
0000
0000
0100
0000
0000
,  // measure 24
2000
0000
0000
3000
0000
0000
0000
0000
0000
0000
0000
0000
0001
0000
0000
0100
,  // measure 25
0000
0010
1000
0100
0010
0100
2000
0000
,  // measure 26
3001
0000
0000
0000
0000
0001
0001
0100
,  // measure 27
0010
1000
0001
0100
0020
0000
0000
0000
,  // measure 28
0000
0030
0000
0000
,  // measure 29
0000
0000
0001
0100
0001
0010
0001
0100
,  // measure 30
0001
0010
0000
0000
0000
0100
1000
0100
,  // measure 31
0010
0100
1000
0002
0020
0000
0000
0000
,  // measure 32
0033
0000
0000
0000
,  // measure 33
0000
0000
0001
1000
0100
1000
0001
0100
,  // measure 34
0001
0010
0000
0000
0000
0010
0100
1000
,  // measure 35
0100
0010
0001
0100
0020
0000
0000
0000
,  // measure 36
0030
0000
0000
0000
,  // measure 37
0000
0000
0010
0010
1000
0001
0001
0010
,  // measure 38
0100
0100
0000
0000
0000
0100
1000
0010
,  // measure 39
0100
0010
1000
0001
0020
0000
0000
0000
,  // measure 40
0030
0000
0000
0000
,  // measure 41
0000
0000
0000
0000
0120
0000
0000
0100
0000
0000
0100
0000
0000
0100
0000
0000
,  // measure 42
0130
0000
0000
0000
0000
0000
0000
0000
0000
0000
0000
0000
1000
0000
0000
0010
,  // measure 43
0000
0000
0100
0000
0102
0000
0000
0100
0000
0000
0100
0000
0000
0100
0000
0000
,  // measure 44
0103
0000
0000
0000
0000
0000
0000
0000
0000
0000
0000
0000
0010
0000
0000
1000
,  // measure 45
0000
0000
0100
0000
1200
0000
0000
1000
0000
0000
1000
0000
0000
1000
0000
0000
,  // measure 46
1300
0000
0000
0000
0000
0000
0000
0000
0000
0000
0000
0000
1000
0000
0000
0100
,  // measure 47
0000
0000
0010
0000
0021
0000
0000
0001
0000
0000
0001
0000
0000
0001
0000
0000
,  // measure 48
0002
0033
0000
0000
;

//---------------dance-single - ----------------
#NOTES:
     dance-single:
     :
     Medium:
     3:
     0.181,0.258,0.068,0.313,0.000:
0000
0000
0000
0000
,
0000
0000
0000
0000
,
0000
0000
1000
0000
0000
0001
0100
0000
,
0000
0000
0001
0000
0000
0100
0010
0000
,
0000
0000
0100
0000
0000
0010
1000
0000
,
0000
0000
0001
0000
0000
0100
0010
0000
,
0000
0000
1000
0000
0000
0001
1000
0000
,
0000
0000
0100
0000
0000
0010
0100
0000
,
0000
2000
0000
3000
,
0000
0002
0000
0003
,
0000
0200
0000
0300
,
0000
0020
0000
0030
,
0000
0000
0202
0000
0000
0303
0000
0000
,
0001
0000
0220
0000
0000
0330
0000
0000
,
0100
0000
2020
0000
0000
3030
0000
0000
,
0100
0000
2002
0000
0000
3003
0001
1000
,
0001
0100
0020
0000
2030
0000
3200
0000
,
0310
0000
0000
0010
,
0100
2000
3020
0230
,
0301
0000
0000
0001
,
1000
0002
0023
0230
,
0310
0000
0000
0100
,
0010
0002
2003
3020
,
0130
0000
0000
0100
,
0010
1000
0001
0100
,
0010
1000
0000
0000
0000
1000
0001
0000
,
0010
0000
0100
2000
0020
0000
0000
0000
,
3030
0000
0000
0000
,
0000
0100
0010
1000
,
0001
0010
0000
0000
0000
0010
0100
0000
,
1000
0000
0001
1000
0002
0000
0000
0000
,
0003
0000
0000
0000
,
0000
0001
0100
1000
,
0100
0000
0000
0010
,
1000
0000
0010
0001
0020
0000
0000
0000
,
0030
0000
0000
0000
,
0000
0100
0001
1000
,
0100
1000
0000
0000
0000
1000
0100
0000
,
0010
0001
0200
0000
,
0000
0300
0000
0000
,
0000
0202
0000
0000
,
0303
0000
0000
0010
,
0000
2002
0000
0000
,
3003
0000
0000
1000
,
0000
2200
0000
0000
,
3300
0000
0000
0100
,
0000
0220
0000
0000
,
0330
0000
0000
0000
;

//---------------dance-single - ----------------
#NOTES:
     dance-single:
     :
     Easy:
     2:
     0.119,0.159,0.008,0.076,0.000:
0000
0000
0000
0000
,
0000
0000
0000
0000
,
0000
0000
0000
0000
,
0000
0000
0000
0000
,
0000
0000
0001
0000
0000
0001
1000
0000
,
0000
0000
1000
0000
0000
1000
0001
0000
,
0000
0000
0100
0000
0000
0010
0100
0000
,
0000
0000
0100
0000
0000
0010
1000
0000
,
0000
0002
0000
0000
,
0003
2000
0000
0000
,
3000
0020
0000
0000
,
0030
0200
0000
0300
,
0000
0000
2020
0000
0000
3030
0000
0000
,
0010
0000
0200
0000
0000
0300
0000
0000
,
0100
0000
0002
0000
0000
0003
0000
0000
,
0001
0000
2000
0000
0000
3000
0000
0000
,
0000
1000
0000
0001
,
0000
0000
0000
0001
,
0000
1000
0000
0010
,
0000
0000
0000
0100
,
0000
0010
0000
1000
,
0000
0000
0000
1000
,
0000
0001
0000
0010
,
0000
0000
0000
0100
,
0000
0010
0001
1000
,
0100
0000
0000
0100
,
1000
0010
0100
0000
,
0000
0000
0000
0000
,
0000
0001
1000
0001
,
1000
0000
0000
0001
,
0100
0010
0010
0000
,
0000
0000
0000
0000
,
0000
0010
0100
0001
,
1000
0000
0000
1000
,
0010
0100
0100
0000
,
0000
0000
0000
0000
,
0000
0010
1000
0010
,
0100
0000
0000
0100
,
0010
1000
0001
0000
,
0000
0000
0000
0000
,
0000
0001
1000
0100
,
0100
0000
0000
0100
,
0100
1000
0001
1000
,
0010
0000
0000
0010
,
0010
0100
0010
0100
,
0001
0000
0000
0100
,
0010
0100
0010
1000
,
0100
0000
0000
0000
;

//---------------dance-single - ----------------
#NOTES:
     dance-single:
     :
     Beginner:
     1:
     0.045,0.097,0.000,0.000,0.000:
0000
0000
0000
0000
,
0000
0000
0000
0000
,
1000
0000
0000
0000
,
0001
0000
0000
0000
,
0100
0000
0000
0000
,
0010
0000
0000
0000
,
1000
0000
0000
0000
,
0001
0000
0000
0000
,
0100
0000
0000
0000
,
0100
0000
0000
0000
,
0010
0000
0000
0000
,
1000
0000
0000
0000
,
0001
0000
0000
0001
,
1000
0000
0000
1000
,
0100
0000
0000
0100
,
0010
0000
0000
0000
,
0001
0000
0000
0000
,
0000
0000
1000
0000
,
1000
0000
0000
0000
,
0000
0000
0010
0000
,
0010
0000
0000
0000
,
0000
0000
0100
0000
,
0100
0000
0000
0000
,
0000
0000
0010
0000
,
1000
0000
0000
0000
,
0000
0000
0000
0000
,
0001
0000
0000
0000
,
0000
0000
0000
0000
,
0100
0000
0000
0000
,
0000
0000
0000
0000
,
0010
0000
0000
0000
,
0000
0000
0000
0000
,
1000
0000
0000
0000
,
0000
0000
0000
0000
,
0001
0000
0000
0000
,
0000
0000
0000
0000
,
1000
0000
0000
0000
,
0000
0000
0000
0000
,
0100
0000
0000
0000
,
0000
0000
0000
0000
,
0010
0000
0000
0000
,
0000
0000
0000
0000
,
0001
0000
0000
0000
,
0000
0000
0000
0000
,
1000
0000
0000
0000
,
0000
0000
0000
0000
,
0010
0000
0000
0000
;
