#TITLE:I Dare You;
#SUBTITLE:;
#ARTIST:Mirrored Theory;
#TITLETRANSLIT:;
#SUBTITLETRANSLIT:;
#ARTISTTRANSLIT:;
#GENRE:DRUM N BASS;
#CREDIT:;
#BANNER:IDYbn.png;
#BACKGROUND:IDY.png;
#LYRICSPATH:;
#CDTITLE:;
#MUSIC:I Dare You.mp3;
#OFFSET:-0.043;
#SAMPLESTART:33.900;
#SAMPLELENGTH:12.000;
#SELECTABLE:YES;
#BPMS:0.000=85.000
,32.000=170.000
,224.000=85.000
;
#STOPS:;
#BGCHANGES:;
#KEYSOUNDS:;
#ATTACKS:;

//---------------dance-single - ----------------
#NOTES:
     dance-single:
     :
     Hard:
     7:
     0.465,0.554,0.302,0.415,0.035,294.000,35.000,48.000,0.000,0.000,0.000,0.465,0.554,0.302,0.415,0.035,294.000,35.000,48.000,0.000,0.000,0.000:
0000
0000
0000
0000
,
0000
0000
0000
0000
,
0000
0000
0000
0000
,
0000
0000
0000
0000
,
0010
0000
1000
0000
0001
0000
0010
0000
0100
0000
0010
0000
0001
0100
0000
0000
,
1001
0000
1000
0000
0100
0000
0010
0000
0100
0000
1000
0000
0001
0010
0000
0000
,
1100
0000
1000
0000
0001
0000
0010
0000
0100
0000
1000
0000
0001
0100
0000
0000
,
0110
0000
0100
0000
0110
0000
0010
0000
1000
0000
0001
0000
0100
0010
0000
0000
,
0010
0100
1000
0000
,
1000
0100
0001
0010
,
0001
0010
0100
0000
,
0100
0010
0001
0100
,
0010
1000
0100
0000
,
0100
1000
0010
0100
,
0001
0101
0000
0101
0000
1010
0000
1010
,
1000
0010
0100
0001
0010
0100
1000
0000
,
0011
0000
0001
0000
0100
0010
1000
0000
,
1000
0001
0010
0100
0020
0000
0032
0000
,
0103
0000
0110
0000
0010
1000
0100
0000
,
0010
0001
0010
0001
0020
0000
0230
0000
,
1300
0000
0011
0000
0001
0100
0010
0000
,
1000
0001
0010
0001
0200
0000
0320
0000
,
1030
0001
1000
0001
1000
0001
1000
0001
,
2000
0000
0200
3300
,
0010
0100
0010
0001
0200
0000
0000
0000
,
0000
0000
0000
0000
0300
0110
0000
0000
,
0100
0010
1000
0100
0020
0000
0000
0000
,
0230
0000
0000
2300
,
3001
1000
0100
0010
0200
0000
0000
0000
,
0000
0000
0000
0000
0300
1100
0000
0000
,
1000
0001
0010
0100
0020
0000
0000
0000
,
0031
0010
0011
0000
1000
0010
1010
0000
,
1000
0000
0001
0000
0010
0100
1000
0000
,
0100
0000
1000
0000
0010
0100
1000
0000
,
1000
0000
0100
0000
0001
0010
0100
0000
,
0010
0001
0010
0000
1000
0100
1000
0000
,
0001
0000
0100
0000
0010
1000
0100
0000
,
0010
0000
0001
0000
0010
0100
1000
0000
,
1000
0000
0001
0000
0100
0001
0010
0000
,
0001
0010
0001
0000
1000
0100
1000
0000
,
1001
0000
0001
0100
0020
0000
0130
0010
,
2000
0000
3001
0010
0200
0000
1300
0100
,
0000
0010
0002
0000
0203
0000
0300
0000
,
0020
0000
2030
0000
3200
0000
0310
0001
,
0200
0000
0320
2030
,
3200
0000
2300
0000
3020
0000
0130
0001
,
0000
0001
0020
0000
0130
0000
0100
1000
,
0010
0200
0002
0303
,
1001
0000
1000
0010
0200
0000
0310
0100
,
0002
0000
1003
0100
0020
0000
0031
0010
,
0000
0100
2000
0000
3020
0000
0030
0000
,
0200
0000
0302
0000
0023
0000
0130
1000
,
0020
0000
0230
0302
,
0023
0000
0032
0000
0203
0000
0310
1000
,
0000
1000
0200
0000
0310
0000
0010
0001
,
0100
0020
2000
3030
,
0101
0101
0000
0000
0000
0000
0000
0000
,
1100
1100
0000
0000
,
0101
1010
0000
0000
0000
0000
0000
0000
,
0110
1001
0000
0000
,
0101
0000
0101
0000
0001
0000
0100
0000
0010
0000
1000
0000
0100
1000
0000
0000
,
1100
0000
1000
0000
1100
0000
0100
0000
0010
0000
0100
0000
0010
1000
0000
0000
,
1001
0000
1001
0000
0001
0000
0100
0000
0010
0000
1000
0000
0100
0010
0000
0000
,
0011
0000
0010
0000
0011
0000
0001
0000
0010
0000
0100
0000
0100
1000
0000
0000
,
1100
0011
0000
0000
0000
0000
0000
0000
;

//---------------dance-single - ----------------
#NOTES:
     dance-single:
     :
     Medium:
     6:
     0.357,0.416,0.242,0.277,0.000,229.000,28.000,32.000,0.000,0.000,0.000,0.357,0.416,0.242,0.277,0.000,229.000,28.000,32.000,0.000,0.000,0.000:
0000
0000
0000
0000
,
0000
0000
0000
0000
,
0000
0000
0000
0000
,
0000
0000
0000
0000
,
1001
0101
0000
0000
0000
0000
0000
0000
,
0110
1001
0000
0000
,
1100
0011
0000
0000
0000
0000
0000
0000
,
0101
1001
0000
0000
,
1000
0010
0200
0000
,
0310
1000
0001
0010
,
0100
1000
0020
0000
,
0130
0010
1000
0001
,
0010
0001
0200
0000
,
0310
1000
0001
0010
,
0002
0203
0320
2030
,
3100
1000
0010
0100
0001
0010
0100
0000
,
0010
0001
0100
1000
,
0100
0010
0100
0010
0100
0000
0010
0000
,
1000
0001
0010
1000
,
0010
0100
0010
0100
0010
0000
0001
0000
,
1000
0010
0001
0010
,
0100
0010
0100
0010
0100
0000
0010
0000
,
1000
0100
0010
0001
,
0012
0103
2010
3100
,
1000
0100
0020
0100
,
0130
0010
0001
0101
,
0001
0100
0020
0100
,
0130
0010
1000
0000
1000
0001
0010
0000
,
0100
0010
0002
0100
,
0103
0010
1000
1001
,
1000
0100
0020
0130
,
0100
1000
1010
0000
1000
0001
1001
0000
,
0002
0000
0103
0000
0010
0100
1000
0000
,
2000
0000
3100
0000
0100
0010
1000
0000
,
0002
0000
0013
0000
0001
1000
0100
0000
,
2000
0000
3010
0000
0100
0010
1000
0000
,
0002
0000
0013
0000
0001
1000
0100
0000
,
2000
0000
3010
0000
0100
0010
1000
0000
,
0002
0013
0020
0130
,
0010
0100
1000
0001
0100
0001
0020
0000
,
0031
0000
0001
0100
,
2000
0000
3000
0100
,
0000
0010
0100
0000
,
0010
0000
1000
0000
0001
0000
0010
0200
,
0000
0000
0000
0300
1000
0000
0100
0000
,
0020
0000
0000
0000
0000
0000
0000
0130
,
0000
0100
1000
0000
0010
0000
0000
0000
,
0100
0002
2000
3003
,
1001
0010
1001
0001
,
0200
0000
0000
0310
,
0000
1000
0100
0000
1000
0000
0000
0000
,
1000
0000
0100
0000
0010
0000
0002
0200
,
0000
0303
0001
0100
,
0020
0000
0000
0000
0030
0000
0000
0100
,
0000
0010
1000
0000
0001
0000
0000
0000
,
1000
0100
0020
0000
,
0031
0001
0000
0000
0000
0000
0000
0000
,
0011
1010
0000
0000
,
0010
0010
0000
0000
0000
0000
0000
0000
,
0110
0101
0000
0000
,
0001
1000
0100
0000
1000
0000
0010
0000
,
0110
1001
0001
0100
,
1010
0101
0001
0000
0100
0000
1000
0000
,
1100
0110
0010
1000
,
1001
1001
0000
0000
0000
0000
0000
0000
;

//---------------dance-single - ----------------
#NOTES:
     dance-single:
     :
     Easy:
     4:
     0.207,0.249,0.026,0.337,0.000,126.000,3.000,39.000,0.000,0.000,0.000,0.207,0.249,0.026,0.337,0.000,126.000,3.000,39.000,0.000,0.000,0.000:
0000
0000
0000
0000
,
0000
0000
0000
0000
,
0000
0000
0000
0000
,
0000
0000
0000
0000
,
0001
0001
0000
0000
0000
0000
0000
0000
,
1000
1000
0000
0000
,
0100
0100
0000
0000
0000
0000
0000
0000
,
0010
0010
0000
0000
,
0001
0100
0020
0000
,
0130
0000
0100
0000
,
0010
1000
0200
0000
,
1300
0000
1000
0000
,
1000
0010
0200
0000
,
0310
0000
0100
0000
,
0020
0000
0000
0000
,
2030
0000
0200
3300
,
1000
0000
0000
0000
,
1000
0100
0020
0002
,
0033
0000
0000
0000
,
0001
0100
0020
0200
,
0330
0000
0000
0000
,
0010
1000
0200
0320
,
0002
0000
0000
0030
,
0200
0003
0020
0330
,
0010
2000
0200
0000
,
0000
0000
0000
0000
0000
3300
0000
0000
,
1000
0020
0200
0000
,
0000
0000
0000
0330
,
0010
2000
0002
0000
,
0000
0000
0000
0000
0000
3003
0000
0000
,
0001
0200
0020
0300
,
0100
0000
0100
0000
,
0230
0000
0320
0000
,
0000
0000
0000
1030
,
0002
0000
1000
0000
,
2000
0000
0000
3003
,
0001
1000
0020
0000
,
0000
0000
0000
1030
,
0200
0000
2300
0000
,
0020
0000
0000
3030
,
1010
0000
0010
1000
,
0002
0000
0000
0000
0003
0000
0000
1000
,
0000
0001
0100
0000
,
0010
0000
0100
0000
0010
0000
1000
0020
,
0000
0000
0130
0010
,
2000
0000
0000
0000
0000
0000
3000
0001
,
0000
1000
0001
0000
,
0100
0001
0020
0000
,
0130
1000
0100
1000
,
0020
0000
0030
0000
,
0100
0010
1000
0000
,
1000
0000
0001
0000
0010
0000
0001
0020
,
0000
0000
0130
1000
,
0200
0000
0000
0300
,
0010
0001
1000
0000
,
0001
1000
0020
0000
,
0130
0000
0000
0000
,
0010
0000
0000
0000
,
1000
0000
0000
0000
,
0001
0000
0000
0000
,
0001
0100
0000
0000
0000
0000
0000
0000
,
0010
1000
0000
0000
,
0100
0010
0000
0000
0000
0000
0000
0000
,
0001
1000
0000
0000
,
0110
1001
0000
0000
0000
0000
0000
0000
;

//---------------dance-single - ----------------
#NOTES:
     dance-single:
     :
     Beginner:
     2:
     0.126,0.166,0.069,0.069,0.000,86.000,8.000,8.000,0.000,0.000,0.000,0.126,0.166,0.069,0.069,0.000,86.000,8.000,8.000,0.000,0.000,0.000: // measure 0
0000
0000
0000
0000
,  // measure 1
0000
0000
0000
0000
,  // measure 2
0000
0000
0000
0000
,  // measure 3
0000
0000
0000
0000
,  // measure 4
1001
0000
0000
0000
,  // measure 5
0010
0010
0000
0000
,  // measure 6
1001
0000
0000
0000
,  // measure 7
0100
0100
0000
0000
,  // measure 8
0010
0000
0000
0000
,  // measure 9
1000
0000
0000
0000
,  // measure 10
0001
0000
0000
0000
,  // measure 11
1000
0000
0000
0000
,  // measure 12
0010
0000
0000
0000
,  // measure 13
0100
0000
0000
0000
,  // measure 14
0020
0000
0000
0000
,  // measure 15
0130
0000
0100
0000
,  // measure 16
0110
0000
0000
0000
,  // measure 17
0010
0000
1000
0000
,  // measure 18
0001
0000
0000
0000
,  // measure 19
0001
0000
1000
0000
,  // measure 20
0010
0000
0000
0000
,  // measure 21
1000
0000
0010
0000
,  // measure 22
0200
0000
0000
0000
,  // measure 23
0020
0000
0000
0330
,  // measure 24
0010
0010
0020
0000
,  // measure 25
0000
0000
0030
0000
,  // measure 26
0100
0100
0200
0000
,  // measure 27
0300
0000
0000
0000
,  // measure 28
0001
0001
0002
0000
,  // measure 29
0000
0000
0000
0000
0000
0003
0000
0000
,  // measure 30
1000
1000
2000
0000
,  // measure 31
0002
0000
0000
3003
,  // measure 32
0001
0000
0001
0000
,  // measure 33
0000
0000
0000
1000
,  // measure 34
1000
0000
0010
0000
,  // measure 35
0000
0000
0000
0100
,  // measure 36
0100
0000
0010
0000
,  // measure 37
0000
0000
0000
1000
,  // measure 38
1000
0000
0000
0000
,  // measure 39
0001
0000
0000
0000
,  // measure 40
1000
0000
0000
0000
,  // measure 41
0001
0000
0000
0000
,  // measure 42
0010
0000
0000
0000
,  // measure 43
0100
0000
1000
0000
,  // measure 44
0010
0000
0000
0000
,  // measure 45
0100
0000
0000
0000
,  // measure 46
0010
0000
0000
0000
,  // measure 47
1000
1000
1000
0000
,  // measure 48
0001
0000
0000
0000
,  // measure 49
1000
0000
0000
0000
,  // measure 50
0010
0000
0000
0000
,  // measure 51
0100
0100
0100
0000
,  // measure 52
0010
0000
0000
0000
,  // measure 53
1000
0000
0000
0000
,  // measure 54
0001
0000
0000
0000
,  // measure 55
0010
0010
0010
0000
,  // measure 56
0110
0000
0000
0000
,  // measure 57
0001
0001
0000
0000
,  // measure 58
0110
0000
0000
0000
,  // measure 59
1000
1000
0000
0000
,  // measure 60
1001
0000
0000
0000
,  // measure 61
0010
0010
0000
0000
,  // measure 62
1001
0000
0000
0000
,  // measure 63
0100
0100
0000
0000
,  // measure 64
1001
0000
0000
0000
;
