#TITLE:F;
#SUBTITLE:;
#ARTIST:D.J. Amuro;
#TITLETRANSLIT:;
#SUBTITLETRANSLIT:;
#ARTISTTRANSLIT:;
#CREDIT:;
#BANNER:bn.png;
#BACKGROUND:bg.png;
#LYRICSPATH:;
#CDTITLE:;
#MUSIC:01 F.mp3;
#OFFSET:-6.626;
#SAMPLESTART:33.120;
#SAMPLELENGTH:12.000;
#SELECTABLE:YES;
#BPMS:0.000=154.000;
#STOPS:;
#BGCHANGES:;

//---------------dance-single - ----------------
#NOTES:
     dance-single:
     :
     Hard:
     9:
     0.523,0.496,0.280,0.115,0.140:
1001
0001
0101
0100
,
0110
0010
1010
1000
,
1001
0001
0011
0001
,
1001
0000
1000
0000
1010
0000
0010
0100
,
0101
0000
0001
0000
0100
0000
0010
1000
,
1010
0000
1000
0000
0001
0000
0001
0010
,
0110
0000
0010
1000
0110
0000
0010
1000
,
1001
0101
0011
1001
,
0020
0000
0000
0030
,
0100
0000
0001
0100
0000
0000
0010
1000
0000
0000
1000
0100
0000
0000
0100
0010
,
0000
0000
0010
0001
0000
0000
0001
0100
0000
0000
0010
1000
0000
0000
1000
0001
,
0000
0000
0001
0010
0000
0000
0010
0100
0000
0000
0100
1000
0000
0000
1000
0010
,
0000
0000
0010
0100
0000
0000
0100
0001
0000
0000
0001
1000
0000
0000
1000
0010
,
0100
0000
0010
1000
0000
0000
0010
0100
0000
0000
0100
0001
0000
0000
0001
0010
,
0000
0000
0010
0100
0000
0000
0100
0010
0000
0000
0010
0001
0000
0000
0001
1000
,
0000
0000
0100
0010
0000
0000
1000
0001
0000
0000
0010
0100
0000
0000
1000
0010
,
0000
0000
0100
0001
0000
0000
0001
0010
0000
0000
0010
0100
0000
0000
0100
1000
,
0200
1000
0010
1300
,
1000
0100
0001
0100
0010
0001
0100
1000
,
0200
0000
0000
0000
0000
0000
0310
0000
1000
0000
0000
0001
0000
0000
0010
0000
,
0200
1000
0010
1000
,
0310
0001
0100
0010
,
0100
0001
0010
0001
0100
0010
1000
0100
,
0020
0000
0000
0001
0000
0000
0031
0200
,
0020
0000
0000
0330
,
0010
0100
0001
1000
0001
1000
0100
0000
,
0010
0001
0010
0100
1000
0001
0100
0000
,
0001
1000
0001
1000
0001
1000
0001
1000
,
0001
1000
0001
0100
1000
0010
0001
0000
,
0001
1000
0010
0100
1000
0100
0010
0000
,
0010
0100
0010
0100
0001
1000
0100
0010
,
0100
1000
0100
1000
0100
1000
0100
1000
,
2002
0000
0000
3003
,
0001
0100
0010
1000
0100
0010
0100
1000
,
0010
0100
0001
0010
1000
0010
0100
0010
,
0100
0010
0001
0010
0100
1000
0100
0010
,
0001
1000
0010
0100
1000
0100
0010
0000
,
0100
1000
0100
0001
0100
1000
0100
0000
,
0001
0010
1000
0010
0001
0010
1000
0000
,
0010
0010
0001
0001
1000
1000
0001
1000
,
0010
0100
0001
0010
0100
0010
0001
0000
,
0101
0000
1001
0000
,
1100
0000
1010
0000
,
0101
0000
1100
0000
,
0101
0000
1001
0000
,
0101
0100
1001
0010
,
0011
0100
1010
0001
,
0110
0001
1100
0010
,
0101
0010
1100
1000
,
0001
0100
0010
0100
0010
0100
0001
1000
,
0010
0100
0010
1000
0100
0010
0100
1000
,
0010
0100
0010
1000
0001
0010
0100
0010
,
0001
0100
0010
1000
0100
0010
0100
0000
,
0100
1000
0010
0100
0001
0010
0100
1000
,
0100
1000
0010
0100
0001
0010
0100
1000
,
0100
1000
0010
0100
0001
1000
0001
0010
,
0100
1000
0100
0010
0100
0010
0001
1000
,
1002
1000
1000
1000
,
1003
0100
0001
0100
1000
0100
1000
0200
,
0000
0000
0000
0000
0000
0000
0310
0000
0100
0000
0000
1000
0000
0000
0002
0000
,
2000
0000
0000
3003
,
0001
0100
0010
1000
,
1000
0010
0100
0001
0010
0100
1000
0001
,
1000
0100
1000
0100
1000
0100
1000
0100
,
0001
0100
0001
0100
0001
0100
0001
0100
,
1000
0100
0001
0100
1000
0100
0001
0100
,
0020
0000
0000
0000
,
0130
0000
0000
0000
;

//---------------dance-single - ----------------
#NOTES:
     dance-single:
     :
     Medium:
     6:
     0.395,0.414,0.338,0.189,0.008:
1001
0000
0110
0000
,
0101
0000
1010
0000
,
1100
0000
0110
0000
,
1100
0000
0000
0000
0101
0000
0000
0001
,
1001
0000
0000
0000
0000
0000
0000
0100
,
0110
0000
0000
0000
0000
0000
0000
0001
,
1001
0000
0000
0010
0110
0000
0000
0001
,
1001
0110
1001
0110
,
0002
0000
0000
0003
,
0100
0001
0000
0100
0000
1000
0000
0100
,
0000
0010
1000
0000
0010
0100
0000
0010
,
1000
0000
0001
0000
0000
1000
0000
0100
,
1000
0100
1000
0010
,
0100
0000
0010
0000
1000
0001
0100
0001
,
0100
0000
0010
0000
0100
0010
1000
0010
,
0100
0000
0010
0000
1000
0001
1000
0000
,
0100
0100
0010
0010
,
0002
0000
0000
0010
,
0013
0100
1000
0100
1000
0010
0100
0020
,
0000
0000
0000
0000
0000
0000
1030
0000
0001
0000
0000
1000
0000
0000
1000
0000
,
0002
0000
0000
0003
,
0000
1000
0100
0010
,
0000
0000
0010
0100
1000
0010
0100
0001
,
2000
0000
0000
3002
0000
0000
0203
0000
,
0020
0000
0000
0330
,
0010
0000
0010
0000
0100
0010
1000
0000
,
0001
0000
1000
0000
1000
0100
0001
0000
,
0100
0100
0100
0100
,
0100
0000
0100
0010
0010
0100
1000
0000
,
0100
1000
0010
0000
0100
0000
0110
0000
,
0010
1000
0001
0000
0010
0000
0110
0000
,
0100
0010
0001
1000
,
0020
0000
0000
0030
,
0100
0001
1000
0000
0100
0000
1000
0000
,
0010
0100
0001
0000
1000
0000
0001
0000
,
0010
0100
1000
0000
0100
1000
0010
0000
,
0100
0010
1000
0001
0010
0100
1000
0000
,
0100
0000
1000
0010
0100
0000
0101
0000
,
0001
0000
0001
0010
0100
0000
0011
0000
,
0001
1000
0001
0000
0100
0001
0100
0000
,
0010
1000
0100
0010
,
0011
0000
1100
0000
,
0101
0000
1010
0000
,
0011
0000
1100
0000
,
1010
0000
0101
0000
,
1001
1000
1001
0001
,
1001
1000
1001
0001
,
1001
1000
1001
0001
,
1001
1000
1001
0001
,
0001
0100
0010
0000
0100
0000
0110
0000
,
0010
1000
0100
0000
0010
0000
0110
0000
,
0100
1000
0100
0000
0100
0010
0100
0000
,
0010
0001
0010
0000
0001
0000
0101
0000
,
0001
0100
1000
0000
0100
0000
0110
0000
,
0010
1000
0001
0000
1000
0000
1100
0000
,
1000
0100
0010
0001
0010
0100
1000
0010
,
0100
0000
1000
0000
0100
0001
0010
1000
,
0020
0000
0000
0001
,
0031
0010
0100
0010
0001
0010
0100
0020
,
0000
0000
0000
0000
0000
0000
0130
0000
0010
0000
0000
1000
0000
0000
0002
0000
,
2000
0000
0000
3003
,
0000
0001
0100
0010
,
0000
0100
0010
1000
0001
0010
0100
1000
,
0200
0000
0000
2300
0000
0000
3020
0000
,
0230
0000
0000
0302
0000
0000
0023
0000
,
0032
0000
0000
0203
0000
0000
1300
0200
,
0020
0000
0000
0000
,
0330
0000
0000
0000
;

//---------------dance-single - ----------------
#NOTES:
     dance-single:
     :
     Easy:
     3:
     0.268,0.331,0.140,0.140,0.000:
0001
0000
0100
0000
,
1000
0000
0100
0000
,
0010
0000
1000
0000
,
0100
0000
1000
0000
,
1001
0000
0000
0000
,
0110
0000
0000
0000
,
1001
0000
0110
0000
,
1001
0110
1001
0110
,
0000
0000
0000
0000
,
0100
0010
0100
0010
,
1000
0001
1000
0001
,
1000
0100
1000
0100
,
0010
0001
0010
0001
,
0010
0100
0010
0001
,
0100
1000
0100
0010
,
1000
0001
1000
0010
,
1000
0001
0010
0100
,
2000
0000
0000
0100
,
3100
0010
0001
0010
,
0200
0000
0310
0001
,
2000
0000
0000
3000
,
0000
0001
0100
0010
,
0000
0100
0010
1000
,
0001
1000
0100
0010
,
0020
0000
0000
0030
,
0100
1000
0100
0100
,
1000
0010
0100
0100
,
0010
1000
0010
1000
,
0010
1000
1000
1000
,
0001
1000
0100
0100
,
1000
0001
0010
0010
,
0001
0100
0010
0100
,
0020
0000
0000
0030
,
0100
0001
1000
0100
,
0010
0100
1000
0010
,
0100
0001
1000
0010
,
1000
0100
0010
0001
,
0010
0200
0000
0300
,
1000
0002
0000
0003
,
0100
0100
0100
0100
,
0010
1000
0010
1000
,
0001
0000
0100
0000
,
0010
0000
0100
0000
,
0001
0000
1000
0000
,
0010
0000
0100
0000
,
1001
0000
0001
0000
,
1100
0000
0010
0000
,
0101
0000
0010
0000
,
1001
0000
0100
0000
,
0110
0010
1000
0010
,
0001
0010
0100
0010
,
1000
0100
0010
0001
,
0010
0001
0100
0010
,
1000
0001
0010
0001
,
0100
0010
0100
0001
,
1000
0100
0010
0100
,
0010
0001
0100
1000
,
0100
0000
0000
0010
,
1000
0001
0010
0100
,
2000
0000
3001
0100
,
0020
0000
0000
0030
,
0000
1000
0100
0010
,
0000
0010
0100
1000
,
2002
0000
0000
3003
,
0202
0000
0000
0303
,
0022
0000
0000
0033
,
0220
0000
0000
0000
,
0330
0000
0000
0000
;

//---------------dance-single - ----------------
#NOTES:
     dance-single:
     :
     Beginner:
     1:
     0.106,0.193,0.000,0.033,0.000: // measure 1
0010
0000
0000
0000
,  // measure 2
0100
0000
0000
0000
,  // measure 3
0001
0000
0000
0000
,  // measure 4
1000
0000
0000
0000
,  // measure 5
0010
0000
0000
0000
,  // measure 6
0010
0000
0000
0000
,  // measure 7
0010
0000
0010
0000
,  // measure 8
0010
0010
0010
0010
,  // measure 9
0100
0000
0000
0000
,  // measure 10
0001
0000
0000
0000
,  // measure 11
1000
0000
0000
0000
,  // measure 12
0100
0000
1000
0000
,  // measure 13
0001
0000
0000
0000
,  // measure 14
0100
0000
0000
0000
,  // measure 15
0001
0000
0000
0000
,  // measure 16
1000
0000
0000
0000
,  // measure 17
0100
0000
0000
0000
,  // measure 18
1000
0000
0000
0000
,  // measure 19
0001
0000
0100
0000
,  // measure 20
0001
0000
1000
1000
,  // measure 21
1000
0000
0000
0000
,  // measure 22
0100
0000
0000
0000
,  // measure 23
1000
0000
0000
0000
,  // measure 24
0010
0000
0100
0000
,  // measure 25
0010
0000
0000
0000
,  // measure 26
0100
0000
0000
0000
,  // measure 27
0001
0000
0000
0000
,  // measure 28
1000
0000
0000
0000
,  // measure 29
1000
0000
0001
0000
,  // measure 30
0100
0000
0000
0000
,  // measure 31
0001
0000
0000
0000
,  // measure 32
1000
0000
0000
0000
,  // measure 33
0100
0000
0000
0000
,  // measure 34
1000
0000
0000
0000
,  // measure 35
0001
0000
0000
0000
,  // measure 36
0100
0000
0000
0000
,  // measure 37
0001
0000
0000
0000
,  // measure 38
1000
0000
0000
0000
,  // measure 39
0001
0000
0000
0000
,  // measure 40
0100
0000
0010
0000
,  // measure 41
0100
0000
0000
0000
,  // measure 42
0001
0000
0000
0000
,  // measure 43
0100
0000
0000
0000
,  // measure 44
0001
0000
0000
0000
,  // measure 45
1000
0000
0000
0000
,  // measure 46
0100
0000
0000
0000
,  // measure 47
1000
0000
0000
0000
,  // measure 48
0001
0000
0000
0000
,  // measure 49
0100
0000
0000
0000
,  // measure 50
0010
0000
0000
0000
,  // measure 51
0100
0000
0000
0000
,  // measure 52
0001
0000
1000
0000
,  // measure 53
0100
0000
0000
0000
,  // measure 54
1000
0000
0000
0000
,  // measure 55
0010
0000
0000
0000
,  // measure 56
0100
0000
0001
0000
,  // measure 57
0100
0000
0000
0000
,  // measure 58
0010
0000
0000
1000
,  // measure 59
1000
0000
0001
0000
,  // measure 60
0100
0000
0001
1000
,  // measure 61
0001
0000
0000
0000
,  // measure 62
0100
0000
0010
0000
,  // measure 63
1000
0000
0001
0000
,  // measure 64
2000
0000
0000
3000
,  // measure 65
0002
0000
0000
0003
,  // measure 66
0200
0000
0000
0300
,  // measure 67
0020
0000
0000
0000
,  // measure 68
0030
0000
0000
0000
;
