#TITLE:CALAMITY PHOENIX;
#SUBTITLE:;
#ARTIST:96;
#TITLETRANSLIT:;
#SUBTITLETRANSLIT:;
#ARTISTTRANSLIT:;
#CREDIT:;
#BANNER:cpxbn.png;
#BACKGROUND:Phoenix.png;
#LYRICSPATH:;
#CDTITLE:;
#MUSIC:25. CALAMITY PHOENIX.mp3;
#OFFSET:-5.791;
#SAMPLESTART:28.020;
#SAMPLELENGTH:12.000;
#SELECTABLE:YES;
#BPMS:0.000=170.000;
#STOPS:256.000=0.088
,257.250=0.088
,258.500=0.088
,259.750=0.088
;
#BGCHANGES:;

//---------------dance-single - ----------------
#NOTES:
     dance-single:
     :
     Hard:
     12:
     0.965,1.000,0.310,0.365,1.000: // measure 1
0001
0100
0010
0000
0000
0000
0100
0010
1000
0000
0000
0000
0001
1000
0100
0000
,  // measure 2
0000
0000
0010
0001
0100
0000
0000
0000
0010
0000
1002
0000
0000
0000
0103
0000
,  // measure 3
0010
1000
0100
0000
0010
0000
0001
0010
0100
0000
0010
0000
0001
1000
0001
0000
,  // measure 4
0100
0010
1000
0100
0010
0100
1000
0001
0100
0010
1000
0001
0010
0001
1000
0100
,  // measure 5
1000
0000
0001
0000
0100
0000
0001
0100
0010
0000
0100
0010
1000
0000
0001
0000
,  // measure 6
1000
0100
0010
0000
0100
0000
1000
0100
1000
0000
1000
0001
1000
0000
0001
0000
,  // measure 7
0100
0010
1000
0000
0010
0000
0100
0001
0010
0000
0010
0100
1000
0000
0100
1000
,  // measure 8
0010
0000
0100
0000
0001
0000
1000
0000
0001
0010
0100
0000
0010
0100
1000
0000
,  // measure 9
0001
0000
1000
0000
0100
0000
1000
0100
0010
0000
0010
0100
0010
0000
0010
0001
,  // measure 10
0100
0000
0010
1000
0001
0000
0001
0100
0010
0000
1000
0000
0100
0000
0010
0000
,  // measure 11
0001
0000
0010
0100
1000
0000
1000
0010
0001
0000
0001
0010
1000
0000
1000
0010
,  // measure 12
0100
0000
0010
1000
0001
0000
0001
0010
0100
0000
0100
1000
0001
0000
0100
0000
,  // measure 13
0010
1000
0010
1000
0010
1000
0010
1000
0010
1000
0010
1000
0100
0010
0001
0010
,  // measure 14
0001
0010
0001
0010
0001
0010
0001
0010
0001
0010
0100
1000
0001
1000
0100
0010
,  // measure 15
0001
0100
0010
0100
0010
1000
0100
0010
0001
1000
0010
1000
0020
0000
0000
0000
,  // measure 16
0000
0000
0000
0000
0000
0000
0000
0000
0000
0000
0000
0000
0130
0001
0100
0001
,  // measure 17
0100
0010
1000
0001
0200
0000
0000
0310
0000
0000
0010
0000
2010
0000
0000
3100
,  // measure 18
0000
0000
1000
0100
0020
0000
0000
0000
0030
0000
0010
0001
0200
0000
0000
0000
,  // measure 19
0300
0000
0010
1000
0002
0000
0000
0013
0000
0000
0001
0000
0101
0000
0000
0000
,  // measure 20
0011
0000
0000
0000
2002
0000
0000
0000
0000
0000
3003
0000
0010
0100
0001
1000
,  // measure 21
0001
0010
0100
1000
0200
0000
0000
0010
0000
0000
1300
0010
0200
0000
0000
0001
,  // measure 22
0000
0000
0310
1000
0002
0000
0000
0000
0003
0000
1000
0001
0020
0000
0000
0000
,  // measure 23
0030
0000
0010
0000
0110
0000
0000
0010
0000
0000
0001
0000
0101
0000
0000
0010
,  // measure 24
0000
0000
0000
0000
0000
0000
0100
0000
0000
0002
0000
0000
2000
0000
0000
0000
0000
0000
0000
0000
0000
0000
0000
0000
0000
0000
0000
0000
0000
0000
3003
0000
0000
0000
0000
0000
0001
0000
0000
0000
0100
0000
0000
0000
0010
0000
0000
0000
,  // measure 25
0100
0001
0010
0100
0010
0001
0100
1000
0100
0001
0010
1000
,  // measure 26
0010
0001
0100
0010
1000
0100
0010
0001
1000
0100
0010
1000
,  // measure 27
0001
0010
0100
0010
0001
0100
1000
0100
0010
0100
0001
1000
,  // measure 28
0001
0000
0010
0000
0100
0000
0010
0000
0001
0000
1000
0000
0001
0000
0100
0000
0001
0000
0010
0000
0000
0001
0000
0000
,  // measure 29
0100
0001
0100
0000
0010
0000
1000
0000
0010
1000
0010
0000
1000
0000
0001
0000
,  // measure 30
0010
0001
0010
0000
0100
0000
1000
0000
0010
0100
0010
0000
0100
0010
1000
0001
,  // measure 31
0010
0100
1000
0001
0010
0100
1000
0100
1000
0010
0100
0001
0010
0001
0100
0010
,  // measure 32
1000
0100
0010
0001
1000
0001
0100
0001
0010
0100
1000
0100
1000
0001
1000
0001
,  // measure 33
1000
0000
0001
0100
1000
0200
0000
0000
,  // measure 34
0000
0000
0310
1000
0001
0020
0000
0000
,  // measure 35
0031
0000
0000
0000
0000
0000
0000
0000
0000
0000
0000
0000
0001
0000
0000
0000
0010
0000
0000
0000
0100
0000
0000
0000
1000
0000
0000
0100
0000
0000
0010
0000
0000
0001
0000
0000
2000
0000
0000
0000
0000
0000
0000
0000
0000
0000
0000
0000
,  // measure 36
0000
0000
3001
0100
0020
0000
0000
0000
1000
0000
0000
0000
0230
0000
0000
0000
,  // measure 37
0000
0000
0310
0010
1000
0002
0000
0000
,  // measure 38
0000
0000
0020
0003
0200
0330
2200
0000
,  // measure 39
0000
0000
3300
0000
2002
0000
0000
0000
0000
3003
0000
0000
0202
0000
0000
0000
,  // measure 40
0000
0303
0001
0100
0010
1000
0100
0010
0001
0010
0001
0100
0001
0000
1000
0000
,  // measure 41
0100
1000
0100
0000
1000
0000
0010
0000
0100
0010
0100
0000
0010
0000
1000
0000
,  // measure 42
0001
0010
0001
0000
0010
0000
0100
0000
1000
0100
1000
0000
2001
0000
0000
0000
,  // measure 43
3100
0000
0000
0000
0000
0000
0000
0000
0000
0000
0000
0000
0100
0000
0000
0000
1000
0000
0000
0000
0100
0000
0000
0000
0001
0000
0000
0100
0000
0000
0010
0000
0000
0001
0000
0000
0100
0000
0000
0000
0000
0000
1000
0000
0000
0000
0000
0000
,  // measure 44
0100
0000
0010
1000
0001
0000
0001
0010
0100
0000
1000
0000
1002
0000
1000
0000
,  // measure 45
1003
0001
0010
0000
0210
0000
0010
0000
0310
0001
0100
0000
0120
0000
0100
0000
,  // measure 46
0130
0001
1000
0000
1200
0000
1000
0000
1300
0010
0100
0000
2020
0000
0000
0000
,  // measure 47
0000
0000
3030
0000
0202
0000
0000
0000
0000
0000
0303
0000
0001
1000
0001
1000
,  // measure 48
0001
1000
0001
1000
0001
1000
0001
1000
0001
1000
0001
1000
0001
0010
0100
1000
,  // measure 49
0100
0010
0001
0100
0010
1000
0001
0100
0010
1000
0001
0010
0100
0000
0010
0000
,  // measure 50
0011
0000
0001
0100
1000
0000
1000
0100
0010
0000
1000
0000
0010
0000
0100
0010
,  // measure 51
1000
0000
0001
0010
0100
0000
0100
1000
0100
0000
1000
0000
1001
0000
0100
0000
,  // measure 52
1001
0000
0100
0001
0010
0000
0010
0100
1000
0000
0100
0000
1000
0000
0010
0000
,  // measure 53
0101
0000
0001
0100
1000
0000
1000
0100
0001
0000
0010
0000
0110
0000
0001
0000
,  // measure 54
0101
0000
0001
1000
0010
0000
0100
0010
1000
0000
0001
0000
0010
0000
0100
1000
,  // measure 55
0100
0000
0010
0001
0010
0000
0100
0001
0100
0000
0010
0000
1100
0000
0010
0000
,  // measure 56
0011
0000
0001
0100
0010
0000
0100
0010
1000
0000
0001
0000
1100
0000
0001
0000
,  // measure 57
0101
0000
0001
0100
0010
0000
0100
0001
1000
0000
0001
0000
0101
0000
0010
0100
,  // measure 58
0001
1000
0100
1000
0001
0000
0001
0010
0000
0100
1000
0000
1001
0000
0001
0100
,  // measure 59
0001
0100
1000
0100
0010
0000
0100
0001
0000
0001
0010
0000
0011
0000
0001
0010
,  // measure 60
0100
0010
0001
1000
0010
0000
0100
0010
0000
0010
1000
0000
1001
0000
0001
0100
,  // measure 61
1000
0100
0001
0010
0100
0000
1000
0100
0000
0010
0001
0000
1000
0100
0010
0100
,  // measure 62
1000
0010
0100
0001
0010
0000
0010
0100
0000
0010
0100
0000
0100
0010
0001
0100
,  // measure 63
0010
1000
0001
0010
0100
0000
0100
1000
0000
1000
0100
0000
1000
0100
0010
0100
,  // measure 64
1000
0010
0100
0001
0010
0000
0001
0010
0000
0010
0100
0000
1000
0100
0010
0001
,  // measure 65
1000
0001
0100
0010
1000
0100
1000
0100
0001
0100
1000
1000
0010
0001
0010
1000
,  // measure 66
1010
1001
0000
0000
0120
0000
0000
0000
,  // measure 67
0000
0000
0000
0000
0100
0000
0000
0100
,  // measure 68
0000
0100
0000
0100
,  // measure 69
0000
0000
0200
0000
,  // measure 70
0000
0000
0330
0000
;

//---------------dance-single - ----------------
#NOTES:
     dance-single:
     :
     Medium:
     9:
     0.591,0.730,0.283,0.173,0.265:
0001
0001
0000
0100
0100
0000
0010
0010
,
0000
0100
0100
0000
0010
1000
0000
0001
,
1000
0100
0010
0001
,
0001
0010
0100
1000
0001
0010
0100
1000
,
0001
0000
1000
0001
0000
0001
0100
0000
,
0000
0010
0000
1000
0000
0010
0100
0001
,
1000
0000
1000
0100
0000
0100
0010
0000
,
0000
0010
0000
0100
0000
0100
0010
0001
,
1000
0000
0001
0100
0000
0010
0100
0000
,
0000
0010
0000
1000
0000
0001
0010
0001
,
0100
0000
0100
0010
0000
0010
1000
0000
,
0000
1000
0000
0001
0000
1000
0001
0010
,
0100
0000
1000
1100
0000
0110
0000
1001
,
0000
1001
0110
1010
,
0000
1001
0000
0000
0001
1000
0200
0000
,
0000
0000
0000
0000
0300
0000
1000
0100
,
0010
0000
0100
0000
1000
0000
0000
1000
0000
0000
0001
0000
0100
0000
0000
0010
,
0000
0100
0010
0000
0000
0010
1000
0000
,
0000
0000
0010
0000
1000
0000
0000
0001
0000
0000
0010
0000
0200
0000
0000
0000
,
0000
0000
0000
0000
0020
0000
0000
0000
0330
0000
0000
0000
0010
0000
0000
0001
,
0000
0000
0010
0000
0001
0000
0000
0010
0000
0000
0100
0000
1000
0000
0000
0000
,
0100
0000
0010
0000
0001
0000
0000
0000
0000
0000
1000
0100
1000
0000
0000
0000
,
0000
0000
1000
0000
0001
0000
0000
1000
0000
0000
1000
0000
0010
0000
0000
0000
,
0000
0000
0000
0000
0000
0000
0100
0000
0000
0010
0000
0000
0200
0000
0000
0000
0000
0000
0000
0000
0000
0000
0000
0000
0000
0000
0000
0000
0000
0000
0300
0000
0000
0000
0000
0000
0001
0000
0000
0000
0000
0000
0000
0000
0001
0000
0000
0000
,
0100
0000
0100
0010
0000
0010
1000
0000
1000
0001
0000
0001
,
0010
0000
0010
0100
0000
0100
1000
0000
1000
0001
0000
0001
,
0100
0000
0100
0010
0000
0010
1000
0000
1000
0100
0000
0100
,
0010
0000
0000
0000
0010
0000
0001
0000
0000
0000
0001
0000
1000
0000
0000
0000
1000
0000
0001
0000
0000
0100
0000
0000
,
0010
1000
0001
0100
0010
1000
0100
0010
,
0100
1000
0010
0100
0001
1000
0001
0100
,
1000
0100
0001
0010
1000
0010
0100
0010
,
0100
1000
0100
1000
0010
0100
0002
0000
,
0000
0000
1003
1000
0100
0020
0000
0000
,
0000
0030
0100
0100
0010
0001
0000
0000
,
1001
0000
0000
0001
0100
0010
1000
0100
0010
0001
0000
0000
,
0000
0000
0001
1000
0001
0000
0000
0000
0100
0000
0000
0000
2020
0000
0000
0000
,
0000
3030
0010
1000
0001
0020
0000
0000
,
0000
0230
2300
3002
,
0100
0203
0010
0320
,
1000
0000
1030
0100
0010
0001
1000
0100
,
1000
0100
1000
0001
0100
0001
0100
0010
,
0100
0010
1000
0010
1000
0010
0100
0010
,
0100
0010
0100
0001
0100
0001
0010
0100
,
1000
0100
1000
0100
1000
0100
0010
0100
,
1000
0010
0001
0010
0100
0010
1000
0001
,
0010
1000
0010
0001
0100
0010
1000
0010
,
0001
0010
0100
1000
0100
0010
2000
0000
,
0000
0000
0000
0020
,
0000
0000
3030
0101
,
0010
1010
0000
0001
0101
0000
0000
1001
,
0000
0101
0000
1010
0010
0100
0010
0000
,
0010
1010
0000
0010
0110
0000
0000
0110
,
0000
1001
0000
0001
0001
0100
0110
0000
,
0010
1010
0000
0100
0110
0000
0000
1001
,
0000
1100
0000
1000
0100
0010
0011
0000
,
0001
0101
0000
0010
0110
0000
0000
1001
,
0000
0110
0000
0001
1000
1000
0010
1000
,
0010
0000
0100
0000
0001
0000
0001
1000
0000
1000
0100
0000
0010
0000
0001
0000
,
0100
0000
0010
0000
1000
0000
0001
1000
0000
1000
0100
0000
0010
0000
0100
0000
,
1000
0000
0010
0000
0100
0000
0100
0001
0000
0001
0010
0000
0100
0000
1000
0000
,
0001
0000
0100
0000
0010
0000
0100
0010
0000
0100
0010
0000
0100
0001
0100
0001
,
0100
0001
0100
0001
0100
0000
0000
0010
0000
0000
1000
0000
0100
1000
0100
1000
,
0100
1000
0100
1000
0100
0000
0000
1000
0000
0000
0010
0000
0100
0001
0100
0001
,
0100
0001
0100
0001
0100
0000
0000
0010
0000
0000
1000
0000
0001
0000
1000
0100
,
0000
0010
0000
0010
0001
0000
0001
0000
0001
0100
0000
0100
0000
0010
1000
0000
,
0000
1001
0000
0000
0202
0000
0000
0000
,
0000
0000
0300
0000
0100
0000
0000
0100
,
0000
0100
0000
0100
,
0000
0000
0200
0000
,
0000
0000
0303
0000
;

//---------------dance-single - ----------------
#NOTES:
     dance-single:
     :
     Easy:
     7:
     0.420,0.539,0.192,0.247,0.009:
0001
0000
0000
0100
0000
0000
0001
0000
,
0000
0100
0000
0000
0010
0100
0000
0010
,
1000
1000
0001
0001
,
1000
0100
0010
0001
,
0011
0000
0000
0001
0000
0100
0010
0000
,
0000
0100
0000
0010
0000
1000
0010
1000
,
0010
0000
0000
0100
0000
0010
0100
0000
,
0000
0001
0000
1000
0000
1000
0100
0010
,
0001
0000
0000
0001
0000
0010
0001
0000
,
0000
0001
0000
0100
0000
0010
1000
0010
,
1000
0000
0000
0010
0000
0100
0100
0000
,
0000
0010
0000
1000
0000
0001
0010
0100
,
2000
0000
0000
0100
0000
0100
0000
3200
,
0000
0010
0010
0320
,
0000
0032
0000
0000
0203
0000
0020
0000
,
0000
0000
0330
0010
,
1000
0010
0001
0010
,
0100
0002
0003
1000
,
0000
0001
1000
0200
,
0000
0020
0330
0010
,
0100
1000
0100
0001
,
0100
1000
0010
0000
0000
0100
0010
0000
,
0000
0010
1000
0000
0001
0000
0020
0000
,
0000
0200
0330
0010
,
0110
0100
1100
1000
,
1001
0001
0101
0100
,
0110
0010
1010
0010
,
0110
0000
0010
0000
1001
0000
0001
0100
,
0010
0000
0100
0010
1000
0000
0010
1000
,
0001
0000
0001
0010
0100
0000
1100
0000
,
0000
0101
0000
0000
0110
0000
1001
0000
,
0000
1100
0000
0000
0011
0000
0002
0000
,
0000
0003
0100
0001
0100
0001
0000
0000
,
0000
0000
0100
0010
0100
0010
0000
0000
,
0100
0010
1000
0001
,
0000
1000
0100
0000
0001
0000
0110
0000
,
0000
0000
0010
0001
0100
0010
0000
0000
,
0000
0100
0001
2000
,
0000
3200
0000
2000
,
0000
0000
3300
1000
,
0001
0100
0010
0010
,
0100
0001
1000
0001
,
0010
0000
0001
0010
0100
1000
0100
0000
,
0000
1000
0100
0000
1000
0000
0020
0000
,
0000
0000
0130
0100
0010
2000
0000
0000
,
0000
3001
1000
2200
,
3300
0202
0303
0220
,
0000
0000
0330
2002
,
0000
0000
3003
0001
,
0000
0100
0000
0010
1000
0000
0000
1000
,
0000
0100
0000
1000
0100
0010
0001
0000
,
0000
0010
0000
0001
0001
0000
0000
0001
,
0000
0100
0000
0010
0010
0100
0001
0000
,
0000
1000
0000
0001
1000
0000
0000
0100
,
0000
1000
0000
0010
0100
0001
1000
0000
,
0000
0001
0000
0010
0010
0000
0000
0001
,
0000
0010
0000
0001
0010
0000
0001
0100
,
0010
1000
0001
0100
0010
1000
0001
0010
,
0100
1000
0001
0010
0100
1000
0100
0010
,
0001
0010
0100
1000
0100
0010
0001
0010
,
0100
0010
0001
0100
0010
1000
0001
0001
,
1000
1000
0001
0100
0010
0100
0001
0001
,
1000
1000
0001
0100
0010
1000
0001
0001
,
1000
1000
0001
0100
0010
1000
0010
0000
,
0000
0100
0000
0000
0000
0000
0010
0000
0000
0000
0000
1000
0000
0000
0000
0000
,
0000
0001
0000
0000
2002
0000
0000
0000
,
0000
0000
0000
0000
,
0000
0000
0000
0000
,
0000
0000
0000
0000
,
0000
0000
3003
0000
;

//---------------dance-single - ----------------
#NOTES:
     dance-single:
     :
     Beginner:
     3:
     0.167,0.254,0.173,0.027,0.000:
0010
0000
0000
0010
,
0000
0000
1000
0000
,
0001
0000
0000
0000
,
1000
0000
0010
0000
,
0100
0000
0000
0000
,
0010
0000
0100
0000
,
0001
0000
0000
0000
,
1000
0000
1000
0000
,
0100
0000
0000
0000
,
1000
0000
0010
0000
,
0100
0000
0000
0000
,
0100
0000
0001
0000
,
1001
0000
0000
0000
0000
0000
0000
0110
,
0000
0000
0000
1001
,
0000
0010
0000
0000
0100
0000
0100
0000
,
0000
0000
0000
0010
,
0000
0000
0000
1000
,
0000
0000
0000
0001
,
0000
1000
0000
0010
,
0000
0010
0000
0110
,
0000
0000
0000
0100
,
0000
0000
0000
0001
,
0000
0000
0000
1000
,
0000
1000
0000
0010
,
0000
0000
0000
0100
,
0000
0000
0000
0001
,
0000
0000
0000
1000
,
0000
0000
0000
0001
,
0000
0001
0000
1000
,
0000
1000
0000
0110
,
0000
0000
1001
1001
,
0000
0110
0000
0110
,
0000
0010
0000
0100
,
0000
0010
0000
1000
,
0000
0001
0001
0001
,
0000
1000
1000
0010
,
0000
0100
0000
0010
,
0000
1000
1000
0001
,
0000
0100
0000
0001
,
0000
0000
0000
0100
,
0000
0000
0000
0001
,
0000
0000
0000
1000
,
0000
0100
0000
1000
,
0000
0010
0010
1001
,
0000
0100
0000
0000
,
0000
0010
0010
1000
,
0000
0001
0000
0010
,
0000
0000
0000
0200
,
0000
0000
0300
0010
,
0000
0000
0000
0001
,
0000
0001
0000
1000
,
0000
0000
0000
1000
,
0000
0010
0000
0100
,
0000
0000
0000
0100
,
0000
0010
0000
1000
,
0000
0000
0000
1000
,
0000
0001
0000
1001
,
0000
0000
0000
0110
,
0000
0000
0000
0110
,
0000
0000
0000
1001
,
0000
0000
0000
1001
,
0000
0001
0000
0110
,
0000
0100
0000
1001
,
0000
0010
0000
1001
,
0000
0000
0000
0000
,
0000
0100
0000
0000
0010
0000
0000
0000
,
0000
0000
0000
0000
,
0000
0000
0000
0000
,
0000
0000
2002
0000
,
0000
0000
3003
0000
;
