#TITLE:UNLIMITED FIRE-Try to Sing Ver.-;
#SUBTITLE:;
#ARTIST:TAG rejected by DJ YOSHITAKA;
#TITLETRANSLIT:;
#SUBTITLETRANSLIT:;
#ARTISTTRANSLIT:;
#GENRE:;
#CREDIT:;
#BANNER:UNLIMITED FIRE-Try to Sing Ver.-.png;
#BACKGROUND:UNLIMITED FIRE-try to sing ver.--bg.png;
#LYRICSPATH:;
#CDTITLE:;
#MUSIC:02 UNLIMITED FIRE-Try to Sing Ver.-.ogg;
#OFFSET:-1.891001;
#SAMPLESTART:1.878000;
#SAMPLELENGTH:12.000000;
#SELECTABLE:YES;
#BPMS:0.000000=160.000000
;
#STOPS:232.000000=0.375000,
232.500000=0.375000
;
#BGCHANGES:;
#KEYSOUNDS:;
#ATTACKS:;

//---------------dance-single - ----------------
#NOTES:
     dance-single:
     :
     Hard:
     7:
     0.475863,0.426886,0.317730,0.163990,0.092244,278.000000,31.000000,16.000000,0.000000,0.000000,0.000000,0.475863,0.426886,0.317730,0.163990,0.092244,278.000000,31.000000,16.000000,0.000000,0.000000,0.000000:
0010
0010
0000
0000
0000
0000
0000
0100
,
0000
0001
0010
0000
0001
0100
0010
1000
,
0010
0010
0000
0000
0000
0000
0000
0100
,
0000
0010
1000
0000
0100
0010
0001
1000
,
0001
0100
0010
0100
0000
0001
0000
1000
,
0001
0010
0100
0010
0000
0100
0000
0100
,
1000
0100
0010
0001
1000
0100
0000
0010
,
0000
0001
0000
1000
0000
0010
0000
0000
,
0200
0000
0000
0000
0000
0000
0000
0310
,
2000
0000
0000
0000
0000
0000
3001
0000
0010
0000
0000
0100
0000
0000
0010
0000
,
0001
1000
0100
1000
0001
0100
0010
1000
,
0100
1000
0010
0100
0002
0000
0000
0000
,
0013
0000
0100
0000
0000
1000
0000
0000
0100
0000
0000
1000
0000
0000
0010
0000
,
0100
0000
0001
0000
0000
1000
0000
0000
0100
0000
0000
1000
0000
0000
0010
0000
,
0100
0000
0001
0001
0000
1000
1000
0020
,
0000
0000
0000
0000
,
0030
0100
1000
0100
0001
0000
0000
1000
,
0001
0010
0000
0100
0000
1000
0001
1000
,
0002
0000
0000
0103
0000
0000
0000
0001
,
0100
0000
0000
0010
0000
0000
0100
0000
0000
0000
0000
0000
0000
0000
0000
0000
,
1010
0000
0010
1000
0001
0000
0000
0010
,
0001
0100
0000
0010
0000
0010
0100
0001
,
0010
0000
0000
0001
0000
0000
1000
0000
0000
0000
0001
0000
2000
0000
0000
0000
,
3010
0000
0000
0000
0100
0010
1000
0001
,
1000
0000
0000
0100
0000
0000
1000
0000
0000
0010
0000
0000
0100
0000
0001
0000
,
0010
0000
0000
0100
0000
0000
0010
0000
0000
0001
0000
0000
0100
0000
0010
0000
,
1000
0000
0000
0001
0000
0000
0010
0000
0000
1000
0000
0000
0010
0000
0100
0000
,
1000
0010
0001
0020
0000
0230
0000
0301
,
0011
0000
0000
0010
0000
0000
0100
0000
0000
1000
0000
0000
0001
0000
0100
0000
,
0110
0000
0000
0010
0000
0000
1000
0000
0000
0010
0000
0000
1000
0000
0100
0000
,
1100
0000
0110
0110
0000
0011
0000
1001
,
0002
0000
0203
0000
,
0020
0000
0000
0000
,
0000
0000
0000
0330
,
1001
0000
0000
1001
0000
0000
0000
0000
0000
0000
0000
0000
0000
0000
0000
0000
,
0000
0000
0001
0100
,
1010
0000
0011
0000
,
1100
0000
0101
0000
,
1001
0000
0110
0000
,
0101
0011
1100
1001
,
0110
0000
0002
0000
,
2000
0000
0000
3003
,
0001
1000
0001
1000
0100
1000
0000
1000
,
0000
0001
0010
0000
0100
0100
1000
0001
,
0010
0100
0010
0001
0100
0001
0000
1000
,
0000
0001
0100
0000
0010
0100
0001
1000
,
0010
0100
0010
0100
0010
1000
0000
0001
,
0000
0001
0010
0000
0100
0010
0001
1000
,
0010
0100
0010
1000
0001
0010
0000
0100
,
0000
1000
0000
0010
0000
0200
0000
0000
,
0310
1000
0010
0100
0001
0010
0000
0100
,
0000
1000
0001
0000
0100
0010
1000
0001
,
1000
0001
0100
0010
1000
0100
0000
0010
,
0000
0100
1000
0000
0001
1000
0001
1000
,
0010
1000
0100
1000
0000
1100
0000
0001
,
1000
0100
0010
0001
0000
1001
0000
0001
,
0100
0010
1000
0001
0010
0001
0000
1100
,
0000
1001
0000
1010
0000
0101
0000
0000
,
1001
0110
0110
2002
0000
0000
0000
0000
,
0000
0000
3003
0000
;

//---------------dance-single - ----------------
#NOTES:
     dance-single:
     :
     Medium:
     6:
     0.395333,0.399725,0.245985,0.163990,0.046122,230.000000,24.000000,16.000000,0.000000,0.000000,0.000000,0.395333,0.399725,0.245985,0.163990,0.046122,230.000000,24.000000,16.000000,0.000000,0.000000,0.000000:
0001
0001
0000
0000
0000
0000
0000
1000
,
0000
0010
0100
0000
0100
0010
1000
0000
,
0001
0001
0000
0000
0000
0000
0000
1000
,
0000
0010
0200
0000
0000
0000
0300
0000
,
0010
1000
0010
1000
,
0001
0100
0001
0100
,
0010
0100
0001
1000
,
0100
1000
0010
0100
,
1002
0000
0000
0000
0000
0000
0000
1003
,
0002
0000
0003
0001
0100
0000
0010
0000
,
1000
0010
0001
0010
,
0100
0010
1000
0010
2000
0000
3000
0000
,
0001
1000
0001
1000
,
0010
0100
0010
0100
,
0010
0000
1000
0010
0000
0100
0001
0020
,
0000
0000
0000
0000
,
0130
0010
0001
0000
,
1000
0000
0001
0000
0100
0000
0001
1000
,
0010
1000
0100
1000
,
0010
0000
0000
0100
0000
0000
0001
0000
0000
0000
0000
0000
0000
0000
0000
0000
,
1001
0000
0001
1000
0010
0000
1000
0000
,
0100
1000
0010
0000
0100
0000
0010
1000
,
0001
0000
0010
0000
0100
0000
0010
0001
,
1000
0000
0001
0000
1000
0100
0010
0001
,
1000
0000
0000
0001
0000
0000
1000
0000
0000
0000
0000
0000
0001
0000
0100
0000
,
0010
0000
0000
1000
0000
0000
0010
0000
0000
0000
0000
0000
1000
0000
0010
0000
,
0100
0000
0000
0010
0000
0000
1000
0000
0000
0000
0000
0000
0001
0000
0010
0000
,
0100
0010
0001
1000
,
1001
0000
0000
0001
0000
0000
1000
0000
0000
0000
0000
0000
0000
0000
0000
0000
,
0110
0000
0000
0010
0000
0000
0100
0000
0000
0000
0000
0000
0000
0000
0000
0000
,
1010
0000
0010
0100
0000
0100
0010
1000
,
0002
0000
0023
0000
,
0200
0000
0000
0000
,
0000
0000
0000
0330
,
1001
0000
0000
1001
0000
0000
0000
0000
0001
0000
0000
0000
0100
0000
0000
0000
,
0001
1000
0100
0010
,
0011
0000
1100
0000
,
0101
0000
1010
0000
,
0101
0000
1010
0000
,
1001
0000
0000
0001
0000
0000
1001
0000
0000
1000
0000
0000
1001
0000
1000
0000
,
1001
0000
0002
0000
,
2000
0000
0000
3003
,
0010
0100
0001
0010
,
1000
0000
0010
0000
0100
0000
0010
0001
,
1000
0010
0001
0010
,
0100
0000
0001
0000
1000
0100
1000
0100
,
1000
0010
0001
0010
,
0100
0000
0001
0000
1000
0100
1000
0100
,
1000
0010
0001
0010
,
0100
0010
0100
0001
,
1002
1000
1000
1003
,
0102
0100
0100
0103
,
1020
1000
1000
1030
,
0102
0100
0100
0103
,
0001
0010
0100
1000
0000
1000
0000
1000
,
0100
0010
0001
0010
0000
0010
0000
0010
,
0100
1000
0010
0100
0000
0001
0000
1000
,
0000
0010
0000
0100
0000
0010
0000
0000
,
0101
0000
0000
1010
0000
0000
0010
2002
,
0000
0000
0000
0000
,
3003
0000
0000
0000
;

//---------------dance-single - ----------------
#NOTES:
     dance-single:
     :
     Easy:
     3:
     0.279661,0.368977,0.235735,0.163990,0.000000,152.000000,23.000000,16.000000,0.000000,0.000000,0.000000,0.279661,0.368977,0.235735,0.163990,0.000000,152.000000,23.000000,16.000000,0.000000,0.000000,0.000000:
1001
0000
0000
0000
0000
0000
0000
0110
,
0000
0000
0010
0100
,
1001
0000
0000
0000
0000
0000
0000
0110
,
0000
0000
0100
0010
,
0001
1000
0010
0000
,
1000
0001
0100
0000
,
0001
1000
0100
1000
,
0010
0100
0001
1000
,
0020
0000
0000
0030
,
0200
0300
0001
1000
,
0100
1000
0010
0100
,
0001
1000
0010
0000
,
2000
0000
0000
0000
,
3020
0000
0000
0000
,
0230
0000
0000
0000
,
0002
0000
0000
0000
,
0303
0001
0100
0000
,
0001
1000
0100
1000
,
0010
0000
0100
0000
,
0010
0010
0010
0000
,
0100
0000
0001
0000
,
1000
0001
0100
0000
,
0001
0000
1000
0000
,
0010
0000
1000
0001
,
0101
0000
0000
0001
,
1001
0000
0000
1000
,
1001
0000
0000
0001
,
0010
0010
0100
1000
,
0110
0000
0000
0100
,
0110
0000
0000
0010
,
1001
0000
0000
0001
,
2000
0000
3020
0000
,
2000
0000
0000
0000
,
0000
0000
0000
3030
,
0101
0101
0001
1000
,
0100
1000
0010
0100
,
1001
0000
0110
0000
,
1001
0000
0110
0000
,
1001
0000
0110
0000
,
1001
1001
0110
0110
,
2002
0000
0000
0000
,
0000
0000
0000
3003
,
0001
0100
0001
1000
,
0100
1000
0010
0010
,
1000
0001
0010
0100
,
0010
0001
1000
1000
,
0001
0100
0001
1000
,
0100
1000
0010
0010
,
0100
0010
1000
0001
,
0010
0100
0010
0001
,
2000
0000
0000
3000
,
0002
0000
0000
0003
,
0200
0000
0000
0300
,
0002
0000
0000
0003
,
1000
0001
0010
0001
,
0001
1000
0100
0100
,
1000
0010
0100
0010
,
1000
0001
0010
0100
,
1000
0000
0000
0001
0000
0000
1000
0002
,
0000
0000
0000
0000
,
0003
0000
0000
0000
;

//---------------dance-single - ----------------
#NOTES:
     dance-single:
     :
     Challenge:
     9:
     0.666209,0.670821,0.512468,0.286982,0.497094,377.000000,50.000000,28.000000,0.000000,0.000000,0.000000,0.666209,0.670821,0.512468,0.286982,0.497094,377.000000,50.000000,28.000000,0.000000,0.000000,0.000000:
// measure 0
1001
0101
0000
0000
0000
0000
0000
0011
,  // measure 1
0000
0010
0110
0000
0100
0010
0001
1000
,  // measure 2
1010
1010
0000
0000
0000
0000
0000
0101
,  // measure 3
0000
0001
0100
0000
0020
0000
1030
0000
,  // measure 4
0100
0010
1000
0001
0000
0110
0000
0010
,  // measure 5
0001
0100
1000
0100
0000
0110
0000
0100
,  // measure 6
0010
1000
0001
0010
0100
0010
0000
0110
,  // measure 7
0000
1001
0000
0101
0000
1010
0000
0000
,  // measure 8
0021
0000
0000
0000
0000
0000
0000
0130
,  // measure 9
2000
0000
0000
0000
0000
0000
3001
1000
0010
0000
0000
1000
0000
0000
0010
0000
,  // measure 10
0100
0001
0100
0010
1000
0100
0010
0100
,  // measure 11
1000
0001
1000
0001
0020
0000
0000
0000
,  // measure 12
0130
0010
0001
0000
1000
0001
0000
1000
0010
0000
1000
0001
0000
1000
0100
0000
,  // measure 13
1000
0001
0100
0000
0001
1000
0000
0001
0010
0000
0001
0100
0000
0001
1000
0000
,  // measure 14
1001
0000
0010
1001
0000
0110
0100
2002
,  // measure 15
0000
0000
0000
0000
0000
0000
3003
0000
1000
0100
1000
0100
1000
0100
1000
0100
,  // measure 16
1000
0100
0001
0100
1000
0000
0000
0010
,  // measure 17
0100
0001
0000
1000
0000
0010
0001
1000
,  // measure 18
0010
0000
0000
0100
0000
0000
0000
0010
,  // measure 19
1010
0000
0000
0100
0000
0000
0101
0000
0000
0000
0000
0000
0000
0000
0000
0000
,  // measure 20
1001
0000
0001
1000
0010
0000
0000
1000
,  // measure 21
0100
0100
0000
1000
0000
0100
0010
0001
,  // measure 22
1000
0000
0000
0010
0000
0000
0100
0000
0000
0000
0000
0000
0010
0000
0000
0000
,  // measure 23
0100
0000
0000
0000
0010
1000
0001
0010
,  // measure 24
0120
0000
0000
0100
0000
0000
0100
0000
0000
0130
0010
0000
1000
0000
0001
0000
,  // measure 25
1002
0000
0000
1000
0000
0000
1000
0000
0000
1003
0001
0000
1000
0000
0010
0000
,  // measure 26
1020
0000
0000
1000
0000
0000
1000
0000
0000
1030
0010
0000
0100
0000
0100
0000
,  // measure 27
0001
0010
0100
1000
0000
0100
0000
1000
,  // measure 28
1002
0000
0000
1000
0000
0000
1000
0000
0000
1003
0001
0000
0010
0000
0100
0000
,  // measure 29
2100
0000
0000
0100
0000
0000
0100
0000
0000
3100
0010
0000
0001
0000
1000
0000
,  // measure 30
1001
0000
1100
0011
0000
0101
0010
1000
,  // measure 31
0002
0000
2003
0000
,  // measure 32
3010
0000
0100
0010
0000
1000
0000
0010
0000
0100
0000
0001
0010
0000
0100
0000
,  // measure 33
0010
0000
0001
1000
0000
0010
0000
0100
0000
0001
0000
1000
0010
0000
0100
0000
,  // measure 34
0101
0000
0001
0100
0000
0001
0000
0100
0000
0010
0000
1000
0010
0000
1000
0000
,  // measure 35
0010
0000
0100
0010
0000
1000
0000
0001
0000
0010
0000
0100
0010
0000
0001
0000
,  // measure 36
1001
0000
0010
0100
1001
0000
0100
0010
,  // measure 37
1001
0000
0010
0100
1001
0000
0100
0010
,  // measure 38
1001
0000
0010
0100
1001
0000
0100
0010
,  // measure 39
0011
0000
0000
1100
0000
0000
0011
0000
0000
1010
0000
1000
0001
0000
0100
0000
,  // measure 40
1001
0000
0000
0000
0000
0000
0000
0000
1000
0000
0000
2000
0000
0000
0000
0000
,  // measure 41
0001
0000
0000
0002
0000
0000
0000
3003
0001
0100
0010
1000
0001
0000
1000
0000
,  // measure 42
0100
0000
0000
0010
0001
0000
0000
0001
0100
0000
0000
0010
1000
0000
0000
1000
,  // measure 43
0100
0000
0000
0100
0010
0000
0000
0010
0001
0000
0000
0001
1000
0000
0000
0010
,  // measure 44
1000
0000
0000
0010
0100
0000
0000
0001
1000
0000
0000
1000
0001
0000
0000
0001
,  // measure 45
0010
0000
0000
0010
0100
0000
0000
0100
1000
0000
1000
0000
0100
0000
0010
0000
,  // measure 46
0001
0000
0000
0010
0100
0000
0000
0100
1000
0000
0000
1000
0100
0000
0000
0100
,  // measure 47
0010
0000
0000
0010
0001
0000
0000
0001
0100
0000
0000
0010
1000
0000
0000
0001
,  // measure 48
0100
0000
0000
0010
0100
0000
0000
0010
1000
0000
0000
0100
0001
0000
1000
0000
,  // measure 49
0000
1000
0000
0001
0000
2000
0000
0000
,  // measure 50
3002
0000
0000
0000
1000
0000
0000
0000
1000
0000
0000
0000
1000
0003
0001
0100
,  // measure 51
0020
0000
0000
0000
1000
0000
0000
0000
0230
0000
0000
0000
0001
0000
0301
1000
,  // measure 52
0020
0000
0000
0000
1000
0000
0000
0000
1000
0000
0000
0000
0100
0000
0130
0001
,  // measure 53
2000
0000
0010
0000
3001
0010
0100
1000
,  // measure 54
0001
1000
0100
0000
0010
0001
0000
0100
0010
0000
1000
0001
0000
0010
0100
0000
,  // measure 55
0010
0001
1000
0000
0010
0100
0000
0001
0010
0000
0001
1000
0000
0100
0010
0000
,  // measure 56
0001
0100
0010
1000
0001
0010
0100
1000
0001
0000
1000
0000
0000
0000
1010
0000
,  // measure 57
0000
0101
0000
0011
0000
1100
0000
0000
,  // measure 58
2020
3030
0202
0303
0210
0300
2002
0000
0000
0000
0000
0000
0000
0000
0000
0000
,  // measure 59
0000
0000
3003
0000
;

//---------------dance-single - ----------------
#NOTES:
     dance-single:
     :
     Beginner:
     1:
     0.122992,0.178339,0.092244,0.000000,0.000000,75.000000,9.000000,0.000000,0.000000,0.000000,0.000000,0.122992,0.178339,0.092244,0.000000,0.000000,75.000000,9.000000,0.000000,0.000000,0.000000,0.000000:
1001
0000
0000
0000
,
0010
0000
0000
0000
,
1001
0000
0000
0000
,
0100
0000
0000
0000
,
0010
0000
0000
0000
,
1000
0000
0000
0000
,
0001
0000
0000
0000
,
1000
0000
0000
0000
,
0010
0000
0000
0000
,
0100
0000
0000
0000
,
0001
0000
0000
0000
,
1000
0000
0000
0000
,
0010
0000
0000
0000
,
0010
0000
0000
0000
,
0100
0000
0000
0000
,
0001
0000
0000
0000
,
0000
1000
1000
0000
,
0001
0000
0000
0100
,
0100
0000
0000
0000
,
0010
0000
0000
0000
,
1001
0000
0000
0000
,
1000
0000
0000
0000
,
0100
0000
0000
0000
,
1000
0000
0000
0000
,
0010
0000
0000
0100
,
0010
0000
0000
0100
,
0100
0000
0000
0001
,
0001
0000
0000
0000
,
1001
0000
0000
0000
,
0110
0000
0000
0000
,
1001
0000
0000
0000
,
0001
0000
1000
0000
,
0010
0000
0000
0000
,
0000
0000
0000
0000
,
0110
0000
0000
0000
,
0000
0000
0000
0000
,
1000
0000
0001
0000
,
1000
0000
0001
0000
,
1000
0000
0001
0000
,
1000
0001
1000
0001
,
1001
0000
0000
0000
,
0000
0000
0000
0000
,
0001
0000
0000
0000
,
1000
0000
0000
0000
,
0010
0000
0000
0000
,
0100
0000
0010
0000
,
1000
0000
0000
0000
,
0001
0000
0000
0000
,
1000
0000
0100
0000
,
1000
0000
0000
0000
,
0010
0000
0000
0000
,
0100
0000
0001
0000
,
1000
0000
0000
0000
,
0001
0000
0000
0000
,
1000
0000
1000
0000
,
0001
0000
0001
0000
,
0100
0000
0010
0000
,
1000
0000
0001
0000
,
1001
0000
0000
0000
;
