#TITLE:The Typewriter;
#SUBTITLE:;
#ARTIST:Leroy Anderson;
#TITLETRANSLIT:;
#SUBTITLETRANSLIT:;
#ARTISTTRANSLIT:;
#GENRE:;
#CREDIT:;
#BANNER:The Typewriter.png;
#BACKGROUND:The Typewriter-bg.png;
#LYRICSPATH:;
#CDTITLE:cdtitle.png;
#MUSIC:The Typewriter.ogg;
#OFFSET:-3.021000;
#SAMPLESTART:44.447498;
#SAMPLELENGTH:11.062500;
#SELECTABLE:YES;
#BPMS:0.000000=160.000000
;
#STOPS:
;
#BGCHANGES:;
#KEYSOUNDS:;
#ATTACKS:;

//---------------dance-single - ----------------
#NOTES:
     dance-single:
     :
     Hard:
     8:
     0.610067,0.588912,0.190741,0.158950,0.021193,403.000000,385.000000,18.000000,15.000000,0.000000,0.000000,0.610067,0.588912,0.190741,0.158950,0.021193,403.000000,385.000000,18.000000,15.000000,0.000000,0.000000:
1000
0000
0000
0001
0000
0001
0000
1000
,
0001
0000
1000
0010
0000
0100
0010
1000
,
0001
0100
0001
0100
0001
0100
0001
0100
,
0010
0000
1000
0000
0010
0000
1000
0000
0020
0030
0000
0000
1001
0000
0000
0000
,
0001
1000
0001
1000
0001
1000
0001
0100
,
0001
0000
0010
0000
0100
0000
1000
0000
0002
0003
0000
0000
1010
0000
0000
0000
,
0010
1000
0010
1000
0010
1000
0010
1000
,
0001
0000
0100
0000
0001
0000
0100
0000
0020
0030
0000
0000
1100
0000
0000
0000
,
0100
0010
0001
1000
0010
0100
0001
1000
,
0100
0010
0001
1000
0010
0100
0001
0010
,
0100
0000
0000
0000
0010
0000
0000
0000
0002
0003
0000
0000
1001
0000
0000
0000
,
0001
1000
0100
0001
0100
0000
0110
0100
,
1000
0010
0001
0010
0100
0000
0110
0010
,
1000
0001
0100
0001
1000
0100
0010
0000
,
0200
0300
0000
0000
1001
0000
1000
0000
0010
0000
0100
0000
0001
0000
0000
0000
,
1000
0010
0100
1000
0100
0000
1001
0001
,
0010
0001
1000
0100
0010
0000
0011
0001
,
1000
0010
2000
3000
0000
0000
0001
0100
0002
0003
0000
0000
1000
0001
2000
3000
,
0000
0000
0010
1000
0010
0000
0100
0000
0001
0000
0010
0000
0001
0000
1000
0000
,
0100
0010
0100
0010
0100
0010
0100
0010
,
0001
0000
0010
0000
0100
0000
1000
0000
0002
0003
0000
0000
1001
0000
0000
0000
,
0001
0100
0001
0100
0001
0100
0001
0100
,
0010
0000
1000
0000
0001
0000
0010
0000
0200
0300
0000
0000
1100
0000
0000
0000
,
0100
1000
0010
0100
0001
1000
0001
0010
,
0100
0000
0010
0000
0001
0000
1000
0000
0020
0030
0000
0000
0101
0000
0000
0000
,
0001
1000
0100
0010
0100
1000
0100
0010
,
0100
1000
0001
0010
0100
0010
0001
1000
,
0010
0000
0100
0000
0000
0001
1000
0001
,
0100
0000
0010
0000
0000
0100
1000
0001
,
0100
0000
0001
1000
0000
1000
0001
1000
,
0100
0000
0010
0000
0000
0100
1000
0001
,
0100
0000
0001
1000
0000
1000
0001
0100
,
0001
0000
0010
0010
0000
0100
1000
0001
,
0100
0000
0001
0100
0000
0001
0100
0001
,
1000
1000
0010
0000
0100
0100
0001
0000
,
1000
0100
0010
0100
1000
1000
0001
1000
,
0010
0000
0100
0000
0000
0010
0001
1000
,
0010
0000
1000
0001
0000
0001
1000
0001
,
0010
0000
0100
0000
0000
0010
0001
1000
,
0010
0000
1000
0001
0000
0001
1000
0010
,
1000
0000
0100
0100
0000
0010
0001
1000
,
0010
0000
1000
0010
0000
1000
0010
1000
,
0001
0001
0100
0000
0010
0010
1000
0000
,
0001
0010
0100
0010
0001
0000
0000
0000
,
1000
0100
0010
0000
0100
0010
0001
0010
,
0100
1000
0100
0010
0001
0010
0100
1000
,
0010
1000
0010
1000
0010
1000
0010
0100
,
0001
0000
0010
0000
0100
0000
1000
0000
0002
0003
0000
0000
1001
0000
0000
0000
,
0001
0100
0001
0100
0001
0100
0001
0100
,
0010
0000
1000
0000
0001
0000
0010
0000
0200
0300
0000
0000
0110
0000
0000
0000
,
0100
1000
0010
0100
0001
0010
0100
0010
,
0001
0000
1000
0000
0100
0000
0010
0000
0200
0300
0000
0000
1100
0000
0000
0000
,
0100
1000
0010
0100
0001
0000
1001
0000
,
0001
0100
0010
0100
0001
0000
1001
0000
,
0001
0100
0000
0010
1000
0000
1000
0100
,
0000
0010
0001
0000
0001
1000
0000
1000
,
0001
0100
0010
1000
0001
0010
0100
0010
,
0001
1000
0100
0010
0001
0010
0100
1000
,
0010
0000
0000
0000
0200
0300
0000
0000
1001
0000
0000
0000
0000
0000
0000
0000
;

//---------------dance-single - ----------------
#NOTES:
     dance-single:
     :
     Challenge:
     12:
     1.005173,1.022846,0.508642,0.190741,1.144444,664.000000,616.000000,48.000000,18.000000,0.000000,0.000000,1.005173,1.022846,0.508642,0.190741,1.144444,664.000000,616.000000,48.000000,18.000000,0.000000,0.000000:
// measure 0
0001
0000
0000
1000
0000
0010
0000
0100
,  // measure 1
0001
0000
0001
1000
0000
0000
0000
0000
,  // measure 2
0001
0100
0010
1000
0001
0010
0100
0010
0001
0100
0010
1000
0001
0000
0001
1000
,  // measure 3
0010
0100
0001
0010
0001
1000
0100
0010
0200
0000
0000
0000
0301
0000
0010
0100
,  // measure 4
1000
0010
0100
0001
0010
0001
0100
0010
1000
0100
0010
0001
1000
0000
0001
0100
,  // measure 5
0001
0010
0100
1000
0100
0010
0100
1000
0020
0000
0000
0000
0031
0000
0010
0100
,  // measure 6
0010
0100
0001
0100
0010
1000
0010
1000
0001
1000
0100
0010
0100
0010
0001
0010
,  // measure 7
0001
0010
0100
1000
0100
0010
0001
1000
0020
0000
0000
0000
0031
0000
0010
0100
,  // measure 8
0001
0100
0010
1000
0001
1000
0100
0010
0001
0100
0010
1000
0001
1000
0100
0010
,  // measure 9
0001
0100
0010
1000
0001
1000
0100
0010
0001
0100
0010
1000
0001
1000
0100
0010
,  // measure 10
0100
0000
0000
0000
1000
0000
0000
0000
0200
0000
0000
0000
0301
0000
0010
0100
,  // measure 11
1000
0010
0001
0010
1000
0010
0001
0010
1000
0000
0000
0000
1001
0000
0001
0010
,  // measure 12
0100
1000
0100
0001
0100
1000
0100
0001
0100
0000
0000
0000
1001
0000
1000
0100
,  // measure 13
0010
0001
0010
1000
0010
0100
1000
0010
0001
0010
1000
0001
0010
0000
0000
0000
,  // measure 14
0200
0000
0000
0000
1300
0000
0001
1000
0001
0010
0100
0010
0001
0000
1000
0001
,  // measure 15
1000
0010
0001
0010
1000
0010
0001
0010
1000
0000
0000
0000
1001
0000
0001
0010
,  // measure 16
0100
1000
0100
0001
0100
1000
0100
0001
0100
0000
0000
0000
1001
0000
1000
0100
,  // measure 17
0010
0001
1000
0000
1001
0000
0001
1000
0010
0000
0101
0000
0001
0010
0100
0000
,  // measure 18
1100
0000
1000
0010
0100
0001
0010
0100
1000
0001
1000
0001
1000
0001
1000
0001
,  // measure 19
1000
0010
0100
0001
1000
0100
0010
0100
1000
0010
0100
0001
1000
0000
1000
0001
,  // measure 20
0100
0010
1000
0100
1000
0001
0010
0100
0020
0000
0000
0000
1030
0000
0100
0010
,  // measure 21
0001
0100
0010
1000
0100
1000
0010
0100
0001
0010
0100
1000
0001
0000
1000
0010
,  // measure 22
1000
0100
0010
0001
0010
0100
0010
0001
0200
0000
0000
0000
1300
0000
0100
0010
,  // measure 23
0100
0010
1000
0010
0100
0001
0100
0001
1000
0001
0010
0100
0010
0100
1000
0100
,  // measure 24
1000
0100
0010
0001
0010
0100
1000
0001
0200
0000
0000
0000
1300
0000
0100
0010
,  // measure 25
1000
0010
0100
0001
1000
0001
0010
0100
1000
0010
0100
0001
1000
0001
0010
0100
,  // measure 26
1000
0010
0100
0001
1000
0001
0010
0100
1000
0010
0100
0001
1000
0001
0010
0100
,  // measure 27
0010
0000
0100
0000
0000
1100
0110
0011
,  // measure 28
1002
0000
0103
0000
0101
0001
0100
0100
,  // measure 29
0010
0000
1000
0001
0000
0011
0110
1100
,  // measure 30
2001
0000
3010
0000
1010
0010
0100
0100
,  // measure 31
0001
0000
1000
0001
0000
0101
0110
1010
,  // measure 32
1002
0000
0100
0103
0000
0001
0100
0001
,  // measure 33
1000
0000
0100
1000
0000
0100
0010
0001
,  // measure 34
1000
1000
1010
0000
0010
0010
0110
0000
,  // measure 35
0100
0101
0001
0011
1001
0011
0110
1100
,  // measure 36
2001
0000
3010
0000
1010
1000
0010
0010
,  // measure 37
0100
0000
0001
1000
0000
1100
0110
0011
,  // measure 38
1002
0000
0103
0000
0101
0100
0010
0010
,  // measure 39
1000
0000
0001
1000
0000
1010
0110
0101
,  // measure 40
2001
0000
0010
3010
0000
1000
0010
1000
,  // measure 41
0001
0000
0010
0001
0000
0010
0100
1000
,  // measure 42
0001
0001
0101
0000
0100
0100
0110
0000
,  // measure 43
0010
1010
1000
1100
1001
0000
0000
0000
,  // measure 44
1000
0010
0100
0000
0010
1000
0001
0100
,  // measure 45
0001
0010
0100
1000
0001
0000
0000
0000
,  // measure 46
1000
0010
0100
0001
1000
0100
0010
0100
1000
0010
0100
0001
1000
0000
1000
0001
,  // measure 47
0100
0010
1000
0100
1000
0001
0010
0100
0020
0000
0000
0000
0130
0000
0100
0010
,  // measure 48
0001
0100
0010
1000
0100
1000
0010
0100
0001
0010
0100
1000
0001
0000
1000
0010
,  // measure 49
1000
0100
0010
0001
0010
0100
0010
0001
0020
0000
0000
0000
0031
0000
0001
0010
,  // measure 50
0100
1000
0001
1000
0010
0100
0001
0010
0100
1000
0001
1000
0001
0010
0100
1000
,  // measure 51
0100
0010
0001
0010
0001
1000
0001
1000
0020
0000
0000
0000
0130
0000
0010
0100
,  // measure 52
0001
0100
0010
1000
0001
1000
0100
0010
0001
0000
0000
0000
1001
0000
0001
0100
,  // measure 53
0010
1000
0001
0010
0100
0010
0001
1000
0100
0000
0000
0000
1001
0000
1000
0010
,  // measure 54
0100
0001
0010
0000
0100
0000
1000
0100
0001
0000
0100
0000
1000
0010
0001
0000
,  // measure 55
0010
0000
1000
0010
0001
0000
0010
0000
1000
0010
0001
0000
0010
0000
1000
0010
,  // measure 56
0100
0001
0010
0001
0100
0010
1000
0001
0010
0100
0010
0001
1000
0100
0010
0001
,  // measure 57
1000
0100
0010
0001
0010
0100
0010
0001
0010
0100
1000
0010
0100
0001
0010
0100
,  // measure 58
0020
1030
1001
0000
;

//---------------dance-single - ----------------
#NOTES:
     dance-single:
     :
     Easy:
     4:
     0.292166,0.371944,0.074177,0.000000,0.000000,193.000000,186.000000,7.000000,0.000000,0.000000,0.000000,0.292166,0.371944,0.074177,0.000000,0.000000,193.000000,186.000000,7.000000,0.000000,0.000000,0.000000:
1000
0000
0000
0000
,
0001
0000
0000
0000
,
1000
0001
1000
0001
,
1000
0001
0100
0010
,
1000
0001
1000
0001
,
1000
0100
0010
0000
,
0001
1000
0001
1000
,
0100
1000
0010
0000
,
1000
0001
1000
0001
,
1000
0001
1000
0001
,
0100
0001
0010
0000
,
0001
0001
0010
0000
,
0001
0001
0100
0000
,
0001
0001
1000
0001
,
0000
0000
1000
0100
,
1000
1000
0010
0000
,
1000
1000
0001
0000
,
0100
0000
0000
0010
0000
0000
1000
0000
,
0000
0001
0000
0000
0000
0000
0000
0000
,
1000
0100
1000
0100
,
1000
0100
0010
0001
,
0010
0001
0010
0001
,
0010
0100
1000
0001
,
1000
0010
1000
0010
,
1000
0001
1000
0100
,
1000
0001
0100
0001
,
0100
0001
0100
0001
,
0100
0001
0000
1000
,
0001
0000
0000
0100
,
0001
0000
0000
1000
0000
0000
0001
0000
,
0010
0000
0000
0100
,
1000
0000
0000
0100
0000
0000
1000
0000
,
0001
0000
0000
1000
,
0001
0000
0000
0100
0000
0000
0001
0000
,
1000
0100
1000
0010
,
1000
0001
0100
0001
,
0010
0000
0000
0100
,
1000
0000
0000
0100
0000
0000
1000
0000
,
0010
0000
0000
0100
,
0001
0000
0000
1000
0000
0000
0001
0000
,
0100
0000
0000
0100
,
0010
0000
0000
1000
0000
0000
0001
0000
,
1000
0010
1000
0001
,
1000
0001
0100
0000
,
0001
0000
1000
0000
,
0001
0100
0010
0000
,
1000
0001
1000
0001
,
1000
0001
1000
1001
,
0001
1000
0001
1000
,
0001
0010
0100
1001
,
1000
0100
1000
0010
,
1000
0001
0100
1001
,
0001
0010
0100
1001
,
1000
0100
0010
1001
,
0001
0000
0000
1000
0000
0000
0010
0000
,
0000
0100
0000
0000
0001
0000
0000
0100
,
0000
0000
0000
0000
,
0000
1000
0001
0100
,
0010
0110
1001
0000
;

//---------------dance-single - ----------------
#NOTES:
     dance-single:
     :
     Medium:
     6:
     0.435979,0.495926,0.243724,0.010597,0.000000,288.000000,265.000000,23.000000,1.000000,0.000000,0.000000,0.435979,0.495926,0.243724,0.010597,0.000000,288.000000,265.000000,23.000000,1.000000,0.000000,0.000000:
1000
0000
0000
0010
0000
0100
0000
0100
,
0001
0000
0001
1000
0000
0000
0000
0000
,
0001
1000
0010
1000
,
0001
0100
0010
1001
,
1000
0100
1000
0001
,
1000
0001
0100
1001
,
1000
0010
0100
0001
,
0010
0100
0010
1001
,
1000
0100
1000
0100
,
1000
0100
1000
0100
,
1000
0001
0000
1001
,
1000
0100
0010
0001
1000
0000
1001
0000
,
0001
0010
0100
1000
0001
0000
1001
0000
,
1000
0100
0010
0001
0010
0100
1000
0000
,
0000
0000
1001
0000
0001
0100
0010
0000
,
1000
0100
0010
0001
0010
0000
1001
0000
,
0001
0010
0100
1000
0001
0000
1001
0000
,
1000
0010
0000
0010
0100
0000
0100
0001
,
0000
2000
0000
0000
0000
0000
0000
0000
,
3001
0100
0010
1000
,
0010
0100
0001
1100
,
1000
0010
0100
0001
,
0010
0100
1000
0011
,
1000
0100
1000
0010
,
0100
0001
0010
1100
,
0100
0010
0001
0010
,
0100
0010
0001
0010
,
0100
0000
0000
0000
0000
0001
1000
0010
,
0100
0000
0000
0000
0000
0010
0100
0001
,
1000
0000
0001
1000
0000
0001
0100
0010
,
1000
0000
0000
0000
0000
0010
0100
0001
,
1000
0000
0001
1000
0000
1000
0001
0100
,
0010
0000
0000
0000
0000
0100
0010
1000
,
0001
0000
1000
0001
0000
1000
0100
0010
,
0001
0100
0001
0000
1000
0010
1000
0000
,
0001
0100
0001
1000
0010
0100
0001
1000
,
0001
0000
0000
0000
0000
1000
0100
0010
,
0001
0000
0010
0001
0000
0001
0010
0100
,
1000
0000
0000
0000
0000
1000
0100
0010
,
0001
0000
0010
0100
0000
1000
0100
0010
,
0001
0000
0000
0000
0000
0001
0010
0100
,
1000
0000
0100
1000
0000
0010
0100
0001
,
1000
0001
1000
0000
0001
1000
0001
0000
,
1000
0001
0100
0001
1000
0000
0000
0000
,
0001
1000
0100
1000
,
0010
0100
0001
0000
,
1000
0100
1000
0010
,
0100
0001
0010
1100
,
0100
0010
0001
0010
,
0001
0100
0010
0101
,
0001
0100
0010
1000
,
0001
0100
0010
1001
,
1000
0100
0010
0001
1000
0000
1001
0000
,
0001
0010
0100
1000
0001
0000
1001
0000
,
1001
0000
0000
0001
0000
0000
1000
0000
,
0000
0010
0000
0000
0100
0000
0000
0010
,
0100
0010
1000
0001
,
0010
0110
1100
0011
,
1010
0010
1001
0000
;

//---------------dance-single - ----------------
#NOTES:
     dance-single:
     :
     Beginner:
     1:
     0.122619,0.309953,0.021193,0.000000,0.000000,81.000000,79.000000,2.000000,0.000000,0.000000,0.000000,0.122619,0.309953,0.021193,0.000000,0.000000,81.000000,79.000000,2.000000,0.000000,0.000000,0.000000:
0000
0000
0000
0000
,
0000
0000
0000
0000
,
0001
0000
0000
0000
,
1000
0000
0000
0000
,
0010
0000
0000
0000
,
1000
0000
0000
0000
,
0100
0000
0000
0000
,
0010
0000
0000
0000
,
0100
0000
0000
0000
,
1000
0000
0000
0000
,
0001
1000
0000
0000
,
0001
0000
0000
0000
,
0100
0000
0000
0000
,
0001
0000
0000
0000
,
0000
0000
1000
0000
,
0100
0000
0000
0000
,
1000
0000
0000
0000
,
0010
0000
0000
0010
,
0000
0000
0000
0000
,
0100
0000
0000
0000
,
0010
0000
0000
0000
,
0100
0000
0000
0000
,
0001
0000
0000
0000
,
1000
0000
0000
0000
,
0001
0000
0000
0000
,
0100
0000
0000
0000
,
0010
0000
0000
0000
,
0100
0000
0000
0010
,
0010
0000
0000
0000
,
1000
0000
0000
0001
,
0001
0000
0000
0000
,
1000
0000
0000
0010
,
0010
0000
0000
0000
,
0100
0000
0000
0000
,
0010
0000
1000
0000
,
0001
0001
0001
0000
,
1000
0000
0000
0000
,
0001
0000
0000
0100
,
0100
0000
0000
0010
,
0010
0000
0000
1000
,
1000
0000
0000
0100
,
0100
0000
0000
1000
,
0001
0000
1000
0000
,
0010
0010
0010
0000
,
0100
0000
0000
0000
,
0000
0000
0000
0000
,
0010
0000
0000
0000
,
1000
0000
0000
0000
,
0001
0000
0000
0000
,
0010
0000
0000
0000
,
0001
0000
0000
0000
,
1000
0000
0000
0000
,
0010
0000
0000
0000
,
0100
0000
0000
0000
,
0010
0000
1000
0000
,
0001
0000
1000
0000
,
0010
0000
0100
0000
,
0010
1000
0100
0010
,
0001
1001
0110
0000
;
