#TITLE:The Emergency;
#SUBTITLE:;
#ARTIST:BT;
#TITLETRANSLIT:;
#SUBTITLETRANSLIT:;
#ARTISTTRANSLIT:;
#GENRE:;
#CREDIT:;
#BANNER:The Emergency.png;
#BACKGROUND:The Emergency-bg.png;
#LYRICSPATH:;
#CDTITLE:;
#MUSIC:The Emergency.ogg;
#OFFSET:-0.110000;
#SAMPLESTART:90.476166;
#SAMPLELENGTH:12.910164;
#SELECTABLE:YES;
#BPMS:0.000000=130.130005
,132.000000=65.06500
,164.000000=130.13000
;
#STOPS:
;
#BGCHANGES:;
#KEYSOUNDS:;
#ATTACKS:;

//---------------dance-single - ----------------
#NOTES:
     dance-single:
     :
     Hard:
     6:
     0.234273,0.324059,0.054925,0.415862,0.047079,209.000000,202.000000,7.000000,53.000000,0.000000,0.000000,0.234273,0.324059,0.054925,0.415862,0.047079,209.000000,202.000000,7.000000,53.000000,0.000000,0.000000:
// measure 0
0000
0000
0000
0000
,  // measure 1
0000
0000
0000
0000
,  // measure 2
0000
0000
0000
0000
,  // measure 3
0000
0000
0000
0000
,  // measure 4
0000
0000
0000
0000
,  // measure 5
0000
0001
0000
1000
,  // measure 6
0000
0010
0000
1000
,  // measure 7
0000
0001
0000
0100
,  // measure 8
0000
0001
0000
1001
,  // measure 9
1000
0010
0100
0010
,  // measure 10
1000
0001
0010
0001
,  // measure 11
0100
0001
1000
0100
,  // measure 12
1000
0000
0010
0000
0100
0001
0100
0000
,  // measure 13
0001
0010
0001
1000
,  // measure 14
0100
1000
0010
0100
,  // measure 15
0001
0010
0001
1000
,  // measure 16
0200
0000
0000
0000
,  // measure 17
0300
1001
0001
0010
,  // measure 18
0001
0000
1000
0000
0100
1000
0000
0000
,  // measure 19
0010
0000
0100
0000
0001
1000
0001
0020
,  // measure 20
0000
0030
0000
0000
,  // measure 21
0100
0000
1000
0000
0001
0100
0000
0010
,  // measure 22
0000
0100
0001
0010
0001
1000
0000
0002
,  // measure 23
0000
0103
0000
0001
,  // measure 24
0000
0010
0000
0100
,  // measure 25
1000
0000
0100
0000
0000
0010
0000
0001
,  // measure 26
0000
0100
0010
0000
1000
0001
0000
0000
,  // measure 27
1000
0000
0010
0000
0000
0200
0000
0020
,  // measure 28
0000
0000
0330
0000
0000
0000
0000
1000
,  // measure 29
0001
0000
1000
0000
0000
0100
0000
1000
,  // measure 30
0000
0001
0100
0001
0010
0001
1000
0200
,  // measure 31
0000
1300
0000
0001
,  // measure 32
0200
0000
0000
0300
,  // measure 33
1001
0000
2000
0000
0020
3000
0200
0330
,  // measure 34
0001
0000
0000
0000
0200
0000
0000
0000
0020
0000
0300
0000
2000
0000
3030
0001
,  // measure 35
0000
0000
0020
0000
0002
0030
0200
0303
,  // measure 36
0000
0000
0000
0001
1000
0100
0000
1000
0000
0100
0000
2000
0000
0002
0000
3003
,  // measure 37
0001
0000
0200
0000
0020
0300
2000
3030
,  // measure 38
1000
0000
0000
0000
0200
0000
0000
0000
0020
0000
0300
0000
0032
0000
0013
0200
,  // measure 39
0000
0000
0300
0000
0000
0010
0001
2000
0000
0000
0000
3000
0000
0001
0100
0020
,  // measure 40
0000
0000
0000
0000
0200
0000
0000
0330
,  // measure 41
1001
0000
1000
0001
0200
0000
0310
1000
,  // measure 42
0002
0000
0013
0100
2000
0000
3100
0000
,  // measure 43
1001
0000
1000
0001
0020
0000
0130
0010
,  // measure 44
0002
0000
1003
0010
0200
0000
0310
1000
,  // measure 45
0001
0000
1000
0000
0002
0000
1003
0010
,  // measure 46
0200
0000
0310
0100
0002
0000
0013
0000
,  // measure 47
0100
0000
0010
0001
1000
0100
0000
2000
,  // measure 48
0000
3020
0000
0230
0000
0302
0000
0000
,  // measure 49
0013
0000
0001
0010
2000
0000
3010
0100
,  // measure 50
2000
0000
3010
0100
0002
0000
0013
0000
,  // measure 51
1001
0000
1000
0100
0002
0000
0103
0010
,  // measure 52
0200
0000
0310
0001
2000
0000
3001
0200
,  // measure 53
0000
0000
0300
0000
0000
0010
1000
0200
,  // measure 54
0000
0000
0300
0000
0000
0010
0001
2000
,  // measure 55
0000
0000
0000
0000
,  // measure 56
0002
0000
0000
3003
,  // measure 57
0220
0000
0000
0000
,  // measure 58
0000
0000
0000
0000
,  // measure 59
0330
0000
0000
0000
;

//---------------dance-single - ----------------
#NOTES:
     dance-single:
     :
     Medium:
     4:
     0.183831,0.277765,0.039232,0.219701,0.035309,164.000000,159.000000,5.000000,28.000000,0.000000,0.000000,0.183831,0.277765,0.039232,0.219701,0.035309,164.000000,159.000000,5.000000,28.000000,0.000000,0.000000:
0000
0000
0000
0000
,
0000
0000
0000
0000
,
0000
0000
0000
0000
,
0000
0000
0000
0000
,
0000
0000
0000
0000
,
0000
1000
0000
1000
,
0000
0001
0000
0001
,
0000
0100
0000
0100
,
0000
0010
0000
0010
,
1000
0100
0000
0100
,
0000
0010
0000
0010
,
0000
0001
0000
0001
,
0000
1000
0000
1000
,
0001
1000
0000
0010
,
0000
1000
0000
0001
,
0000
0100
0000
0010
,
0000
1000
0000
0001
,
1000
0101
0000
0001
,
0100
0000
0010
0000
1000
0010
0000
0000
,
1000
0000
0010
0000
0000
0100
0000
0002
,
0000
0003
0000
0000
,
0010
0000
0001
0000
0000
1000
0000
0001
,
0000
0100
0001
0000
0010
0100
0000
2000
,
0000
3000
0000
0100
,
0000
0100
0000
0100
,
1000
0000
1001
0000
0000
0001
0000
0010
,
0000
0001
0100
0000
0010
0100
0000
0000
,
1000
0000
0010
0000
0000
0100
0000
0020
,
0000
0000
0030
0000
0000
0000
0000
0100
,
0001
0000
0010
0000
0000
0001
0000
1000
,
0000
0001
0100
0010
1000
0000
0010
0200
,
0000
0000
0000
0000
,
0020
0000
0000
0330
,
1001
0000
0001
0000
1000
0000
0200
0300
,
1000
0000
0010
0000
0100
0000
0002
0003
,
0100
0000
0010
0000
1000
0000
0200
0300
,
0000
0000
0000
0000
0010
0000
0000
0001
0000
1000
0000
0001
0000
0100
0000
0000
,
0010
0000
1000
0000
0100
0000
2000
3000
,
0001
0000
0000
0000
0100
0000
0000
0000
0001
0000
0000
0000
0020
0000
0031
1000
,
0000
0000
0000
0000
0000
1000
0001
1000
0000
0000
0000
0000
0000
0001
1000
0002
,
0000
0000
0000
0000
0200
0000
0000
0303
,
1010
1000
0001
0010
,
0001
1000
0200
0300
,
1000
0010
0100
0001
,
0010
0001
2000
3000
,
0001
0010
0001
1000
,
0100
1000
0020
0030
,
0000
0000
0000
0100
0010
1000
0000
0001
,
0000
1000
0000
0010
0000
2000
0000
0000
,
3001
1000
0200
1300
,
0020
0130
0002
0003
,
0100
0010
2000
3001
,
0020
0000
0130
0000
0020
0000
0130
0020
,
0000
0000
0030
0000
0000
0010
0001
0200
,
0000
0000
0300
0000
0000
0010
1000
0200
,
0000
0000
0000
0000
,
0020
0000
0000
0330
,
2002
0000
0000
0000
,
0000
0000
0000
0000
,
3003
0000
0000
0000
;

//---------------dance-single - ----------------
#NOTES:
     dance-single:
     :
     Easy:
     2:
     0.134511,0.223624,0.031386,0.086311,0.000000,120.000000,116.000000,4.000000,11.000000,0.000000,0.000000,0.134511,0.223624,0.031386,0.086311,0.000000,120.000000,116.000000,4.000000,11.000000,0.000000,0.000000:
0000
0000
0000
0000
,
0000
0000
0000
0000
,
0000
0000
0000
0000
,
0000
0000
0000
0000
,
0000
0000
0000
0000
,
0000
1000
0000
1000
,
0000
0001
0000
0001
,
0000
0100
0000
0100
,
0000
0010
0000
0010
,
0100
0010
0000
0010
,
0000
1000
0000
1000
,
0000
0001
0000
0001
,
0000
0100
0000
0010
,
0000
1000
0000
0010
,
0000
1000
0000
0010
,
0000
0100
0000
0001
,
0000
0200
0000
0000
,
0300
1001
0000
0001
,
0000
1000
0010
0000
,
1000
0000
0001
0001
,
1000
0000
0000
0000
,
0010
1000
0000
0010
,
0000
0100
0000
0001
,
1000
0100
0000
1000
,
0000
0001
0000
1000
,
0010
0010
0000
1000
,
0000
0001
0000
0100
,
0001
0001
0000
1000
,
0000
0001
0000
0010
,
0001
1000
0000
0100
,
0000
1000
0010
1000
,
0100
0000
0000
0000
,
0020
0000
0000
0030
,
1001
1000
0001
1000
,
0010
0100
0010
0100
,
0001
1000
0001
1000
,
0000
0000
0020
0000
0000
0000
0000
0030
,
0100
0010
0100
0010
,
1000
0001
1000
0001
,
0100
0000
0010
0000
,
2000
0000
0000
0000
0002
0000
0000
3003
,
0110
0000
0010
0000
,
1000
0000
0002
0003
,
0010
0000
0001
0000
,
1000
0000
0200
0300
,
1000
0000
0001
0000
,
0100
0000
0020
0030
,
0000
0000
0100
0000
,
0010
0000
1000
0000
,
0001
0000
1000
0000
,
0001
0000
0020
0030
,
0001
0000
1000
0000
,
0100
0000
1000
0010
,
0100
0000
0000
0010
,
1000
0000
0000
0001
,
2000
0000
0000
0000
,
0002
0000
0000
3003
,
0110
0000
0000
0000
;

//---------------dance-single - ----------------
#NOTES:
     dance-single:
     :
     Beginner:
     1:
     0.082948,0.156537,0.062772,0.000000,0.000000,74.000000,66.000000,8.000000,0.000000,0.000000,0.000000,0.082948,0.156537,0.062772,0.000000,0.000000,74.000000,66.000000,8.000000,0.000000,0.000000,0.000000:
0000
0000
0000
0000
,
0000
0000
0000
0000
,
0000
0000
0000
0000
,
0000
0000
0000
0000
,
0000
0000
0000
0000
,
0000
0000
0000
0000
,
1000
0000
0000
0000
,
0000
0000
0000
0000
,
0000
0000
0000
0000
,
0001
0000
0000
0000
,
0100
0000
0000
0000
,
0010
0000
0000
0000
,
0000
0000
0000
0000
,
1000
0000
0000
0000
,
0001
0000
0000
0000
,
0100
0000
0000
0000
,
0000
0000
0000
0000
,
0010
1001
0000
0000
,
1000
0000
0000
0000
,
0001
0000
0000
0000
,
0100
0000
0000
0000
,
0010
0000
0000
0000
,
1000
0000
1000
0000
,
1000
0000
0000
0000
,
0000
0000
0000
0000
,
0001
0001
0000
0000
,
0100
0000
0000
0000
,
0010
0010
0000
0000
,
1000
0000
0000
0000
,
0100
0100
0000
0000
,
1000
0000
0001
0000
,
0100
0000
0000
0000
,
0000
0000
0000
0000
,
1001
0000
0000
0000
,
1000
0000
0000
0000
,
0001
0000
0000
0000
,
0000
0100
0000
0000
,
0010
1000
0000
0000
,
1000
0001
0000
0000
,
0100
0000
0010
0000
,
1000
0000
0001
0000
,
1001
0000
0001
0000
,
0001
0000
0001
0000
,
1001
0000
1000
0000
,
1000
0000
1000
0000
,
0110
0000
0010
0000
,
0010
0000
0010
0000
,
0000
0000
0100
0000
,
0000
0000
0000
0000
,
1001
0000
1000
0000
,
0001
0000
1000
0000
,
0110
0000
0010
0000
,
0100
0000
0010
0100
,
0000
0000
0000
0010
,
0000
0000
0000
1000
,
0001
0000
0000
0000
,
1000
0000
0000
0000
,
0110
0000
0000
0000
;
