#TITLE:The Airship Blackjack;
#SUBTITLE:(Pure Sine Mix);
#ARTIST:Levo Lution XII;
#TITLETRANSLIT:;
#SUBTITLETRANSLIT:;
#ARTISTTRANSLIT:;
#GENRE:;
#CREDIT:;
#BANNER:;
#BACKGROUND:;
#LYRICSPATH:;
#CDTITLE:;
#MUSIC:[Not Rhythm Games] - The Airship Blackjack (Pure Sine Mix).ogg;
#OFFSET:-0.153000;
#SAMPLESTART:27.601572;
#SAMPLELENGTH:13.714289;
#SELECTABLE:YES;
#DISPLAYBPM:140.000000;
#BPMS:0.000000=140.000000
;
#STOPS:
;
#BGCHANGES:;
#KEYSOUNDS:;
#ATTACKS:;

//---------------dance-single - ----------------
#NOTES:
     dance-single:
     :
     Hard:
     7:
     0.418805,0.429860,0.063905,0.583132,0.107840,286.000000,8.000000,73.000000,0.000000,0.000000,0.000000,0.418805,0.429860,0.063905,0.583132,0.107840,286.000000,8.000000,73.000000,0.000000,0.000000,0.000000:
0000
0000
0000
0000
,
0000
0000
0000
0000
,
0000
0000
0000
0000
,
0000
0000
0000
0000
,
0000
0000
0001
0000
0000
0001
0000
0000
0100
0000
0000
0010
0000
0000
0010
0000
,
0000
0000
1000
0000
0000
1000
0000
0000
0010
0000
0000
0100
0000
0000
0100
0000
,
1001
0100
1001
0010
,
1001
0000
0110
0000
1001
0000
0001
1000
,
0100
0000
0000
0010
0000
0000
0100
0000
1000
0000
0010
0000
0100
0000
0001
0000
,
1000
0000
0000
0100
0000
0000
1000
0000
0001
0000
0100
0000
0001
0000
1000
0000
,
0001
0000
0000
0010
0000
0000
0100
0000
0010
0000
0001
0000
1000
0000
0100
0000
,
1000
0000
0000
0010
0000
0000
0100
0000
0001
0000
0010
0000
0001
0000
1000
0000
,
0100
0000
0000
1000
0000
0000
0010
0000
0001
0000
0010
0000
0100
0000
0001
0000
,
1000
0000
0000
0001
0000
0000
0010
0000
0001
0000
1000
0000
0100
0000
1000
0000
,
0001
0000
0000
0010
0000
0000
0001
0000
0100
0000
0001
0000
0100
0000
0010
0000
,
1000
0001
1000
0001
1000
0001
1000
0001
,
0200
0001
0000
0302
,
2003
0100
0000
0100
,
3000
2000
3200
2300
,
3002
2003
3020
0230
,
0302
1000
0000
2003
,
3200
2300
3020
0230
,
0302
0000
2000
0000
,
0000
0000
0000
3003
,
0001
0000
0100
0001
0000
0001
2000
0000
,
0000
0100
0010
3001
,
1000
0000
0100
1000
0000
1000
0002
0000
,
0000
0100
0010
1003
,
0001
0000
1000
0001
0000
0001
0200
0000
,
0000
0302
0023
0032
,
2000
0000
0000
3003
,
0001
0010
0100
1000
0001
0010
0100
1000
,
0002
0000
0000
0023
,
0230
0010
0000
0010
,
0300
0020
0032
2003
,
3020
0230
0302
2003
,
3002
0000
0000
0023
,
0230
2300
3002
2003
,
3020
0000
2000
0000
,
0000
0000
0000
3030
,
0010
0000
1000
0100
0000
0010
0002
0000
,
0000
0100
0010
1003
,
0010
0000
0100
0010
0000
0010
2000
0000
,
0000
0100
0010
3001
,
1000
0000
0001
0100
0000
0100
0020
0000
,
0000
2030
3020
0230
,
0302
0000
0000
0000
2000
0000
0000
3003
,
0010
0100
0010
0100
0010
0100
0010
0100
,
2002
0003
0200
0000
,
0000
0000
3300
1000
0100
0001
0100
0010
,
0001
1000
0010
2000
0000
0000
0100
0000
,
0000
0100
0000
3100
,
1002
0000
0020
0000
,
0000
0000
0033
0001
0010
1000
0010
0100
,
1000
0001
1000
0020
0000
0000
0100
0000
,
0000
0130
0002
2003
,
3200
0000
0310
0002
0000
0000
1000
0000
,
0000
2003
3020
0230
,
0301
0000
1000
0020
0000
0000
0100
0000
,
0000
0100
0000
0100
,
2030
0000
3001
0200
0000
0000
0010
0000
,
0000
0320
0230
0302
,
2003
0000
3001
0200
0000
0000
0001
0000
,
0310
0100
0001
0010
0100
1000
0010
0100
,
0000
0000
0001
0000
0000
0001
0000
0000
1000
0000
0000
1000
0000
0000
0010
0000
,
0000
0000
0100
0000
0000
0100
0000
0000
0001
0000
0000
0001
0000
0000
0100
0000
,
0000
0000
0010
0000
0000
0010
0000
0000
1000
0000
0000
1000
0000
0000
1000
0000
,
0001
0000
0000
0001
0000
0000
1000
0000
0000
1000
0000
0000
0100
0000
0000
0000
,
0000
0000
1000
0000
0000
1000
0000
0000
1000
0000
0000
1000
0000
0000
0100
0000
,
0000
0000
0010
0000
0000
0010
0000
0000
0010
0000
0000
0010
0000
0000
0001
0000
,
0000
0000
0100
0000
0000
0100
0000
0000
0100
0000
0000
0100
0000
0000
0100
0000
,
1000
0000
0000
0010
0000
0000
0100
0000
0000
0001
0000
0000
1001
0000
0000
0000
;

//---------------dance-single - ----------------
#NOTES:
     dance-single:
     :
     Medium:
     5:
     0.292137,0.343888,0.087869,0.191715,0.000000,221.000000,11.000000,24.000000,0.000000,0.000000,0.000000,0.292137,0.343888,0.087869,0.191715,0.000000,221.000000,11.000000,24.000000,0.000000,0.000000,0.000000:
0000
0000
0000
0000
,
0000
0000
0000
0000
,
0000
0000
0000
0000
,
0000
0000
0000
0000
,
1000
0000
0100
0000
,
1000
0000
0010
0000
,
0110
0000
1001
0000
,
0110
0110
1001
1001
,
0001
0100
0001
0000
0100
0000
0010
0000
,
1000
0100
1000
0000
0010
0000
0100
0000
,
0001
1000
0001
0000
1000
0000
0100
0000
,
0010
0100
0010
0000
0001
0000
1000
0001
,
1000
0001
0100
0000
0001
0000
1000
0000
,
0001
1000
0010
0000
1000
0000
0001
0000
,
0010
0100
1000
0000
0100
0000
0010
0000
,
0001
0010
0100
0000
0010
0000
0001
0000
,
2000
3001
1000
0002
,
0023
0130
1000
0001
,
0100
0010
1000
0010
,
0001
0000
0010
0000
1000
0000
0001
0010
,
0100
1000
0001
1000
,
0100
1000
0001
0100
,
0010
1000
0010
0100
,
0001
0000
1000
0000
0010
0000
0100
0001
,
0100
0000
0001
1000
0000
1000
0002
0000
,
0000
0000
0000
0003
,
0100
0000
0001
0100
0000
0100
0020
0000
,
0000
0000
0000
0030
,
0100
0000
0001
0100
0000
0010
2000
0000
,
0000
3001
0010
0001
,
0200
0000
0000
0000
,
0020
0000
0000
0330
,
1001
1000
0001
0100
,
0010
1000
0100
0010
,
0100
0010
0100
1000
,
0010
0001
0100
1000
,
0100
0010
1000
0001
,
0010
0100
0010
0001
,
1000
0001
0100
0001
,
0100
0000
0010
0000
1000
0000
0001
1000
,
0001
0000
1000
0100
0000
0100
0020
0000
,
0000
0000
0000
0030
,
0001
0000
0010
0100
0000
0100
2000
0000
,
0000
0000
0000
3000
,
0100
0000
0010
0001
0000
0001
0200
0000
,
0000
0310
1000
0001
,
0200
0000
0020
0000
,
0000
0000
0000
0330
,
2001
0000
0002
0000
,
0000
0000
3003
1000
0001
0100
0001
1000
,
0010
1000
0100
0020
0000
0000
0000
0000
,
0000
0000
0000
0030
,
0120
0000
0200
0000
,
0000
0000
0330
0100
1000
0100
0010
0001
,
1000
0001
1000
0020
0000
0000
0000
0000
,
0000
0000
1030
0100
,
0010
0000
0100
2000
0000
0000
0000
0000
,
0000
3010
0100
0001
,
1000
0000
0001
0020
0000
0000
0000
0000
,
0000
0000
0000
0000
,
0031
0000
0100
0020
0000
0000
0000
0000
,
0000
0130
0010
1000
,
0001
0000
1000
0200
0000
0000
0000
0000
,
0020
0000
0000
0330
,
0010
0000
0100
0000
,
1000
0000
0001
0000
,
0100
0000
0010
0000
,
1000
0001
0010
0001
,
1001
0000
1000
0000
,
0001
0000
0010
0000
,
0001
0000
0100
0000
,
0010
0100
0001
1001
;

//---------------dance-single - ----------------
#NOTES:
     dance-single:
     :
     Easy:
     3:
     0.211114,0.343888,0.063905,0.239643,0.000000,147.000000,8.000000,30.000000,0.000000,0.000000,0.000000,0.211114,0.343888,0.063905,0.239643,0.000000,147.000000,8.000000,30.000000,0.000000,0.000000,0.000000:
0000
0000
0000
0000
,
0000
0000
0000
0000
,
0000
0000
0000
0000
,
0000
0000
0000
0000
,
1000
0000
0100
0000
,
1000
0000
0010
0000
,
1001
0000
1001
0000
,
1001
1001
1001
1001
,
0001
0000
1000
0000
,
0100
0000
1000
0000
,
0010
0000
0100
0000
,
0001
0000
1000
0001
,
0100
0000
0001
0000
,
1000
0000
0100
0000
,
1000
0000
0010
0000
,
0100
0010
1000
0001
,
2000
0000
0000
3001
,
0200
0000
0000
0000
,
0300
0010
1000
0001
,
0010
0100
0010
0001
,
2000
0000
0000
3100
,
1000
0010
0100
0001
,
2000
0000
0002
0000
,
0000
0000
0000
3003
,
0001
1000
0100
2000
,
0000
0000
0000
3000
,
0001
0010
0001
0020
,
0000
0000
0000
0030
,
0001
1000
0010
2000
,
0000
3000
0001
0000
0010
0000
0100
0000
,
2000
0000
0000
0000
,
0002
0000
0000
3003
,
2000
0000
0000
3010
,
0200
0000
0000
0000
,
0300
0010
1000
0010
,
0100
0001
0010
0001
,
2000
0000
0000
3001
,
0010
0100
0010
0001
,
2000
0000
0002
0000
,
0000
0000
0000
3003
,
0100
1000
0010
0200
,
0000
0000
0000
0300
,
0010
0100
0001
0200
,
0000
0000
0000
0300
,
0001
0010
0001
2000
,
0000
3001
0010
0100
,
0020
0000
0200
0000
,
0000
0000
0000
0330
,
0002
0000
2000
0000
,
0000
3003
0001
1000
,
0100
0100
0200
0000
,
0000
0000
0000
0300
,
2000
0000
0002
0000
,
0000
3003
1000
0001
,
0010
0010
0020
0000
,
0000
0000
0130
1000
,
0001
1000
0020
0000
,
0030
0100
0010
1000
,
0001
1000
0002
0000
,
0000
0000
0000
0000
,
0103
0010
0200
0000
,
0000
0310
0100
0001
,
1000
0001
2000
0000
,
0000
0000
3000
0000
,
0001
0000
0010
0000
,
0001
0000
0100
0000
,
0010
0000
1000
0000
,
0001
0000
1000
0000
,
1001
0000
0000
0000
,
0001
0000
0000
0000
,
1000
0000
0000
0000
,
0010
0000
0100
1001
;

//---------------dance-single - ----------------
#NOTES:
     dance-single:
     :
     Beginner:
     1:
     0.094716,0.171944,0.039941,0.000000,0.000000,78.000000,5.000000,0.000000,0.000000,0.000000,0.000000,0.094716,0.171944,0.039941,0.000000,0.000000,78.000000,5.000000,0.000000,0.000000,0.000000,0.000000:
0000
0000
0000
0000
,
0000
0000
0000
0000
,
0000
0000
0000
0000
,
0000
0000
0000
0000
,
1000
0000
0000
0000
,
0001
0000
0000
0000
,
1000
0000
0001
0000
,
1000
0001
1000
0001
,
0010
0000
0000
0000
,
0100
0000
0000
0000
,
1000
0000
0000
0000
,
0001
0000
0000
0000
,
0100
0000
0000
0000
,
0010
0000
0000
0000
,
1000
0000
0000
0000
,
0010
0000
0000
0000
,
0100
0000
0000
0001
,
0001
0000
0000
0000
,
0000
1000
0000
0000
,
0010
0000
0100
0000
,
0001
0000
0000
1000
,
1000
0000
0001
0000
,
0100
0000
0000
0000
,
0000
0000
0000
0000
,
0010
0000
0000
0000
,
0000
0000
0000
0000
,
1000
0000
0000
0000
,
0000
0000
0000
0000
,
0001
0000
0000
0000
,
0000
0100
0000
0010
,
0010
0000
0000
0000
,
1000
0000
0000
0000
,
1001
0000
0000
1000
,
1000
0000
0000
0000
,
0000
0010
0000
0000
,
0100
0000
0001
0000
,
0100
0000
0000
0001
,
0001
0000
1000
0000
,
0100
0000
0100
0000
,
0000
0000
0000
0000
,
1000
0000
0000
0000
,
0000
0000
0000
0000
,
0001
0000
0000
0000
,
0000
0000
0000
0000
,
0100
0000
0000
0000
,
0000
0010
0010
0000
,
0100
0000
0001
0000
,
0000
0000
0000
0000
,
1001
0000
1000
0000
,
0000
0000
0100
0000
,
0000
0000
0000
0000
,
0000
0000
0000
0000
,
1001
0000
0001
0000
,
0000
0000
0001
0000
,
0010
0000
0000
0000
,
0000
0000
0001
0001
,
1000
0000
0000
0000
,
0000
0000
0000
0000
,
0100
0000
0000
0000
,
0000
0000
0000
0000
,
0010
0000
0000
0000
,
0000
0000
0000
0000
,
0001
0000
0000
0000
,
1000
0000
0000
0000
,
1001
0000
0000
0000
,
0001
0000
0000
0000
,
0100
0000
0000
0000
,
0001
0000
0001
0000
,
1001
0000
0000
0000
,
1000
0000
0000
0000
,
1000
0000
0000
0000
,
1000
0000
1000
0010
;
