#TITLE:PLASTIC GIRLS;
#SUBTITLE:(ft Seorryang);
#ARTIST:wigen;
#TITLETRANSLIT:;
#SUBTITLETRANSLIT:;
#ARTISTTRANSLIT:;
#GENRE:;
#CREDIT:;
#BANNER:PLASTIC GIRLS (ft Seorryang).png;
#BACKGROUND:PLASTIC GIRLS (ft Seorryang)-bg.png;
#LYRICSPATH:;
#CDTITLE:;
#MUSIC:PLASTIC GIRLS (ft Seorryang).mp3;
#OFFSET:-0.123000;
#SAMPLESTART:73.933891;
#SAMPLELENGTH:12.000000;
#SELECTABLE:YES;
#BPMS:0.000000=130.000000
;
#STOPS:122.000000=0.462000
;
#BGCHANGES:0.000=[PABAT!] PLASTIC GIRLS (ft Seorryang).avi=1.000=0=0=0=StretchNoLoop====,
99999=-nosongbg-=1.000=0=0=0 // don't automatically add -songbackground-
;
#KEYSOUNDS:;
#ATTACKS:;

//---------------dance-single - ----------------
#NOTES:
     dance-single:
     :
     Hard:
     7:
     0.357539,0.409560,0.131725,0.166389,0.259983,318.000000,19.000000,24.000000,0.000000,0.000000,0.000000,0.357539,0.409560,0.131725,0.166389,0.259983,318.000000,19.000000,24.000000,0.000000,0.000000,0.000000:
0000
0000
0000
0000
,
0000
0000
0000
0000
,
0000
0000
0000
0000
,
0000
0000
0000
0000
,
0000
0000
0000
0000
,
2002
0000
0000
0000
,
0000
0000
0000
0000
,
0000
0000
0000
0000
,
0000
0000
0000
3003
,
0001
1000
0100
1000
,
0001
0100
0001
0010
,
0100
0010
0001
1000
,
0002
0000
0000
0103
,
0001
1000
0100
1000
,
0010
0000
0000
1000
0000
0000
0002
0000
0000
0000
0000
0000
0003
0000
0000
0000
,
0000
1000
0100
1000
,
0010
0100
0010
1000
0000
1000
0000
0002
,
0000
0003
0010
0100
,
0010
0001
1000
0010
0000
0100
0000
0002
,
0000
0000
0000
0000
0000
0000
0000
0000
0023
0000
0000
0000
0000
0030
0100
0000
,
1000
0000
0001
0000
0100
0000
0010
0000
1000
0000
0001
0100
0000
0000
0010
0000
,
1000
0100
1000
0010
,
0110
0000
0000
1000
0000
0000
1002
0000
0000
0000
0000
0000
0003
0000
0000
0000
,
0000
1000
0100
1000
,
0010
0100
0010
1000
0000
0001
0000
0020
,
0000
0000
0000
0000
0000
0000
0000
0030
0100
0000
0000
0000
0010
0000
0000
0000
,
0001
1000
0010
0100
0000
0010
0000
1010
,
0000
0000
0101
0000
,
1001
0000
0001
0000
1000
0000
0010
0000
1000
0000
0010
0100
0000
0000
0001
0000
,
1000
0000
0000
0010
0000
0000
1000
0000
0100
0000
0000
0000
0001
0000
0000
0000
,
0100
0000
1000
0000
0000
0000
0010
0100
,
0010
0100
0001
0100
0001
0100
0001
1000
,
0001
1000
0001
0010
0100
0000
1000
0100
,
1000
0000
0010
0100
0010
0000
0100
0001
,
0100
0000
0001
0010
0001
0000
1000
0100
,
0001
0100
1000
0010
1000
0000
1000
0100
,
0001
0100
1000
0010
1000
0000
0001
0000
,
0100
0000
0000
0000
0010
0000
0000
0000
1000
0000
0000
0000
0001
0000
1000
0010
,
0000
0000
0000
0000
0001
0000
1000
0010
0000
0000
0000
0000
0001
0000
1000
0010
,
0000
0000
0000
0000
0001
0000
1000
0010
0000
0000
0000
0000
1000
0000
0000
0010
,
0100
0000
0000
0100
0001
0000
0000
0001
0010
0000
0000
0010
0100
0000
0000
0100
,
1000
0000
0000
1000
0001
0000
0000
0000
1000
0000
0000
0000
0001
0000
0000
0001
,
0100
0000
0000
0100
0010
0000
0000
0010
1000
0000
0000
0000
1010
0000
0000
0110
,
0000
0000
0001
0000
2001
0000
0000
0000
3010
0000
0000
0000
1000
0000
0000
0010
,
1000
0000
0000
1000
0100
0000
0000
0100
0010
0000
0000
0010
0001
0000
0000
0010
,
0000
0000
0001
0000
0100
0000
0000
0010
0000
0000
0100
0000
0000
0000
0000
0000
,
0001
0000
0000
0000
0010
0000
0000
0000
0100
0000
0000
0000
1000
0000
0000
0010
,
0000
0000
0100
0000
0002
0000
0000
0000
1003
0000
0100
0000
0010
0000
0000
0010
,
0001
0000
0000
0001
0100
0000
0000
0010
1000
0000
0000
1000
0100
0000
0000
0010
,
0001
0000
0000
0001
1000
0000
0000
0000
0000
0000
0000
0000
0001
0000
0000
1000
,
0001
0000
0000
0001
0100
0000
0000
0100
0010
0000
0000
0010
1000
0000
0000
0101
,
0000
0000
0001
0000
0021
0000
0000
0000
0130
0000
0000
0000
1000
0000
0000
0100
,
1000
0000
0000
1000
0010
0000
0000
0010
0100
0000
0000
0100
0001
0000
0000
0010
,
0000
0000
0001
0000
1000
0000
0000
0100
0000
0000
1000
0000
0000
0000
0000
0000
,
0200
0000
0000
0000
1300
0000
0000
0000
0020
0000
0000
0000
0130
0000
0000
0010
,
0000
1000
0002
0000
0023
0000
0130
0010
,
0001
0100
1000
0100
0010
0000
1000
0010
,
0100
0001
0010
1000
0010
0000
0000
0000
,
1001
0000
0110
0000
,
1001
0000
0110
2002
,
0000
0000
0000
0000
3003
0000
0000
0000
0000
0000
0000
0000
0000
0000
0000
1000
,
0000
0001
0000
0000
1000
0000
0000
0001
0000
0020
0000
0030
0100
0000
0000
1000
,
0000
0010
0000
0000
0010
0000
0000
0100
0000
0001
0000
1000
0001
0000
0000
0010
,
0000
0001
0000
0000
1000
0000
0000
0001
0000
0200
0020
0330
0000
0000
0100
0010
,
0000
1000
0000
0000
0100
0000
0000
0010
0000
0001
1000
0000
0000
0000
0001
0100
,
0000
0001
0000
0000
0000
0000
1000
0100
0000
2000
0000
3000
0001
0000
0100
0001
,
0000
0100
0000
0000
0010
0000
1000
0010
0000
0100
0001
0000
1000
0000
0100
0010
,
0000
0001
0000
0000
0001
0000
0010
0100
0000
1000
0000
0000
1000
0000
0100
0010
,
0000
0001
0000
0000
0101
0000
0000
0000
1100
0000
0000
0000
0000
0000
0000
0000
,
2002
0000
3003
0000
;

//---------------dance-single - ----------------
#NOTES:
     dance-single:
     :
     Medium:
     5:
     0.254536,0.313193,0.090128,0.131725,0.034664,225.000000,13.000000,19.000000,0.000000,0.000000,0.000000,0.254536,0.313193,0.090128,0.131725,0.034664,225.000000,13.000000,19.000000,0.000000,0.000000,0.000000:
0000
0000
0000
0000
,
0000
0000
0000
0000
,
0000
0000
0000
0000
,
0000
0000
0000
0000
,
0000
0000
0000
0000
,
2002
0000
0000
0000
,
0000
0000
0000
0000
,
0000
0000
0000
0000
,
0000
0000
0000
3003
,
0001
1000
0001
0001
,
1000
0010
0100
0100
,
0010
1000
0100
0100
,
2000
0000
0000
3010
,
0100
0001
1000
0001
,
0100
0000
0000
0001
0000
0000
0200
0000
0000
0000
0000
0000
0300
0000
0000
0000
,
0000
0010
1000
0001
,
0010
0000
0100
1000
0000
0100
0000
2000
,
0000
3000
0100
1000
,
0010
0100
0010
1000
0000
0001
0000
0200
,
0000
0000
0000
0000
0010
0000
0000
0320
,
2000
0000
0000
3030
,
0000
1000
0001
0100
,
0001
0000
0000
0010
0000
0000
0200
0000
0000
0000
0000
0000
0300
0000
0000
0000
,
0000
0010
0001
1000
,
0001
0100
0001
0100
0000
0001
0000
2000
,
0000
3000
0001
1000
,
0100
1000
0100
1000
0000
0010
0000
0200
,
0000
0000
0320
0000
,
2000
0000
0000
3030
,
0010
1000
0001
0010
,
0100
0000
0010
0000
0000
0000
0000
0001
,
0000
1000
0000
0010
0000
0100
0000
0001
,
0000
1000
0000
0010
0100
0000
0010
0000
,
1000
0001
0010
0001
,
1000
0000
0100
0000
1000
0000
0000
0001
,
0000
0100
0020
0000
0000
0030
0000
0100
,
0000
0010
2000
0000
0000
0000
3001
0000
,
0010
0100
1000
1100
,
0000
0101
0000
0011
,
0000
1010
0000
0001
,
0010
1000
0010
0100
,
1000
0001
0000
0001
,
0100
0000
0000
0000
1000
0000
0000
0000
0100
0000
0000
0000
0010
0000
0000
1000
,
0000
0001
1000
0000
0000
0000
1000
0000
,
0001
0000
0000
0000
0100
0000
0000
0000
0001
0000
0000
0000
0010
0000
0000
0100
,
0000
0000
0010
0000
0001
0000
0000
1000
0000
0000
0001
0000
0000
0000
0000
0000
,
1000
0000
0000
0000
0100
0000
0000
0000
1000
0000
0000
0000
0010
0000
0000
0100
,
0000
0001
1000
0000
0000
0000
1000
0000
,
0100
0001
0100
0010
,
0001
1000
0000
1000
,
0010
0000
0000
0000
0001
0000
0000
0000
0010
0000
0000
0000
0100
0000
0000
0010
,
0000
1000
0001
0000
0000
0000
1000
0000
,
0100
0000
0000
0000
1000
0000
0000
0000
0010
0000
0000
0000
0100
0000
0000
1000
,
0000
0000
0100
0000
0010
0000
0000
1000
0000
0000
0001
0000
0000
0000
0000
0000
,
0010
0000
0000
0000
0100
0000
0000
0000
1000
0000
0000
0000
0100
0000
0000
1000
,
0000
0001
0100
0000
0001
0000
1000
0000
,
0100
0010
0010
0100
,
1000
0001
0001
0000
,
1001
0000
0110
0000
,
1001
0000
0110
2002
,
0000
3003
0000
0001
,
0100
0001
0100
0000
0010
0000
1000
0000
,
0010
1000
0010
0000
0100
0000
0010
0000
,
1000
0001
1000
0000
0001
0000
0010
0000
,
0100
1000
0100
0000
1000
0000
0010
0100
,
0010
0000
1000
0010
1000
0000
0010
0100
,
0010
0000
0100
0001
0100
0001
0100
0010
,
0100
0000
0010
1000
0010
0000
1000
0001
,
1000
1001
1001
0000
,
2002
0000
3003
0000
;

//---------------dance-single - ----------------
#NOTES:
     dance-single:
     :
     Easy:
     3:
     0.202044,0.240918,0.034664,0.159456,0.000000,176.000000,5.000000,23.000000,0.000000,0.000000,0.000000,0.202044,0.240918,0.034664,0.159456,0.000000,176.000000,5.000000,23.000000,0.000000,0.000000,0.000000:
0000
0000
0000
0000
,
0000
0000
0000
0000
,
0000
0000
0000
0000
,
0000
0000
0000
0000
,
0000
0000
0000
0000
,
2002
0000
0000
0000
,
0000
0000
0000
0000
,
0000
0000
0000
0000
,
0000
0000
0000
3003
,
0001
0000
0010
0000
,
0100
0000
1000
0000
,
0001
0000
0010
0000
,
0200
0000
0000
0300
,
0000
0010
0001
1000
,
0001
0100
0001
0000
,
0000
1000
0001
0100
,
0001
0010
0001
1000
,
0200
0300
1000
0010
,
0100
0010
1000
0001
,
0200
0000
0320
0000
,
2000
0000
0000
3030
,
0000
0010
0100
0001
,
1000
1000
1000
0000
,
0000
0001
1000
0100
,
1000
0010
0100
0010
,
2000
3000
0010
0100
,
0001
1000
0100
1000
,
0020
0000
2030
0000
,
0002
0000
3003
0000
,
0001
1000
0010
1000
,
0100
0100
0000
0000
,
0001
1000
0001
0100
,
0100
0010
0000
0000
,
0100
0001
1000
0100
,
0000
1000
0000
0010
,
2000
0002
3003
0001
,
0020
0200
0330
0010
,
0001
1000
0100
2000
,
3000
0002
0003
2000
,
3000
0002
0003
1000
,
0100
0001
0100
1000
,
0010
0100
0000
0100
,
1000
0100
0001
0010
,
0100
1000
0000
1000
,
0100
0001
0100
0010
,
0001
0100
1000
0000
,
1000
0100
0010
1000
,
0001
1000
0000
0001
,
0010
1000
0010
0100
,
1000
0001
0000
1000
,
0010
0001
0010
0100
,
0010
1000
0000
0010
,
0001
0010
0100
0010
,
1000
0001
0100
0000
,
0001
0010
0100
0010
,
0001
1000
0010
1000
,
0010
0100
0001
1000
,
0100
0010
0001
0000
,
1000
0000
0001
0000
,
1000
0000
0001
2002
,
0000
3003
0000
0000
,
0010
0000
0100
0000
,
0010
0000
1000
1000
,
0000
0001
0000
0100
,
0000
0001
0001
1000
,
0000
0100
0000
1000
,
0000
0010
0010
0100
,
0000
0001
0000
1000
,
0001
1001
1001
0000
,
2002
0000
3003
0000
;

//---------------dance-single - ----------------
#NOTES:
     dance-single:
     :
     Challenge:
     10:
     0.615046,0.819121,0.138658,0.256517,0.682890,564.000000,20.000000,37.000000,0.000000,0.000000,0.000000,0.615046,0.819121,0.138658,0.256517,0.682890,564.000000,20.000000,37.000000,0.000000,0.000000,0.000000:
// measure 0
0000
0000
0000
0000
,  // measure 1
0000
0000
0000
0000
,  // measure 2
0000
0000
0000
0000
,  // measure 3
0000
0000
0000
0000
,  // measure 4
0000
0000
0000
0000
,  // measure 5
1001
0000
0001
0100
0000
0010
0000
0100
0000
0010
0000
0100
0010
0000
2000
0000
,  // measure 6
0000
0000
3001
0100
0000
0001
0000
1000
0000
0010
0000
1000
0001
0000
1000
0000
,  // measure 7
0001
0000
1000
0010
0000
0010
0000
0100
0000
0001
0000
0010
0000
0100
1000
0000
,  // measure 8
0001
0000
0100
0001
0000
0100
0000
0010
0000
1000
0000
0001
0000
0010
0100
0000
,  // measure 9
1000
0100
0010
0001
1000
0100
0010
0001
,  // measure 10
1000
0100
0010
0001
1000
0100
0010
0001
,  // measure 11
0010
0100
1000
0100
0010
0001
0010
0100
,  // measure 12
1000
0000
0001
0000
0000
0100
0000
0010
1000
0010
0100
0001
0010
0100
1000
0001
,  // measure 13
1000
0000
0000
0100
1000
0000
0000
1000
0010
0000
0000
0010
0100
0000
0000
0100
,  // measure 14
0002
0000
0000
2000
0003
0000
0200
0000
0000
0000
0000
0000
3300
0000
0000
0000
,  // measure 15
0000
0000
0000
0001
1000
0000
0000
1000
0100
0000
0000
0010
0001
0000
0000
1000
,  // measure 16
0001
0010
0010
0001
0000
1000
0000
0001
,  // measure 17
0102
0000
1003
0000
0001
0100
1000
0100
,  // measure 18
0010
1000
0001
0010
0100
0010
0001
1000
,  // measure 19
0020
0000
1000
0000
0230
0000
0000
0301
,  // measure 20
0010
0000
0010
0000
0100
0000
0100
0000
1000
0000
0100
1000
0000
0000
0010
0000
,  // measure 21
0100
0000
0000
0001
0100
0000
0000
0010
1000
0000
0000
0001
0100
0000
0000
0010
,  // measure 22
1000
0000
0000
0002
0000
0000
0020
0000
0000
0000
0033
0000
0110
0000
0000
0000
,  // measure 23
0000
0000
0000
0010
0100
0000
0000
1000
0001
0000
0000
0010
0100
0000
0000
0100
,  // measure 24
1000
0010
0100
0001
0000
1000
0000
0001
,  // measure 25
1000
0100
0001
0100
0010
0001
0100
1000
,  // measure 26
0100
0001
0100
1000
0010
0100
0010
1000
,  // measure 27
0002
0000
2003
0000
,  // measure 28
3100
0000
0010
0000
0100
0000
1000
0000
0010
0000
0100
0001
0000
0000
1000
0000
,  // measure 29
0102
0000
0000
0103
0000
0000
0010
0000
1020
0000
0000
0000
0230
0000
0000
0000
,  // measure 30
0302
0000
0000
0000
2000
0000
0000
0000
0000
3003
0000
0000
0001
0000
1100
0000
,  // measure 31
0001
0000
0101
0000
1000
0000
1010
0000
0010
0000
0011
0000
0010
0100
0010
0100
,  // measure 32
0001
1000
0001
1000
0001
0000
0000
1000
0200
0000
0000
0000
0310
0000
0001
0000
,  // measure 33
0100
0100
1000
1000
0100
0010
1000
1000
,  // measure 34
0010
0000
0100
0000
0001
0000
1000
0001
0010
0000
0000
0000
0100
0000
0010
0000
,  // measure 35
0001
0000
1000
0000
0010
1000
0010
1000
0010
0000
1000
0000
0100
0000
0010
0000
,  // measure 36
0001
0000
1000
0000
0010
1000
0010
1000
0010
0000
1000
0000
0002
0000
0000
0000
,  // measure 37
0200
0000
0003
0000
2000
0000
0300
0000
0020
0000
3000
0000
0031
0000
1000
0100
,  // measure 38
0001
0000
0010
0000
1000
0000
0001
0100
1000
0000
0010
0000
0001
0000
1000
0010
,  // measure 39
0001
0000
0010
0000
1000
0000
0001
0100
1000
0000
0010
0000
1000
0000
0001
0100
,  // measure 40
0000
0001
0100
0000
0010
0000
1000
0010
0000
1000
0010
0000
1000
0000
0001
1000
,  // measure 41
0000
1000
0001
0000
0010
0000
0100
0010
0000
0010
0100
0000
0010
0001
0100
0010
,  // measure 42
1000
0000
0000
0001
0000
0000
0010
0000
0000
0100
0000
0000
0010
0000
0000
0001
0000
0000
0100
0000
0000
0010
0000
0000
1000
0000
0001
0000
0010
0000
0100
0000
1000
0000
0001
0000
0010
0000
0000
0000
0000
0000
0001
0000
0000
0010
0000
0000
,  // measure 43
0000
0100
1000
0000
2002
0000
0000
0000
3003
0000
0000
0000
0001
0000
1000
0100
,  // measure 44
0000
0010
0001
0000
1000
0000
0001
0100
0000
0010
1000
0000
0010
0000
0100
0010
,  // measure 45
0000
1000
0001
0000
0010
0000
0100
0010
0000
0001
1000
0000
0001
0100
0010
1000
,  // measure 46
0001
0000
0000
0010
0000
0000
0100
0000
0000
0010
0000
0000
0001
0000
0000
0100
0000
0000
0010
0000
0000
1000
0000
0000
0001
0000
0000
0010
0000
0000
0100
0000
1000
0000
0100
0000
0010
0000
0000
0001
0000
0000
0100
0000
0000
0010
0000
0000
,  // measure 47
1000
0000
0000
0001
0000
0000
0010
0000
0000
0100
0000
0000
1000
0000
0000
0010
0000
0000
0100
0000
0000
0001
0000
0000
1000
0000
0100
0000
0010
0000
0001
0000
0010
0000
0100
0000
1000
0000
0000
0000
0000
0000
1000
0000
0000
0010
0000
0000
,  // measure 48
0000
1000
0010
0000
0100
0000
0001
0100
0000
0001
0100
0000
0001
0000
1000
0001
,  // measure 49
0000
0001
1000
0000
0100
0000
0010
0100
0000
0100
0010
0000
0100
1000
0010
0100
,  // measure 50
0001
0000
0000
1000
0000
0000
0100
0000
0000
0010
0000
0000
0100
0000
0000
1000
0000
0000
0010
0000
0000
0100
0000
0000
0001
0000
1000
0000
0100
0000
0010
0000
0001
0000
1000
0000
0100
0000
0000
0000
0000
0000
1000
0000
0000
0100
0000
0000
,  // measure 51
0000
0010
0001
0000
2002
0000
0000
0000
3003
0000
0000
0000
1000
0000
0001
0010
,  // measure 52
0000
0100
1000
0000
0001
0000
1000
0010
0000
0100
0001
0000
0100
0000
0010
0100
,  // measure 53
0000
0001
1000
0000
0100
0000
0010
0100
0000
1000
0001
0000
1000
0010
0100
0001
,  // measure 54
1000
0000
0000
0100
0000
0000
0010
0000
0000
0100
0000
0000
1000
0000
0000
0010
0000
0000
0100
0000
0000
0001
0000
0000
1000
0000
0000
0100
0000
0000
0010
0000
0001
0000
0010
0000
0100
0000
0000
1000
0000
0000
0010
0000
0000
0100
0000
0000
,  // measure 55
0001
0000
0000
1000
0000
0000
0100
0000
0000
0010
0000
0000
0001
0000
0000
0100
0000
0000
0010
0000
0000
1000
0000
0000
0100
0000
0010
0000
0001
0000
0100
0000
0001
0000
1000
0000
0010
0000
0000
0000
0000
0000
1000
0000
0000
0000
0000
0000
,  // measure 56
0010
0000
0100
0000
0001
1000
0000
0010
0000
0000
0000
0000
1000
0010
1000
0000
,  // measure 57
0010
0000
0100
0000
0001
0100
0000
0010
0000
1000
0000
0000
0010
0000
0100
0000
,  // measure 58
1001
0000
0100
0010
1001
0000
0010
0100
,  // measure 59
1001
0000
0100
0010
1001
0000
0220
0000
,  // measure 60
0000
0000
0000
0000
0300
0000
0000
0000
0030
0000
0000
0000
1000
0000
0001
0100
,  // measure 61
0000
0010
0000
0000
0010
0000
1000
0001
0000
0020
0230
0300
1000
0000
1000
0100
,  // measure 62
0000
0010
0000
0000
0011
0000
0001
0100
0000
0010
1000
0000
0001
0000
1000
0001
,  // measure 63
0000
0010
0000
0000
0100
0000
0010
0001
0000
2000
3002
0103
0010
0000
1000
0010
,  // measure 64
0000
0100
0001
0000
1001
0000
0010
0000
1001
0000
0100
0000
0001
0000
0100
0010
,  // measure 65
0000
1000
0010
0000
0100
0000
0001
0010
0000
0200
0320
0000
0031
0000
1000
0001
,  // measure 66
0000
0001
0100
0000
0010
0000
1000
0010
0000
0100
0010
1000
0001
0000
0010
0100
,  // measure 67
0000
0010
0000
0001
0100
0000
0010
1000
0000
0001
2000
3002
1003
0000
0100
0010
,  // measure 68
0000
0001
0010
0001
0010
0000
0000
0000
0010
0000
0000
0100
0000
0000
0000
0000
,  // measure 69
2002
0000
3003
0000
;

//---------------dance-single - ----------------
#NOTES:
     dance-single:
     :
     Beginner:
     1:
     0.097060,0.143511,0.020799,0.000000,0.000000,95.000000,3.000000,0.000000,0.000000,0.000000,0.000000,0.097060,0.143511,0.020799,0.000000,0.000000,95.000000,3.000000,0.000000,0.000000,0.000000,0.000000:
0000
0000
0000
0000
,
0000
0000
0000
0000
,
0000
0000
0000
0000
,
0000
0000
0000
0000
,
0000
0000
0000
0000
,
1001
0000
0000
0000
,
0000
0000
0000
0000
,
0000
0000
0000
0000
,
0000
0000
0000
0000
,
1000
0000
0000
0000
,
0100
0000
0000
0000
,
0010
0000
0000
0000
,
0001
0000
0000
0000
,
1000
0000
0001
0000
,
0010
0000
0000
0000
,
0001
0000
1000
0000
,
0100
0000
0000
0000
,
0010
0000
0000
0000
,
0001
0000
0000
0000
,
1000
0000
0001
0000
,
0100
0000
0000
0000
,
0010
0000
0000
0000
,
1000
0000
0000
0000
,
0001
0000
0000
0000
,
0010
0000
0000
0000
,
0001
0000
0000
0000
,
1000
0000
0000
0000
,
0010
0000
0100
0000
,
0001
0000
0000
0000
,
1000
0000
0001
0000
,
0100
0000
0000
0010
,
0000
0100
0000
0001
,
0001
0010
0000
0100
,
0000
0000
0000
1000
,
0000
0000
0000
0001
,
0000
0000
0000
0001
,
0000
0000
0000
1000
,
0000
0001
0000
0100
,
0000
0100
0000
0100
,
0000
0100
0000
0010
,
0000
1000
0000
0001
,
0000
0010
0000
0001
,
0000
0000
0000
1000
,
0001
1000
0000
0010
,
0000
0000
0000
0100
,
0000
0000
0000
0001
,
0000
1000
0000
0010
,
0010
0010
0000
0100
,
0000
0000
0000
0001
,
0000
0000
0000
1000
,
0000
0001
0000
1000
,
0010
1000
0000
0100
,
0000
0000
0000
1000
,
0000
0001
0000
0100
,
0000
0000
0000
0010
,
0000
0100
0000
0001
,
0000
0000
0000
1000
,
0000
0000
0000
0000
,
0010
0000
0100
0000
,
0001
0000
1000
1001
,
0000
0000
0000
0000
,
0001
0000
0001
0000
,
0001
0000
0001
0000
,
1000
0000
1000
0000
,
1000
0000
1000
0000
,
0010
0000
0010
0000
,
0010
0000
0010
0000
,
0100
0000
0100
0000
,
0100
0100
0000
0000
,
1001
0000
0000
0000
;
