#TITLE:Lovers;
#SUBTITLE:(Pure Mix);
#ARTIST:Solarstone featuring Lemon;
#TITLETRANSLIT:;
#SUBTITLETRANSLIT:;
#ARTISTTRANSLIT:;
#GENRE:;
#CREDIT:;
#BANNER:Lovers (Pure Mix).png;
#BACKGROUND:Lovers (Pure Mix)-bg.png;
#LYRICSPATH:;
#CDTITLE:;
#MUSIC:Lovers (Pure Mix).ogg;
#OFFSET:-2.561000;
#SAMPLESTART:30.774536;
#SAMPLELENGTH:14.779411;
#SELECTABLE:YES;
#BPMS:0.000000=68.000000
,24.000000=136.000000
;
#STOPS:
;
#BGCHANGES:;
#KEYSOUNDS:;
#ATTACKS:;

//---------------dance-single - ----------------
#NOTES:
     dance-single:
     :
     Hard:
     7:
     0.406348,0.389735,0.212154,0.133578,0.102148,318.000000,27.000000,17.000000,0.000000,0.000000,0.000000,0.406348,0.389735,0.212154,0.133578,0.102148,318.000000,27.000000,17.000000,0.000000,0.000000,0.000000:
// measure 0
1001
0000
0000
0000
0000
0000
0000
0000
1000
0000
0001
0010
0000
0001
0000
2000
,  // measure 1
0000
0000
0000
0000
3000
0000
0000
0000
0001
0000
0010
0000
0001
0000
1000
0020
,  // measure 2
0000
0000
0000
0200
0000
0000
0330
0000
1000
0000
0010
0000
0001
0000
0010
1000
,  // measure 3
0000
0000
0000
0000
0000
0000
0000
0001
1000
0000
0010
0100
0000
0000
0001
2000
,  // measure 4
0000
0000
0000
0000
0000
0000
3000
0001
0010
0001
0000
0010
0000
0000
0100
2000
,  // measure 5
0000
0000
0000
0000
3000
0000
0000
0000
0001
1000
0000
0010
0000
1000
0100
0010
,  // measure 6
0001
0010
0100
0010
,  // measure 7
0001
1000
0100
0010
,  // measure 8
0001
0010
1000
0010
,  // measure 9
0100
0000
1000
0000
0010
0100
0001
1000
,  // measure 10
0001
0000
0100
0010
0000
0100
0001
0000
,  // measure 11
1000
0000
0001
1000
0000
0010
0100
0000
,  // measure 12
0010
0000
1000
0001
0000
0010
0200
0000
,  // measure 13
0000
0000
0300
0000
,  // measure 14
0010
0000
0001
0100
0000
0100
0010
0000
,  // measure 15
1000
0000
0100
1000
0000
0010
0100
0000
,  // measure 16
0001
0000
0100
0001
0000
0100
0000
0000
0010
0000
0000
1000
0000
0000
0100
0000
,  // measure 17
0000
0010
0000
0000
0100
0000
0000
2000
0000
0000
0002
0000
0000
0000
3003
0000
,  // measure 18
1000
0000
0001
0000
0100
0000
1000
0000
0001
0000
0000
0100
0000
0000
0000
0000
,  // measure 19
0010
0000
1000
0000
0010
0000
0100
0000
0001
0000
0000
0010
0000
0000
0000
0000
,  // measure 20
0100
0000
1000
0000
0001
0000
0100
0000
0010
0000
0000
0100
0000
0000
0000
0000
,  // measure 21
0010
0000
1000
0000
0001
0000
0100
0000
0010
0000
0000
1000
0000
0000
0000
0000
,  // measure 22
0001
0010
0100
1000
0100
0010
0001
1000
,  // measure 23
0100
0010
0100
1000
0100
0010
0001
0010
,  // measure 24
0100
0010
0001
0010
0100
1000
0001
0010
,  // measure 25
0100
0000
1000
0000
0001
0000
1000
0010
,  // measure 26
1001
0000
0000
0011
0000
0000
1001
0000
,  // measure 27
0000
1010
0000
0000
0011
0000
1010
0000
,  // measure 28
0011
0000
0000
1001
0000
0000
1010
0000
,  // measure 29
0000
0101
0000
0000
1100
0000
0101
0000
,  // measure 30
1001
0000
0000
1100
0000
0000
0011
0000
,  // measure 31
0000
0101
0000
0000
1010
0000
1001
0000
,  // measure 32
0110
0000
0000
1010
0000
0000
0101
0001
,  // measure 33
0010
0000
0100
1000
0000
0000
1000
0002
,  // measure 34
0000
0000
0000
2000
0000
3003
0000
1000
,  // measure 35
0001
0020
0000
0230
0000
0000
0310
0002
,  // measure 36
0000
0000
0003
0000
,  // measure 37
1000
0010
0000
1000
0000
0100
0000
1000
,  // measure 38
0100
0001
1000
0100
0001
0100
1000
0010
,  // measure 39
0100
0001
0010
0100
1000
0010
0001
0010
,  // measure 40
0100
0010
1000
0001
0010
0100
1000
0001
,  // measure 41
0000
0000
0000
0000
0000
1000
0010
0010
,  // measure 42
1001
0000
0001
1000
0000
1000
0001
0000
,  // measure 43
0001
0100
0001
1000
0010
0100
0010
1000
,  // measure 44
0001
0000
1000
0100
0000
1000
0010
0000
,  // measure 45
0100
0010
1000
0001
0010
0100
0010
0001
,  // measure 46
1000
0000
0001
0100
0000
0010
1000
0000
,  // measure 47
1000
0100
0001
0100
0010
0001
0100
1000
,  // measure 48
0100
0000
0010
1000
0000
0001
0100
0001
,  // measure 49
0020
0000
0130
2000
0000
0000
3100
1000
,  // measure 50
0010
0000
0100
0001
0000
0100
0010
1000
,  // measure 51
0001
0010
0100
0010
0001
1000
0010
0100
,  // measure 52
0001
0000
1000
0100
0000
0010
0001
0000
,  // measure 53
0001
0100
0000
0010
0000
1000
0000
0002
,  // measure 54
0000
0000
0000
2000
,  // measure 55
0000
0000
0000
0000
,  // measure 56
0000
0000
0000
3003
,  // measure 57
0001
0100
0000
1010
0000
0101
0000
1010
,  // measure 58
1000
0010
0100
0010
0000
0100
0001
0100
,  // measure 59
0000
0001
0010
0001
0000
0010
0100
0010
,  // measure 60
0100
0010
0001
0100
1000
0100
0001
1000
,  // measure 61
0010
1000
0001
0100
0010
1000
0001
0100
,  // measure 62
1001
0000
0000
0000
;

//---------------dance-single - ----------------
#NOTES:
     dance-single:
     :
     Medium:
     5:
     0.285117,0.341018,0.078576,0.188581,0.000000,220.000000,10.000000,24.000000,0.000000,0.000000,0.000000,0.285117,0.341018,0.078576,0.188581,0.000000,220.000000,10.000000,24.000000,0.000000,0.000000,0.000000:
1000
0100
1000
0100
,
0010
0100
0010
0100
,
0010
0001
0010
0001
,
1000
0001
1000
0010
,
2000
3000
0001
0100
,
0002
0003
1000
0001
,
0100
0001
0010
0100
,
0010
0001
1000
0100
,
0010
0001
0010
0100
,
0010
0000
0001
0000
1000
0001
0100
0001
,
2000
0000
0000
3010
0000
0000
0000
0000
,
0200
0000
0000
0301
0000
0000
0000
0000
,
0200
0000
0000
0320
0000
0000
2000
0000
,
0000
0000
3030
0000
,
2000
0000
0000
3001
0000
0000
0000
0000
,
0002
0000
0000
0103
0000
0000
0000
0000
,
0001
0100
0010
1000
,
0100
1000
0010
0100
,
0001
0000
1000
0100
2000
0000
3010
0000
,
0100
0000
0001
0010
0002
0000
1003
0000
,
0001
0000
0100
0010
0200
0000
0301
0000
,
1000
0000
0001
0000
0100
0010
0000
0100
,
0001
0000
0010
0000
0100
0000
0010
0001
,
1000
0000
0010
0000
0100
0000
0001
0100
,
0010
0000
0100
0001
1000
0000
0100
0000
,
1000
0000
0010
0000
0100
0000
0001
1000
,
0010
0000
0000
0100
0000
0000
0001
0000
,
0000
1000
0000
0000
0100
0000
1000
0000
,
0010
0000
0000
0100
0000
0000
0001
0000
,
0000
0010
0000
0000
1000
0000
0010
0000
,
0100
0000
0000
1000
0000
0000
0010
0000
,
0000
0001
0000
0000
0010
0000
0100
0000
,
0001
0000
0000
1000
0000
0000
0100
0000
,
0000
0001
0000
0000
0100
0000
0010
0000
,
0001
0000
0000
1000
0000
0000
0010
0000
,
0000
1000
0000
0000
0001
0000
0100
0000
,
0010
0000
0000
1000
0000
0000
0100
0000
,
0000
1000
0000
0000
0010
0000
0100
0000
,
0001
0010
0100
0010
,
0001
1000
0100
0010
,
0001
0010
0100
1000
,
1001
0000
0110
0000
1001
0000
0001
1000
,
0020
0000
0000
2030
0000
0000
3010
0000
,
0100
0000
0001
1000
0000
1100
0000
0022
,
0000
0033
0000
0000
,
0011
0000
0010
0000
1100
0000
0100
0020
,
0000
0000
0000
0230
0000
0000
0300
0000
,
1100
0000
0100
0000
0110
0000
0010
2002
,
0000
0000
0000
0000
3003
0000
0000
0001
,
0100
0000
0001
1000
0000
0000
1000
0200
,
0000
0000
0000
0000
0300
0000
0000
0100
,
0010
0001
0000
0010
0000
0000
0001
2000
,
0000
0000
3000
0000
,
0001
0100
0000
0010
0000
1000
0000
0002
,
0000
0000
0000
2000
,
0000
0000
0000
0000
,
0000
0000
0000
3003
,
0001
1000
0000
0100
0000
0001
0000
0100
,
1000
0100
0010
1000
0000
0010
0100
0010
,
0000
0100
0001
0100
0000
0001
1000
0001
,
0000
0001
0010
0001
0000
0010
0100
0010
,
0000
0100
1000
0100
0000
1000
0100
0010
,
0100
0000
0000
0000
;

//---------------dance-single - ----------------
#NOTES:
     dance-single:
     :
     Easy:
     2:
     0.149294,0.194867,0.015715,0.078576,0.000000,121.000000,2.000000,10.000000,0.000000,0.000000,0.000000,0.149294,0.194867,0.015715,0.078576,0.000000,121.000000,2.000000,10.000000,0.000000,0.000000,0.000000:
1000
0000
0000
0000
,
0100
0000
0000
0000
,
1000
0000
0000
0000
,
0001
0000
0001
0010
,
0001
0000
1000
0100
,
1000
0000
0010
0100
,
2002
0000
0000
0000
,
0000
0000
0000
0000
,
3003
0000
0000
0000
,
0000
0000
0000
0000
,
0001
0000
0000
0000
,
1000
0000
0000
0000
,
0001
0000
1000
0000
,
0010
0000
0000
0000
,
0100
0000
0000
0000
,
0001
0000
0000
0000
,
1000
0002
0000
0000
,
0003
0000
0000
0000
,
1000
0000
0001
0001
,
0100
0000
0010
1000
,
0010
0000
0100
0100
,
0001
1000
0000
1000
,
0001
0010
0100
0010
,
0001
0000
1000
0000
,
0010
0000
1000
0000
,
0010
0100
0001
1000
,
0001
0000
0000
0000
,
1000
0001
0100
0001
,
0010
0000
0000
0000
,
0100
1000
0010
0100
,
0001
0000
1000
0000
,
0100
1000
0100
0010
,
0100
0000
0000
0000
,
0010
0000
0001
0000
,
2000
0000
0000
3000
,
0001
0000
1000
0000
,
0020
0000
0030
0000
,
0100
0000
0010
0000
,
2000
0000
0000
0002
,
0000
0000
0000
0000
,
0000
0000
0000
0000
,
3003
0000
0000
0000
,
1001
0000
0000
0000
,
0001
0100
0010
1000
,
0100
0000
0000
0000
,
0010
0001
1000
0010
,
0200
0000
0001
0000
,
0301
0100
0001
1000
,
0001
0000
0000
0000
,
0010
0100
0010
0001
,
1000
0000
0000
0000
,
0001
0100
0010
1000
,
0001
0000
0000
0000
,
1000
0001
0100
0010
,
2000
0000
0000
0002
,
0000
0000
0000
0000
,
0000
0000
0000
3003
,
0001
0000
1000
0000
,
0010
0000
0100
0000
,
0001
0000
1000
0000
,
0010
0100
0001
1000
,
0001
0010
0100
1000
,
0100
0000
0000
0000
;

//---------------dance-single - ----------------
#NOTES:
     dance-single:
     :
     Beginner:
     1:
     0.112251,0.121792,0.055003,0.031430,0.000000,89.000000,7.000000,4.000000,0.000000,0.000000,0.000000,0.112251,0.121792,0.055003,0.031430,0.000000,89.000000,7.000000,4.000000,0.000000,0.000000,0.000000:
0001
0000
0000
0000
,
1000
0000
0000
0000
,
0100
0000
0000
0000
,
1000
0000
0000
0000
,
0010
0000
0000
0000
,
0100
0000
0000
0000
,
0001
0000
0000
0000
,
1000
0000
0000
0000
,
0001
0000
1000
0000
,
0010
0000
0100
0010
,
1001
0000
0000
0000
,
1000
0000
0000
0000
,
0001
0000
0001
0000
,
0001
0000
0000
0000
,
0100
0000
0000
0000
,
0010
0000
0000
0000
,
0000
0200
0000
0000
,
0300
0000
0000
0000
,
0010
0000
1000
1000
,
0001
0000
0001
0000
,
0100
0000
0010
0010
,
0100
0000
0000
0000
,
0010
0000
1000
0000
,
0001
0000
1000
0000
,
0010
0000
0000
0000
,
0100
0000
0010
0000
,
1001
0000
0000
0000
,
0001
0000
0001
0000
,
0001
0000
0000
0000
,
1000
0000
0010
0000
,
0100
0000
0000
0000
,
0010
0000
0100
0000
,
0001
0000
0000
0000
,
1000
0000
1000
0000
,
2000
0000
0000
3000
,
0001
0000
0001
0000
,
0002
0000
0000
0003
,
0100
0000
0010
0000
,
1001
0000
0000
0000
,
0000
0000
0000
0000
,
0000
0000
0000
0000
,
0010
0010
0010
0010
,
1001
0000
0000
0000
,
1000
0000
0001
0000
,
1001
0000
0000
0000
,
0001
0000
0100
0000
,
0010
0000
0100
0000
,
0001
0001
1000
0000
,
1001
0000
0000
0000
,
0010
0000
0100
0000
,
0001
0000
0000
0000
,
1000
0000
0001
0000
,
1000
0000
0000
0000
,
0010
0000
0100
0000
,
0002
0000
0000
0000
,
0003
0000
0000
0000
,
0000
0000
0000
0000
,
1000
0000
0001
0000
,
0100
0000
0000
0000
,
0010
0000
0000
0000
,
1000
0000
0000
0000
,
0001
0000
1000
0000
,
0110
0000
0000
0000
;
