#TITLE:Last Hometown;
#SUBTITLE:;
#ARTIST:猫叉Master;
#TITLETRANSLIT:;
#SUBTITLETRANSLIT:;
#ARTISTTRANSLIT:Nekomata Master;
#GENRE:;
#CREDIT:;
#BANNER:Last Hometown.png;
#BACKGROUND:Last Hometown-bg.png;
#LYRICSPATH:;
#CDTITLE:cdtitle.png;
#MUSIC:Last Hometown.ogg;
#OFFSET:-3.838998;
#SAMPLESTART:58.800377;
#SAMPLELENGTH:18.340122;
#SELECTABLE:YES;
#BPMS:0.000000=108.000000
,175.000000=100.000000
,176.000000=97.000000
,177.500000=87.000000
;
#STOPS:
;
#BGCHANGES:;
#KEYSOUNDS:;
#ATTACKS:;

//---------------dance-single - ----------------
#NOTES:
     dance-single:
     :
     Hard:
     6:
     0.298919,0.351847,0.118268,0.227438,0.081878,230.000000,217.000000,13.000000,25.000000,0.000000,0.000000,0.298919,0.351847,0.118268,0.227438,0.081878,230.000000,217.000000,13.000000,25.000000,0.000000,0.000000:
// measure 0
0000
0000
1000
0010
,  // measure 1
1000
0000
0000
0001
,  // measure 2
1000
0000
0000
0001
,  // measure 3
0100
0000
0010
0100
,  // measure 4
0001
0000
0010
0000
,  // measure 5
0001
0000
0000
1000
,  // measure 6
0001
0000
0000
1000
,  // measure 7
0100
0000
1000
0001
,  // measure 8
0100
0000
0000
0000
0000
0000
0000
0000
0000
0000
0010
1000
,  // measure 9
0001
0000
0000
0000
0010
0000
0000
0000
0000
0001
0000
0000
1000
0000
0000
0000
0000
0000
0000
0000
0000
0010
0000
0000
,  // measure 10
1000
0000
0000
0000
0001
0000
0000
0000
0010
0000
0000
0000
0001
0000
0000
0000
0000
0000
0000
0000
0000
0100
0000
0000
,  // measure 11
0001
0000
0000
1000
0000
0000
0100
0000
1000
0000
0000
0010
0100
0000
0000
0000
,  // measure 12
0010
1000
0100
1000
,  // measure 13
0001
0000
0000
0000
0010
0000
0000
0000
0000
0001
0000
0000
1000
0000
0000
0000
0000
0000
0000
0000
0000
0100
0000
0000
,  // measure 14
1010
0000
0000
0000
0100
0000
0000
0000
0000
0001
0000
0000
0011
0000
0000
0000
0000
0000
0000
0000
0000
0010
0000
0000
,  // measure 15
0001
0000
0000
0000
1000
0000
0000
0000
0001
0000
0000
0000
0100
0000
0000
0000
0000
0000
0001
0000
0000
0010
0000
0000
,  // measure 16
0001
0000
2000
3002
,  // measure 17
0203
0000
0000
0301
0200
0000
0000
0301
,  // measure 18
0100
0001
0010
0001
1000
0100
0010
0100
,  // measure 19
2000
0000
0000
3001
2000
0000
0000
3001
,  // measure 20
0200
0000
0000
0300
0010
0100
0001
0010
,  // measure 21
0002
0000
0000
0013
0002
0000
0000
0013
,  // measure 22
0001
0010
0100
0010
0001
1000
0100
0010
,  // measure 23
0200
0000
0000
0000
1300
0010
0100
0001
,  // measure 24
0010
0000
0000
0000
0000
0000
0000
0000
0000
0000
0000
0010
0100
0000
1000
0000
,  // measure 25
0002
0000
0000
0000
0013
0000
0000
1000
0100
0000
0000
0000
1000
0000
0001
0000
,  // measure 26
0200
0000
0000
0000
0310
0000
0000
1000
0001
0000
0000
0000
0010
0000
0100
0000
,  // measure 27
1000
0001
0100
0001
1000
0001
0010
0001
,  // measure 28
1000
0000
0000
0000
0000
0000
0000
0000
0001
0000
0010
0000
0100
0000
0000
0000
0000
0000
0010
0000
0000
0001
0000
0000
,  // measure 29
2001
0000
0010
0000
3001
0000
0010
0001
,  // measure 30
0102
0000
1000
0000
0013
0000
0100
1000
,  // measure 31
0010
0100
0001
0100
0020
0000
1030
0001
,  // measure 32
2000
0000
0000
0001
0002
0000
3003
0001
,  // measure 33
0101
0000
1100
0000
1001
0000
1000
0001
,  // measure 34
0011
0000
1010
0000
1001
0000
0001
0010
,  // measure 35
0001
1000
0100
1000
0001
1000
0010
1000
,  // measure 36
0001
0000
0000
0000
0000
0000
0000
0000
0010
0000
0100
0000
1000
0000
0000
0000
0000
0000
0001
0000
0000
0100
0000
0000
,  // measure 37
0101
0000
1010
0000
0011
0000
0001
0010
,  // measure 38
0001
1000
0100
1000
0002
0000
0103
0010
,  // measure 39
0100
0001
0010
0001
2000
0000
3100
1000
,  // measure 40
0200
0000
0000
0010
0020
0000
0330
0100
,  // measure 41
0010
0001
0100
0010
1000
0000
0001
1000
,  // measure 42
0200
0000
0000
0010
0020
0000
0330
0100
,  // measure 43
1000
0001
0100
0001
0010
0000
0100
1000
,  // measure 44
0020
0000
0000
0100
0200
0000
0000
0000
,  // measure 45
0000
0000
0330
0000
;

//---------------dance-single - ----------------
#NOTES:
     dance-single:
     :
     Medium:
     4:
     0.254731,0.351847,0.209243,0.090975,0.000000,196.000000,173.000000,23.000000,10.000000,0.000000,0.000000,0.254731,0.351847,0.209243,0.090975,0.000000,196.000000,173.000000,23.000000,10.000000,0.000000,0.000000:
0000
0000
0000
0000
,
0000
0000
0000
0000
,
0000
0000
0000
0000
,
0000
0000
0000
0000
,
0010
0000
1000
0001
,
1000
0000
0000
0100
,
1100
0000
0000
1000
,
1001
0000
0001
0100
,
0010
0000
0000
0000
,
0100
0010
1001
0000
,
1000
0100
0011
0000
,
0001
0100
0001
1000
,
1100
0100
0010
0100
,
1000
0001
0101
0000
,
1001
0010
1001
0000
,
0101
0001
0010
0001
,
1001
1000
0020
2030
,
3002
0000
0003
1000
0002
0000
0003
1000
,
0010
0100
0001
0000
0001
0010
0100
1000
,
0002
0000
0003
1000
0002
0000
0003
1000
,
0001
0000
0100
0000
0001
0010
0100
0000
,
0020
0000
0030
0100
0020
0000
0030
0100
,
0010
0000
0100
0000
1000
0100
0010
0001
,
2000
0000
0000
0000
3001
0100
0010
1000
,
0100
0000
1000
0000
0010
0000
0100
0001
,
0010
0000
0100
0000
1100
0000
1000
0010
,
0100
0000
0001
0000
1001
0000
0001
1000
,
0100
0100
1000
1000
,
0010
0000
0100
0000
0010
0000
1000
0001
,
0010
0000
0001
0000
0101
0000
0001
0100
,
0010
0000
1000
0000
1100
0000
1000
0010
,
0100
0000
0010
0000
1000
0000
0001
0010
,
0100
0000
0000
0010
0100
0000
0000
0010
,
0011
0000
1100
0000
1010
0000
1000
0010
,
0100
0000
0001
0000
0001
0000
0010
0100
,
1000
0000
0100
0000
1000
0000
0010
0100
,
0001
0000
0000
1000
0001
0000
0100
0010
,
1010
0000
0101
0000
1010
0000
1000
0100
,
1100
0011
1100
0100
,
1000
0100
0010
0000
0100
0000
0010
0001
,
0100
0000
0000
0010
0100
0000
0000
0100
,
0010
0000
1000
0000
0100
0000
0010
0100
,
1000
0000
0000
1000
0001
0000
0000
1000
,
0001
0000
0100
0000
0010
0000
1000
0001
,
0100
0000
0000
0010
0200
0000
0000
0000
,
0000
0000
0300
0000
;

//---------------dance-single - ----------------
#NOTES:
     dance-single:
     :
     Easy:
     2:
     0.179351,0.269059,0.100073,0.072780,0.000000,138.000000,127.000000,11.000000,8.000000,0.000000,0.000000,0.179351,0.269059,0.100073,0.072780,0.000000,138.000000,127.000000,11.000000,8.000000,0.000000,0.000000:
0000
0000
0000
0000
,
0000
0000
0000
0000
,
0000
0000
0000
0000
,
0000
0000
0000
0000
,
1000
0000
0001
0000
,
0010
0000
0000
0100
,
1000
0000
0000
1000
,
0001
0000
1000
0000
,
0010
0000
0000
0000
,
0100
0001
1000
0000
,
0100
1000
1000
0000
,
0100
1000
0010
0100
,
0001
0010
0100
0010
,
0001
1000
0100
0000
,
1000
0001
0100
0000
,
0010
0100
0001
0010
,
0100
0000
0010
0001
,
1000
0000
1000
0000
,
1000
0100
0010
0001
,
0100
0000
0100
0000
,
0100
0000
0010
1000
,
0001
0000
0001
0000
,
0001
0010
0001
1000
,
0100
0000
1000
0100
,
0010
0001
0000
1000
,
0001
1000
1001
0000
,
0100
0010
0110
0000
,
0010
0010
1000
1000
,
0001
0000
0100
0001
,
0010
0100
0110
0010
,
0100
1000
1001
1000
,
0001
0100
0010
0100
,
0002
0003
0002
0003
,
1001
0110
1001
1000
,
0001
0100
0001
0010
,
0100
0100
0010
0100
,
1000
0000
0001
1000
,
0110
1001
0110
0010
,
1001
0001
1000
1000
,
0001
0100
0010
1000
,
0200
0300
0200
0300
,
1000
0001
0010
0001
,
2000
3000
2000
3000
,
0001
0010
0001
0100
,
0020
0030
0200
0000
,
0000
0000
0300
0000
;

//---------------dance-single - ----------------
#NOTES:
     dance-single:
     :
     Beginner:
     1:
     0.097473,0.141694,0.009098,0.000000,0.000000,75.000000,74.000000,1.000000,0.000000,0.000000,0.000000,0.097473,0.141694,0.009098,0.000000,0.000000,75.000000,74.000000,1.000000,0.000000,0.000000,0.000000:
0000
0000
0000
0000
,
0000
0000
0000
0000
,
0000
0000
0000
0000
,
0000
0000
0000
0000
,
1000
0000
0000
0000
,
0001
0000
0000
0000
,
0100
0000
0000
0000
,
0001
0000
1000
0000
,
0001
0000
0000
0000
,
0010
0000
0000
0000
,
0001
0000
0000
0000
,
1000
0000
0001
0000
,
0100
0000
0000
0000
,
0010
0000
0000
0000
,
1001
0000
0000
0000
,
1000
0000
0000
0000
,
0100
0000
1000
1000
,
0001
0000
0001
0000
,
0001
0000
0000
0000
,
0100
0000
0100
0000
,
0010
0000
0100
0100
,
0100
0000
0010
0000
,
0010
0000
1000
0000
,
0001
0000
0000
0000
,
1000
0000
0000
0000
,
0001
0001
0001
0000
,
1000
1000
1000
0000
,
0010
0000
0010
0000
,
0100
0000
0000
0000
,
0010
0010
0010
0000
,
0100
0100
0100
0000
,
0001
0000
1000
0000
,
0001
0000
0000
0000
,
1000
1000
1000
0000
,
0001
0000
1000
0000
,
0010
0000
0010
0000
,
0100
0000
0000
0000
,
0001
0001
0001
0000
,
0010
0000
0001
0000
,
1000
0000
0001
0000
,
0100
0000
0100
0000
,
0001
0000
1000
0000
,
0010
0000
0010
0000
,
0100
0000
0010
0000
,
1000
0000
0001
0000
;
