#TITLE:It Never Ends;
#SUBTITLE:;
#ARTIST:Bring Me The Horizon;
#TITLETRANSLIT:;
#SUBTITLETRANSLIT:;
#ARTISTTRANSLIT:;
#GENRE:;
#CREDIT:;
#BANNER:It Never Ends.png;
#BACKGROUND:It Never Ends-bg.png;
#LYRICSPATH:;
#CDTITLE:;
#MUSIC:It Never Ends.mp3;
#OFFSET:-2.396999;
#SAMPLESTART:20.643719;
#SAMPLELENGTH:13.714287;
#SELECTABLE:YES;
#BPMS:0.000000=210.000000
,110.000000=105.000000
,111.000000=210.000000
,143.000000=105.000000
,147.000000=210.000000
,251.000000=105.000000
,255.000000=210.000000
;
#STOPS:267.000000=0.857000,
345.500000=0.571000
;
#BGCHANGES:;
#KEYSOUNDS:;
#ATTACKS:;

//---------------dance-single - ----------------
#NOTES:
     dance-single:
     :
     Hard:
     10:
     0.772871,0.913632,0.612318,0.248027,0.186021,587.000000,79.000000,32.000000,0.000000,0.000000,0.000000,0.772871,0.913632,0.612318,0.248027,0.186021,587.000000,79.000000,32.000000,0.000000,0.000000,0.000000:
1000
0100
1000
0001
1000
0100
0010
0100
,
1000
0001
0100
0010
1000
0010
1000
0100
,
0000
0100
0010
0001
0100
0010
1000
0001
,
1001
0000
0000
0101
0000
0000
1001
0000
,
1000
0010
0100
0010
0000
0100
0010
1000
,
0001
0010
0001
0100
0001
0010
0001
1000
,
0000
0100
0010
1000
0001
0010
0100
0010
,
0011
0000
0011
0000
0001
0100
0010
0000
,
1000
0010
1000
0010
1000
0010
1000
0010
,
1000
0010
1000
0010
1000
0010
0100
0001
,
0010
0100
0010
0100
0010
0100
0010
0100
,
1000
0010
0100
0001
0010
0100
0010
0001
,
1000
0100
1000
0100
1000
0100
1000
0100
,
1000
0100
1000
0100
1000
0100
1000
0001
,
0100
0010
0100
0010
0100
0010
0100
0001
,
0010
0110
1010
0101
,
0001
0010
0001
0000
0010
0000
0100
1000
0100
0000
1000
0000
0001
0000
0100
0000
,
0110
0000
0001
0100
0001
1000
0020
0000
,
0000
0000
0030
0100
,
1001
0000
0000
0000
0000
0000
0001
0000
0010
0000
0100
0000
,
1000
0100
1000
0000
0100
1000
0100
0000
0000
0000
1000
0000
0000
0000
0001
0000
,
0000
0000
0100
0000
0000
0000
0001
0000
1000
0001
1000
0000
0001
1000
0001
0000
,
0100
0001
0100
0000
0001
0100
0001
0000
0000
0000
0100
0000
0010
0000
1000
0000
,
0100
0001
0100
0010
0001
1000
0010
0000
,
0100
2010
0000
3000
0021
0000
0000
0000
,
0200
0000
0000
0330
,
0100
1000
0010
0000
0100
0001
1000
0000
0002
0000
0000
0000
0000
0000
0000
0000
,
0200
0000
0000
0000
0000
0303
1001
0001
,
1000
0100
1000
0000
0000
0000
1100
0000
0000
0000
0101
0000
0000
0000
0110
0000
,
0000
0000
0101
0000
0001
0100
0001
0000
0100
0010
0100
0000
0010
1000
0010
0000
,
1000
0001
1000
0000
0001
0000
0100
0000
0100
0000
0001
0000
1000
0000
0010
0000
,
0001
0010
0100
0001
0010
0100
1000
0002
,
0000
0000
0013
0011
0000
0000
0000
1000
,
0000
1000
0000
1000
0010
1000
0001
0010
,
0100
0000
0100
1000
0010
1000
2001
0000
,
0000
0100
0000
0000
3100
0000
1001
0000
,
0000
0000
0000
0000
0000
0000
0001
0001
,
0100
0100
0010
0010
0100
0100
0101
0000
,
0000
0000
0000
1010
0000
0000
0000
0000
0000
1100
0000
0011
,
0000
1100
0000
0101
0000
1010
0000
1001
0000
0110
0000
0000
,
0000
0000
0000
0000
2002
0000
0000
0000
0000
0000
3003
0000
1000
0001
1000
0000
,
0001
1000
0001
0000
0100
0001
0100
0000
0001
0010
0001
0000
0011
0000
0000
0000
,
0000
2200
3300
2001
,
0001
0000
0001
0000
3001
0000
0001
0100
,
0010
1000
0001
0100
0010
1000
0001
0100
,
0010
0100
0001
0100
0010
0100
1000
0100
,
0010
0100
1000
0001
0010
0100
0001
1000
,
0010
1000
0001
0100
0010
0100
0001
0010
,
0100
1000
0001
0010
0100
1000
0001
1000
,
0100
1000
0001
0010
0100
0010
0001
1000
,
0100
1000
0010
1000
0100
1000
0001
0100
,
0010
0000
0100
0000
0001
0000
0010
0000
0100
0000
0010
0000
0001
1000
0001
0000
,
0100
0000
0010
1000
0010
0000
0100
0000
0001
0100
0001
0000
1000
0000
0000
0000
,
0001
0000
0100
0001
1000
0002
0000
2000
,
0000
0000
3003
1000
,
0010
0000
1000
0001
2000
0002
0000
0000
,
0000
0000
3003
1000
,
0100
0000
1000
0000
0010
0000
0100
0001
,
0000
1001
0000
0000
0001
0000
0100
0000
,
0010
1000
0000
2000
0002
0000
0000
0000
,
0000
0000
0000
0000
3003
0000
0001
0100
,
0000
0010
0000
0100
0001
0000
1000
0000
,
0100
0010
0001
1001
,
0000
0000
0000
0000
0000
0000
0000
0000
0001
0100
0001
0010
0000
0000
0000
0000
,
0100
0100
0100
1000
,
1000
0000
1000
0100
1000
0010
0000
0000
,
0100
0000
0100
0000
0100
0000
0100
1001
,
0000
0000
0001
0100
0010
1000
0001
0011
,
0000
0010
0100
1000
0010
0100
0001
0010
,
1000
0010
0100
0010
0001
0100
0010
1010
,
0000
0000
0000
0000
1000
0001
0000
0011
,
0000
1100
0000
1000
0001
1000
0000
1010
,
0000
0011
0000
0001
0100
0010
0000
0110
,
0000
1010
0000
0101
0000
0011
0000
2002
,
0000
0000
3003
0000
0000
0000
0100
1001
,
0000
0001
0100
0010
1000
0100
0010
0100
,
1000
0010
0100
0001
0010
0001
0100
0010
,
1000
0001
1000
0010
0100
0001
1000
0001
,
1001
0000
0000
0000
1001
0000
0000
0000
0001
0100
0001
0100
0001
0100
0001
0000
,
0000
1000
0010
1000
0001
0010
0100
0010
,
0001
1000
0001
0100
0000
0010
0100
0010
,
1000
0001
0010
0001
1000
0100
0010
0200
,
0000
0000
0000
0000
0310
0100
0000
1100
,
0000
0000
1000
0000
0001
0010
0000
0100
,
0000
1000
0000
1001
0000
0000
0001
0000
,
0100
0010
1000
0001
0010
1000
0010
0100
,
0010
0001
1000
0001
1001
0000
0101
0000
,
0011
1100
1010
0101
,
1010
1001
0011
1100
,
1010
0000
0101
0000
2001
0000
0000
0001
,
0000
0000
0000
0000
3001
0000
0000
0000
1000
0100
1000
0100
1000
0000
0001
0000
,
0000
0000
0100
0000
0010
0000
1000
0000
0001
0100
0001
0100
0001
0000
0100
0010
,
0100
0010
0100
0010
1000
0010
1000
0000
0000
0000
0001
0000
1000
0000
0200
0000
,
1300
0200
0301
0200
1300
0200
0301
0200
,
1300
0200
0310
0100
1100
0000
1010
0000
,
0101
0011
0101
0011
,
1001
1100
1010
0011
,
1100
0000
0000
0000
1010
0000
0000
0000
1001
0000
0000
0000
0000
0000
0000
0101
,
0000
0000
0000
0000
0000
0000
0000
0100
0000
0000
0000
0010
0000
0000
0000
1000
,
0000
0000
0000
0002
0000
0000
0000
0000
0003
0000
0000
0000
0000
0000
0000
0000
,
0000
0000
0000
0000
1000
0000
0000
0000
0000
0001
0000
0000
0000
0000
0200
0000
,
0000
0000
0000
0020
0000
0000
0000
0000
0000
0000
0000
0000
0000
0000
0000
0000
,
0000
0000
0330
0000
;

//---------------dance-single - ----------------
#NOTES:
     dance-single:
     :
     Medium:
     8:
     0.544774,0.595847,0.434048,0.155017,0.027128,416.000000,56.000000,20.000000,0.000000,0.000000,0.000000,0.544774,0.595847,0.434048,0.155017,0.027128,416.000000,56.000000,20.000000,0.000000,0.000000,0.000000:
1000
0000
0001
0100
0000
1000
0100
0000
,
1000
0000
0010
1000
0000
0010
0100
0001
,
0000
1000
0001
0010
0001
0000
1000
0000
,
1010
0000
0000
0101
0000
0000
0011
0000
,
0010
0100
1000
0010
0000
0100
0010
1000
,
0001
0100
0001
0010
0100
1000
0010
1000
,
0000
0001
1000
0100
1000
0001
0100
0010
,
1000
0001
0010
0100
,
1000
0100
0010
0100
1000
0010
0100
0000
,
0010
0100
0001
0010
0100
0010
0001
0000
,
1000
0001
0010
0001
1000
0010
1000
0000
,
0001
0100
0001
0100
0010
1000
0010
1000
,
0001
1000
0100
1000
0001
0100
0001
0000
,
1000
0010
0100
0001
0010
0100
1000
0000
,
0100
1000
0010
0100
0001
0010
0001
0000
,
1001
0101
1001
1100
,
0001
0000
1000
0001
0000
0001
0100
0010
,
2000
3100
0200
0020
,
0000
0330
0000
0100
,
1001
0000
0000
0000
0000
0000
0001
0000
0100
0000
0010
0000
,
1000
0001
1000
0001
0000
0001
0000
1000
,
0000
0001
0000
1000
0001
1000
0001
1000
,
0001
1000
0001
1000
0000
0001
0100
0000
,
0010
0000
1000
0010
0100
0001
0000
0000
,
1000
0001
0000
0000
0101
0000
0000
0000
,
0022
0000
0000
0000
,
0033
0000
1001
0000
,
2020
0000
0000
0000
3030
0000
0010
0100
,
0010
0100
0000
0010
0000
1000
0000
0010
,
0000
1000
0010
1000
0010
0100
0001
0100
,
0001
0000
0000
0001
0100
0010
1000
0001
,
0000
0000
0001
0100
0000
0000
0100
0010
,
0000
0000
1001
0000
0000
0000
0000
0001
,
0000
1000
0000
0001
0000
1000
0001
0100
,
0001
0000
0000
0100
0010
1000
0100
0000
,
0000
0100
0000
0000
0010
0000
0001
0000
,
0000
0000
0000
1001
,
1001
1001
1001
0102
,
0000
0000
0000
0020
0000
0000
0033
0000
0000
0001
0000
0010
,
0000
0100
0000
1000
0000
0010
0000
0100
0000
0002
0000
0000
,
0000
2000
3003
0101
,
1010
0101
1010
2100
,
0000
0010
0000
0002
,
0000
0000
0000
0000
,
0000
0000
3003
0001
,
0101
0100
0110
0010
,
1010
0000
1000
0001
0010
0100
1000
0000
,
1100
0000
1000
0000
1001
0000
0001
0100
,
0010
0100
0001
0010
0100
1000
0001
0000
,
1001
1000
1010
0010
,
0110
0000
0100
0010
1000
0001
0010
0000
,
0110
0000
0100
0000
1100
0000
1000
0100
,
0010
0001
1000
0100
0010
0001
1000
0000
,
0010
0100
0010
1000
,
0010
0100
0010
0100
,
0001
0010
0100
0010
,
0001
1000
0001
0100
,
0001
1000
0100
1000
,
0010
0100
0001
0010
,
0100
0010
0001
1000
,
0010
0100
0001
1000
,
0100
0010
0001
0001
,
0010
0100
1000
2002
,
0000
0000
0000
0000
0000
0000
0000
0000
3003
0000
0000
0101
0000
0000
0000
0000
,
0001
0001
0001
1000
,
1000
0000
0001
0100
0001
0100
0000
0000
,
0010
0000
0010
0000
0010
0000
0110
1010
,
0000
0000
0010
0000
0100
0010
0000
1010
,
0000
0000
0010
0000
0100
0010
1000
0001
,
0000
0000
0010
0000
0100
1000
0000
1100
,
0000
0000
0000
0000
1000
0100
0000
0011
,
0000
1100
0000
0000
0001
0100
0000
0101
,
0000
0000
0000
0000
0001
0100
0000
1010
,
0000
0101
0000
1100
0000
0011
0000
1001
,
0000
0000
0000
0000
0000
0000
0001
1000
,
0000
0000
1000
0000
0010
0000
0100
0010
,
0000
1000
0000
0001
0000
0000
0010
0100
,
0000
0000
0010
0000
0001
0000
1000
0010
,
0000
0000
0000
0000
0100
0000
0001
1000
,
0000
0000
0010
0000
0100
0000
0001
1000
,
0000
0100
0000
1000
0000
0000
0010
0000
,
0100
0000
0001
0000
1000
0000
0010
0100
,
0000
0000
0000
0000
0001
0000
1000
0100
,
0000
0000
1000
0000
0010
0000
0100
0001
,
0000
1000
0000
0100
0000
0000
0010
0000
,
0001
0000
0010
0000
0100
0000
1000
0020
,
0000
0000
0000
0030
0011
0000
0010
0000
,
0100
1000
1100
0100
,
0010
0001
0011
0001
,
0010
0000
0100
0000
1100
0000
0000
0100
,
0000
1000
0000
0100
,
1000
0010
0200
0000
,
0300
0010
1000
0001
,
2000
0001
0001
0001
,
3001
0100
0110
1000
,
0010
0100
0101
0010
,
0100
0010
1001
1000
,
0010
0000
0100
0000
0110
0000
0000
2002
,
0000
0000
0000
0000
,
0000
3000
0000
0000
,
0000
0000
0000
0000
,
0000
0000
0000
0000
,
0000
0000
0003
0000
;

//---------------dance-single - ----------------
#NOTES:
     dance-single:
     :
     Easy:
     5:
     0.372041,0.417238,0.193771,0.147266,0.000000,292.000000,25.000000,19.000000,0.000000,0.000000,0.000000,0.372041,0.417238,0.193771,0.147266,0.000000,292.000000,25.000000,19.000000,0.000000,0.000000,0.000000:
0001
1000
0010
0010
,
1000
0001
0100
0001
,
0000
0100
0001
1000
,
0100
0000
0000
1000
0000
0000
0010
0000
,
0100
0001
0000
0100
,
0010
0100
0001
0100
,
0000
0010
0100
0010
,
1001
1001
1001
1001
,
0001
0010
0001
0010
,
0001
0010
0001
0010
,
0100
1000
0100
1000
,
0100
0010
0001
0010
,
0100
1000
0100
1000
,
0100
1000
0100
1000
,
0100
1000
0010
0100
,
0001
0001
1000
1000
,
0001
0000
0000
0100
0000
0000
0010
0000
,
1000
0010
0100
0010
,
0000
0000
0000
0100
,
0010
0000
0100
0000
,
1001
0000
0001
0000
0000
1000
0000
0001
,
0000
1000
0000
0001
1000
0000
0001
0000
,
1000
0001
0000
0100
,
0010
1000
0010
0100
,
0001
0100
0000
0000
1010
0000
0000
0000
,
0202
0000
0000
0000
,
0303
0000
0011
0000
,
2002
0000
3003
0001
,
1000
0000
0000
0010
0000
1000
0000
0010
,
0000
0100
0010
0000
1000
0000
0001
0000
,
0010
0000
0100
0010
,
0000
0000
0001
0000
0000
0000
1000
0001
,
0000
0000
0101
0000
0000
0000
0000
0001
,
0000
0100
0000
0001
0000
0100
0010
0000
,
1000
0000
0010
0100
,
0000
0001
0000
0000
1000
0000
0200
0000
,
0000
0000
0000
1300
,
1000
1000
1000
1100
,
0000
0011
0000
1001
,
0000
0110
0000
0101
,
0000
1010
0000
1001
,
0001
1000
0010
1010
,
0000
0101
0000
2002
,
0000
0000
0000
0000
,
0000
0000
3003
0001
,
1000
0010
1000
0001
,
0010
0001
1000
0010
,
0100
1000
0100
0010
,
1000
0001
0010
0100
,
0010
0001
1000
0010
,
0001
0010
0100
0010
,
1000
0001
0010
0100
,
0010
0001
1000
0020
,
0000
0000
0000
0000
,
0000
0000
0030
0200
,
0000
0000
0000
0302
,
0000
0000
0000
2003
,
0000
0000
0000
3200
,
0000
0000
0000
2300
,
0000
0000
0000
3020
,
0000
0000
0000
0200
,
0000
0000
0000
0000
,
0000
0330
0000
1001
,
0000
0000
0000
0000
,
0001
0001
0001
0001
,
0001
1000
0001
1000
,
1000
0000
1000
0000
1000
0000
1000
0001
,
0000
0000
1000
0000
0010
0000
0000
0100
,
0000
0000
0010
0000
1000
0000
0000
0010
,
0000
0000
0100
0000
0001
1000
0000
0001
,
0000
0000
0000
1000
0000
0000
0010
0000
,
0100
0000
0000
0000
0010
0000
0000
0100
,
0000
0000
0000
0000
0001
0100
0000
0010
,
0000
1000
0000
0010
0000
0100
0000
0001
,
0000
0000
0000
0000
0000
0000
1000
0100
,
0000
0000
1000
0000
0010
0000
0100
0010
,
0000
1000
0000
0001
0000
0000
1000
0000
,
0100
0000
1000
0000
0010
0000
0100
0010
,
0000
0000
0000
0000
0100
0000
0000
0010
,
0000
0100
0001
1000
,
0100
1000
0010
0100
,
0001
1000
0100
1000
,
0010
0100
0001
0010
,
0100
1000
0100
1000
,
0010
0100
0001
1000
,
0010
0010
1000
0001
,
2002
0000
0000
3003
0001
0000
0100
0000
,
0001
0100
0010
0100
,
0010
1000
0010
0100
,
0001
1000
1010
0000
,
0000
0000
0000
0001
,
1000
0001
2000
0000
,
3000
0001
1000
0001
,
2000
0000
3000
0000
,
0001
0100
0010
0010
,
0100
0001
0010
0010
,
0100
1000
0010
0010
,
0100
0000
0001
0000
0011
0000
0000
1001
;

//---------------dance-single - ----------------
#NOTES:
     dance-single:
     :
     Challenge:
     12:
     0.958892,1.000000,0.573563,0.503806,0.507681,727.000000,74.000000,65.000000,0.000000,0.000000,0.000000,0.958892,1.000000,0.573563,0.503806,0.507681,727.000000,74.000000,65.000000,0.000000,0.000000,0.000000:
// measure 0
0001
0001
0100
0010
1000
1000
0010
1000
,  // measure 1
0100
0100
1000
0001
0010
0010
0100
0010
,  // measure 2
0000
0100
0010
0010
0001
1000
0010
0100
,  // measure 3
0101
0000
0000
0011
0000
0000
1100
0000
,  // measure 4
1000
0001
0100
0000
0001
0000
0010
0000
0000
0000
0010
0100
1000
0000
0001
0000
,  // measure 5
0100
0001
0100
0000
0010
0000
0100
0000
0010
1000
0010
0000
1000
0000
0001
0000
,  // measure 6
0000
0000
1000
0100
1000
0000
0001
0000
0100
0000
0001
0000
0010
0000
0001
0000
,  // measure 7
1001
0000
0000
0000
0110
0000
0000
0000
0100
0001
0010
0000
0100
1000
0001
0000
,  // measure 8
0010
1000
0010
0001
0010
1000
0100
0001
,  // measure 9
0100
0010
0001
0010
1000
0010
0100
1000
,  // measure 10
0001
0010
1000
0010
0100
1000
0100
0001
,  // measure 11
0010
0100
1000
0001
0010
0001
0100
1000
,  // measure 12
0100
0010
1000
0001
0010
1000
0010
0001
,  // measure 13
0100
0001
0010
0100
1000
0100
0001
0100
,  // measure 14
1000
0010
0100
0001
0010
1000
0010
0100
,  // measure 15
1000
0011
1010
0011
,  // measure 16
0001
0100
0010
0000
1000
0000
0001
1000
0100
0000
0010
0000
0001
1000
0010
1000
,  // measure 17
0020
0000
1000
0000
0130
0001
0020
0000
,  // measure 18
0100
0001
0130
0010
,  // measure 19
0001
0000
0000
1000
0000
0000
0001
0000
0000
0000
0000
0000
1000
0000
0000
0001
0000
0000
1000
0000
0000
0000
0000
0000
0001
0000
0000
0000
0000
0000
0000
0000
0100
0000
0000
0000
0000
0000
0000
0000
0010
0000
0000
0000
0000
0000
0000
0000
,  // measure 20
1000
0010
0100
0000
0001
0010
0100
0000
0000
0000
0100
1000
0010
0000
0100
0001
,  // measure 21
0010
0000
0100
1000
0010
0000
0100
0001
0010
0100
1000
0000
0001
0000
1000
0000
,  // measure 22
0100
0010
0001
0000
0001
0010
0100
0000
0000
0000
0100
1000
0010
0100
0001
1000
,  // measure 23
0010
1000
0010
1000
0020
0000
0000
0000
0130
0001
0100
0001
0200
0000
0000
0000
,  // measure 24
0310
2001
0000
0000
3020
0000
0000
0000
,  // measure 25
0230
0001
0000
1000
0000
0301
0100
0010
,  // measure 26
1000
0001
0010
0000
0100
1000
0010
0000
0200
0000
0000
0000
1000
0000
0000
0000
,  // measure 27
0320
0000
0000
0000
0000
0000
0000
0000
0000
0000
0000
0000
0000
0000
0000
0000
0000
0000
0000
0000
0000
0000
0000
0000
0000
0000
0000
0000
0000
0000
0000
0000
0000
0000
0000
0000
0000
0000
0000
0000
0000
0000
0000
0000
0000
0000
0000
0000
0001
0000
0000
0000
0000
0000
0000
0000
0000
0000
0000
0000
0000
0000
0000
0000
0000
0000
0000
0000
0000
0000
0000
0000
0000
0000
0000
0000
0000
0000
0000
0000
0000
0000
0000
0000
0000
0000
0000
0000
0000
0000
0000
0000
0000
0000
0000
0000
0230
0000
0000
0000
0000
0000
0000
0000
0000
0000
0000
0000
0000
0000
0000
0000
0000
0000
0000
0000
0000
0000
0000
0000
0000
0000
0000
0000
0000
0000
0000
0000
0000
0000
0000
0000
0000
0000
0000
0000
0000
0000
0000
0000
0000
0000
0300
0000
0100
0000
0000
0000
0000
0000
0000
0000
0000
0000
0000
0000
0001
0000
0000
0000
0000
0000
0000
0000
0000
0000
0000
0000
1000
0000
0000
0000
0000
0000
0000
0000
0000
0000
0000
0000
0000
0000
0000
0000
0000
0000
0000
0000
0000
0000
0000
0000
,  // measure 28
1000
0001
0100
0000
0000
0000
0010
1000
0010
0000
0100
0010
0100
0000
0010
1000
,  // measure 29
0001
0000
1000
0001
0100
0010
0100
0010
0100
0001
1000
0001
1000
0100
0010
0001
,  // measure 30
1000
0001
0100
0000
0000
0000
0100
0001
0100
0000
0010
0000
1000
0001
1000
0001
,  // measure 31
0020
0000
0100
0000
0031
1000
0001
1000
0200
0000
0010
0000
0301
0100
0020
0000
,  // measure 32
1030
0000
0001
0100
0001
1000
0001
0000
0000
0000
0000
0000
0000
0000
1001
0000
,  // measure 33
0000
0000
1001
0000
0000
0000
0001
0000
1000
0000
1000
0000
0010
1000
0010
0000
,  // measure 34
0100
0001
1000
0000
0000
0000
0100
0010
0100
0010
0001
1000
2001
0000
0000
0000
,  // measure 35
0000
0000
3020
0000
0000
0000
0000
0000
0230
0000
0000
0000
0301
0000
1000
0100
,  // measure 36
0000
0000
0010
0000
0000
0000
0000
0000
0001
0000
0000
0000
0000
0000
1000
0000
0000
0000
0000
0000
0001
0000
0000
0000
0000
0000
0000
0000
0000
0000
0000
0000
0000
0000
0000
0000
1000
0000
0000
0010
0000
0000
2000
0000
0000
0000
0000
0000
,  // measure 37
3010
0100
0020
0000
0130
0001
0200
0000
0301
1000
0002
0000
0200
0000
0000
0000
,  // measure 38
0300
0000
0000
0020
0000
0000
0033
0000
0000
0011
0000
1100
,  // measure 39
0000
1010
0000
0101
0000
0011
0000
1100
0000
2001
0000
0000
,  // measure 40
0000
0000
0000
0000
0200
0000
0000
0000
0000
0000
3300
0000
1000
0010
0100
0000
,  // measure 41
0010
1000
0001
0000
0010
0100
1000
0000
0001
1000
0010
0000
1010
0000
0000
0000
,  // measure 42
0000
0000
0000
0000
0101
0000
0000
0000
0000
0000
0000
0000
1000
0001
1000
0001
,  // measure 43
1000
0001
1000
0001
1000
0001
1000
0001
1000
0001
1000
0001
1000
0001
1000
0001
,  // measure 44
1000
0001
1000
0001
1000
0001
1000
0001
1000
0001
1000
0001
1000
0000
1000
0000
,  // measure 45
0010
0100
0001
0001
0100
0001
0010
0010
,  // measure 46
0001
1000
0100
0100
0010
0100
1000
1000
,  // measure 47
0001
0010
0100
0100
1000
0010
0100
0001
,  // measure 48
0100
0001
0100
0010
1000
0001
0010
0010
,  // measure 49
0100
1000
0010
0010
0100
0001
0010
0010
,  // measure 50
0001
1000
0010
0010
1000
0001
1000
0100
,  // measure 51
0010
0000
0001
0000
0010
0000
0100
0000
0010
0000
0001
0000
1000
0000
0001
0100
,  // measure 52
0001
0000
0100
0010
0100
0000
0010
1000
0010
0000
1000
0001
2000
0000
0000
0000
,  // measure 53
3100
0000
0010
0001
0100
0102
0000
0020
,  // measure 54
0000
0000
0033
2001
,  // measure 55
3020
0000
1030
0010
0100
0001
0010
0010
,  // measure 56
1000
0010
0010
0001
0010
0010
0200
0000
,  // measure 57
2300
0000
3020
0000
0230
0000
0301
0020
,  // measure 58
0000
1000
0000
1030
0200
0000
0320
0000
,  // measure 59
0031
2000
0000
3010
0200
0000
0001
0000
,  // measure 60
0001
0000
0010
0010
0310
0000
0100
0000
,  // measure 61
0010
1000
0000
0001
0010
0000
0100
1000
,  // measure 62
0000
0000
0000
0100
0000
0000
0010
0000
0000
0001
0000
0000
1000
0000
0000
0010
0000
0000
0100
0000
0001
0000
0100
0000
,  // measure 63
0001
0000
0000
0000
1000
0000
0000
0000
0000
0000
0000
0000
0000
0000
0000
0000
0000
0000
0000
0000
0000
0000
0000
0000
1000
0000
0000
0010
0000
0000
0001
0000
0000
0020
0000
0000
0000
0000
0000
0000
0000
0000
0030
0000
0000
0000
0000
0000
,  // measure 64
1010
1010
1010
1010
,  // measure 65
1010
0000
0010
1000
0001
1001
0000
0000
,  // measure 66
0101
0000
0000
0000
0101
0000
0000
0000
0101
0000
0000
0000
0022
0033
2200
0000
,  // measure 67
3300
1000
0100
1000
0010
0100
0001
2002
,  // measure 68
0000
3003
0001
1000
0001
0010
0100
1100
,  // measure 69
0000
0000
0011
0000
0101
2001
0000
0002
,  // measure 70
0000
0000
3003
0000
0001
2001
0000
0100
,  // measure 71
0000
3010
0000
1000
1002
1000
0000
0013
,  // measure 72
0000
0000
0000
0001
2001
0001
0000
0010
,  // measure 73
0000
3200
0000
1000
0000
0010
0000
0310
,  // measure 74
1001
0000
0001
0100
0100
0001
0010
0220
,  // measure 75
0000
0330
0100
0010
0001
0100
0010
1000
,  // measure 76
0001
0010
0001
0100
0010
1000
0001
2002
,  // measure 77
0000
3003
1000
0100
1000
0010
0100
0001
,  // measure 78
0010
0000
0000
0000
0010
0000
0000
0000
0010
0001
0100
0010
1000
0001
1000
0000
,  // measure 79
0001
0100
0010
0000
0100
0010
1000
0000
,  // measure 80
0001
0010
0100
0000
0010
0001
1000
0000
,  // measure 81
0001
1000
0010
1000
0001
0010
0100
0010
,  // measure 82
0001
0100
0010
1000
0100
0010
0100
1000
,  // measure 83
0010
0100
0001
0010
0001
0100
0010
1000
,  // measure 84
0001
0010
0001
1000
0100
0010
0100
1000
,  // measure 85
0001
0100
0010
1000
0001
0010
0002
2000
,  // measure 86
0000
0000
0000
0000
0000
0000
0000
3003
1001
0000
0001
0000
0101
0000
0101
0000
,  // measure 87
0000
0001
1001
1001
1000
1010
1000
0010
,  // measure 88
1010
1000
1001
1001
0000
0001
1001
0001
,  // measure 89
0101
0000
1010
0000
1001
0000
0000
0101
,  // measure 90
0000
0000
0000
0000
1010
0000
0000
0000
0001
0100
0010
0000
1000
0000
0100
0000
,  // measure 91
0000
0000
0010
0001
0100
0000
0010
0000
1000
0001
0100
0001
0010
0000
0100
0000
,  // measure 92
1000
0100
0010
0001
1000
0001
1000
0000
0001
0000
0100
0010
1000
0000
0001
1000
,  // measure 93
0100
0010
0001
1000
0010
0100
0001
1000
0100
1000
0100
1000
0100
1000
0100
1000
,  // measure 94
0100
1000
0100
1000
0100
1000
0100
0000
1100
0000
0000
0000
0011
0000
0000
0000
,  // measure 95
0101
1010
0011
1100
,  // measure 96
0101
1010
0011
1100
,  // measure 97
0101
0000
0000
0000
1010
0000
0000
0000
1001
0000
0000
0000
0000
0000
0000
0110
,  // measure 98
0000
0000
0000
0000
0000
0000
0000
0200
0000
0000
0000
0020
0000
0000
0300
2000
,  // measure 99
0000
0000
0030
0002
0000
0000
0000
0000
3003
0000
0000
0000
0000
0000
0000
0000
,  // measure 100
0000
0000
0000
0000
2000
0000
0000
0000
0000
0200
0000
0000
0000
3000
0020
0000
,  // measure 101
0000
0000
0300
0002
0000
0000
0000
0000
0000
0000
0000
0000
0000
0000
0000
0000
,  // measure 102
0000
0000
0033
0000
;

//---------------dance-single - ----------------
#NOTES:
     dance-single:
     :
     Beginner:
     3:
     0.233633,0.226713,0.085259,0.000000,0.000000,200.000000,11.000000,0.000000,0.000000,0.000000,0.000000,0.233633,0.226713,0.085259,0.000000,0.000000,200.000000,11.000000,0.000000,0.000000,0.000000,0.000000:
1000
0000
1000
0000
,
0001
0000
0001
0000
,
0000
0100
0100
0000
,
0010
0000
0000
0000
,
0100
0100
0000
0010
,
0100
0000
0010
0010
,
0000
0100
0010
0000
,
1000
0000
0001
0000
,
1000
0000
1000
0000
,
1000
0000
1000
0000
,
0001
0000
0001
0000
,
1000
0000
0001
0000
,
0100
0000
0100
0000
,
0100
0000
0100
0000
,
0010
0000
0010
0000
,
0000
0100
0100
0100
,
0010
0000
0000
1000
,
1000
0000
0001
0000
,
0000
0000
0000
1000
,
1000
0000
0010
0000
,
0100
0100
0000
0010
,
0000
0000
0100
0100
,
0100
0100
0000
0010
,
1000
0000
0001
0000
,
1000
0000
0001
0000
,
1000
0000
0000
0000
,
0000
0000
0010
0000
,
0100
0000
0000
0010
,
0010
0000
0100
0000
,
0000
0010
0010
0010
,
0010
0000
0100
0001
,
0000
1000
0000
0001
,
0000
1000
0000
0000
,
0001
0000
0000
1000
,
1000
0000
0001
1000
,
0000
0000
0001
0001
,
0000
0000
0000
1000
,
0000
0000
0000
1001
,
0000
1001
0000
0000
,
0000
0000
0000
0110
,
0000
0110
0000
0000
,
0000
0000
0000
1001
,
0000
0110
0000
1001
,
0000
0000
0000
0000
,
0000
0000
0000
0001
,
0000
0001
0000
0001
,
0000
0001
0000
0100
,
0000
0100
0000
0010
,
0000
1000
0000
0010
,
0000
0010
0000
0010
,
0000
0010
0000
0100
,
0000
0100
0000
0010
,
0000
0100
0000
0001
,
0001
0001
0000
1000
,
0000
0001
0000
1000
,
1000
1000
0000
0001
,
0000
1000
0000
0010
,
0010
0010
0000
1000
,
0000
0001
0000
0100
,
0100
0100
0000
0010
,
0010
0010
0000
1000
,
0000
0001
0000
0100
,
0000
0010
0100
1001
,
0000
0000
0000
1000
,
0000
0001
0000
0100
,
0000
0010
0000
0100
,
0000
0001
0000
1000
,
0001
0000
1000
0000
,
0100
0000
1000
0000
,
0010
0000
0100
0000
,
0001
0000
1000
0000
,
0001
0000
1000
0000
,
0010
0000
0100
0000
,
0010
0010
0100
0010
,
0100
0000
0000
0000
,
0010
0000
0100
0000
,
0001
0000
1000
0000
,
0010
0000
0100
0000
,
0001
0001
1000
0000
,
0001
0000
1000
0000
,
0010
0000
1000
0000
,
0001
0001
1000
0010
,
1000
0000
0010
0000
,
0100
0000
0010
0000
,
1000
1000
1000
0000
,
0010
0000
0100
0000
,
1001
0000
0001
0000
,
1000
0000
0010
0000
,
1000
0000
0001
0000
,
0100
0000
1001
0000
,
0000
0000
0000
0001
,
1000
0010
1000
0000
,
0000
1000
0001
0010
,
0001
0000
0000
0000
,
1000
0000
0001
0000
,
1000
0000
0010
0000
,
1000
0000
0001
0000
,
0100
0000
1001
0000
;
