#TITLE:ヒデオ体操第一;
#SUBTITLE:;
#ARTIST:すわパンチとギターの人;
#TITLETRANSLIT:Hideo taisou daiichi;
#SUBTITLETRANSLIT:;
#ARTISTTRANSLIT:Suwapanchi to gita no hito;
#GENRE:;
#CREDIT:;
#BANNER:Hideo taisou daiichi.png;
#BACKGROUND:Hideo taisou daiichi-bg.png;
#LYRICSPATH:;
#CDTITLE:;
#MUSIC:Hideo taisou daiichi.ogg;
#OFFSET:-0.789000;
#SAMPLESTART:92.281075;
#SAMPLELENGTH:9.136482;
#SELECTABLE:YES;
#BPMS:0.000000=95.000000
,24.000000=150.000000
,32.000000=140.000000
,34.000000=135.000000
,36.000000=130.000000
,37.000000=118.000000
,38.000000=95.000000
,39.000000=60.000000
,40.000000=175.000000
,48.500000=178.000000
,52.000000=183.000000
,56.500000=188.000000
,60.000000=192.000000
,64.000000=200.000000
,68.000000=100.000000
,73.000000=130.000000
,77.000000=70.000000
,83.000000=35.000000
,84.000000=70.000000
,90.000000=35.000000
,91.000000=80.000000
,107.000000=100.000000
,109.000000=200.000000
,141.000000=120.000000
,145.000000=90.000000
,157.000000=120.000000
,161.000000=140.000000
,169.500000=130.000000
,170.000000=100.000000
,171.000000=75.000000
,172.000000=60.000000
,173.000000=175.000000
,181.500000=178.000000
,185.000000=183.000000
,189.500000=188.000000
,193.000000=192.000000
,197.000000=200.000000
,201.000000=100.000000
,210.000000=120.000000
,231.000000=573.000000
;
#STOPS:
;
#BGCHANGES:;
#KEYSOUNDS:;
#ATTACKS:;

//---------------dance-single - ----------------
#NOTES:
     dance-single:
     :
     Hard:
     8:
     0.457941,0.460010,0.126870,0.279115,0.164931,331.000000,15.000000,33.000000,0.000000,0.000000,0.000000,0.457941,0.460010,0.126870,0.279115,0.164931,331.000000,15.000000,33.000000,0.000000,0.000000,0.000000:
0000
0000
0000
0000
,
0000
0000
0000
0000
,
1000
0000
0001
0000
0100
0001
0100
0000
,
0010
0000
1000
0000
0010
1000
0010
0000
,
1000
0000
0001
0000
0100
0010
0100
0110
,
2002
3003
0000
0000
0000
0000
0000
0000
,
1000
0000
0000
0000
0100
0000
0000
0010
0001
0000
0010
0000
0000
0000
0001
0000
,
0010
0000
0000
0000
0010
0000
0000
0010
0100
0000
1000
0000
0000
0000
0100
0000
,
1000
1000
0100
0010
0001
0001
0010
0100
,
1000
0000
0001
0100
0010
0000
1000
0001
0100
0000
0001
1000
0020
0000
0000
0000
,
1030
0001
0100
0010
1000
0001
1000
0001
,
0100
0010
0000
0100
0001
0000
1000
0001
,
0010
0002
0000
0000
0000
1000
1003
0010
,
1000
0100
1000
0001
0010
0000
0100
0010
,
0001
2000
0000
0000
0000
0001
3001
0100
,
0001
1000
0100
0001
0100
1000
0100
0001
,
1000
0010
0001
0010
1000
0010
0001
0010
,
0100
0000
0000
0000
0000
0000
0000
0002
2000
0000
0000
0000
0000
0000
0000
0000
,
3003
0002
0000
0003
,
0000
0000
0000
1000
0000
0000
0001
0000
0000
0000
0010
0000
0001
0000
0000
0000
0010
0000
0100
0000
0000
0000
0000
0000
,
1000
0000
0000
0000
0000
0000
0000
0000
0000
0000
0000
0000
0000
0000
0000
0000
0000
0000
0000
0000
0000
0000
0000
0000
0000
0000
0000
0000
0000
0000
0000
0000
0100
0000
0000
0000
0000
0000
0000
0000
0000
0000
0000
0000
0000
0000
0000
0000
1000
0000
0000
0000
0000
0000
0000
0000
0000
0000
0000
0000
0000
0000
0000
0000
0000
0000
0000
0000
0000
0000
0000
0000
0000
0000
0000
0000
0000
0000
0000
0000
0000
0000
0000
0000
0001
0000
0000
0000
0000
0000
1000
0000
0000
0000
0000
0000
0001
0000
0000
0000
0000
0000
0000
0000
0000
0000
0000
0000
0000
0000
0000
0000
0000
0000
0000
0000
0000
0000
0000
0000
0000
0000
0000
0000
0000
0000
0000
0000
0000
0000
0000
0000
1000
0000
0000
0000
0000
0000
0001
0000
0000
0000
0000
0000
0100
0000
0000
0000
0000
0000
0000
0000
0000
0000
0000
0000
0000
0000
0000
0000
0000
0000
0000
0000
0000
0000
0000
0000
0000
0000
0000
0000
0000
0000
0000
0000
0000
0000
0000
0000
0000
0000
0000
0000
0000
0000
0000
0000
0000
0000
0000
0000
,
0010
0000
1000
0100
0000
0100
0010
0000
0000
0100
0000
0010
,
0001
0000
0000
0000
0000
0000
0000
0000
0000
0000
0000
0000
0000
0000
0000
0000
0000
0000
0000
0000
0000
0000
0000
0000
0000
0000
0000
0000
0000
0000
0000
0000
0000
0000
0000
0000
1000
0000
0000
0000
0000
0000
0001
0000
0000
0000
0000
0000
0010
0000
0000
0000
0000
0000
0000
0000
0000
0000
0000
0000
0000
0000
0000
0000
0000
0000
0000
0000
0000
0000
0000
0000
0000
0000
0000
0000
0000
0000
0000
0000
0000
0000
0000
0000
0010
0000
0000
0000
0000
0000
0100
0000
0000
0000
0000
0000
1000
0000
0000
0000
0000
0000
0000
0000
0000
0000
0000
0000
0000
0000
0000
0000
0000
0000
0000
0000
0000
0000
0000
0000
0000
0000
0000
0000
0000
0000
0000
0000
0000
0000
0000
0000
0000
0000
0000
0000
0000
0000
0000
0000
0000
0000
0000
0000
0001
0000
0000
0000
0000
0000
0000
0000
0000
0000
0000
0000
0000
0000
0000
0000
0000
0000
0000
0000
0000
0000
0000
0000
0000
0000
0000
0000
0000
0000
0000
0000
1000
0000
0000
0000
0000
0000
0000
0000
0000
0000
0000
0000
0000
0000
0000
0000
,
1000
0000
0001
0001
0000
0100
0010
0000
0000
0100
0000
0001
,
0100
0000
0010
1000
0000
1000
0100
0000
0000
0010
0000
0010
,
0100
0000
0100
1000
0000
1000
0001
0000
0000
1000
0000
0001
,
0100
0000
0010
1000
0000
0001
0010
0000
0000
0200
0000
0000
,
0000
0000
1300
0010
0100
1000
0001
0100
,
0001
0010
0100
0010
0001
1000
0100
1000
,
0001
0010
0100
0010
0001
0100
0010
1000
,
0001
0010
0001
1000
0010
1000
0001
0100
,
0001
1000
0010
0010
1000
0000
0100
0100
,
0010
0000
0001
0001
0100
0000
0010
0010
,
1000
0000
0001
1000
0010
0000
0100
0001
,
0010
0000
0100
1000
0010
0000
0100
0001
,
0010
0100
0010
0000
0200
0000
0300
0000
,
0000
2000
3200
0302
,
0203
2300
3020
0032
,
0023
2030
3020
0230
,
0302
0000
0000
0000
1003
0000
0001
1000
0001
0000
1000
0000
0001
0000
0001
0000
,
0100
0001
0011
0000
1010
0000
0011
0000
,
0101
1100
1001
1100
,
0101
0000
0000
0000
1001
0000
0000
0000
1010
0000
0000
0010
1000
0000
0100
0000
,
0000
0000
0010
0001
0001
1000
0010
0100
,
0010
1000
0001
1000
0100
0010
0100
0000
,
0010
0001
1000
0002
0000
0000
0000
1000
,
1003
0010
0100
1000
0100
0010
1000
0000
,
0001
0010
0001
0200
0000
0000
0000
0010
,
0310
0100
0001
0010
1000
0010
0001
0010
,
1000
0010
0100
1000
0100
0001
0100
1000
,
0100
0000
0001
0000
0100
0000
0000
0000
0000
0000
0000
2000
0002
0000
0000
0000
,
0000
0000
0000
0000
3003
0000
0000
0002
2000
0000
0000
0000
0000
0000
3003
0000
,
0001
0000
0010
0000
0100
0000
1000
0000
0001
0000
0000
0000
1000
0000
0000
0100
,
0010
0100
0000
0010
0001
0001
0000
1000
,
0100
0000
0000
0000
1000
0000
0000
0010
0200
0000
0000
0000
0000
0000
0000
0000
,
0320
0000
2030
0000
3001
0100
0010
1000
,
0001
0000
0000
0000
1000
0000
0000
0001
2002
0000
0000
0000
0000
0000
3003
0000
,
0110
1001
0000
0000
;

//---------------dance-single - ----------------
#NOTES:
     dance-single:
     :
     Challenge:
     9:
     0.679058,1.000000,0.186076,0.355237,0.740077,498.000000,22.000000,42.000000,0.000000,0.000000,0.000000,0.679058,1.000000,0.186076,0.355237,0.740077,498.000000,22.000000,42.000000,0.000000,0.000000,0.000000:
0000
0000
0000
0000
,
0000
0000
0000
0000
,
1000
0000
0001
0100
0010
0100
0001
0010
0100
0010
0001
1000
0010
0000
1001
0000
,
0101
0000
0001
0100
0001
0100
0010
1000
0100
0010
0001
0100
0010
0000
0110
0000
,
0101
0000
0100
0000
0001
0000
1000
0100
0010
0100
1000
0001
0010
0000
0110
0000
,
2002
3003
0000
0000
0000
0000
0000
0000
,
1000
0000
0000
0000
0001
0000
0000
0100
0001
0000
0010
0000
0000
0000
0100
0000
,
0010
0000
0000
0000
0010
0000
0000
0100
0010
0000
0001
0000
0000
0000
1000
0000
,
0010
0010
0100
0001
0001
1000
0100
0001
,
0100
0000
0000
0000
0000
0000
0010
0000
0000
0001
0000
0000
1000
0000
0000
0000
0000
0000
0010
0000
0000
0100
0000
0000
0001
0000
0000
0000
0000
0000
0000
0000
1000
0000
0001
0000
0020
0000
0000
0000
0000
0000
0000
0000
0000
0000
0000
0000
,
0130
0000
1000
0010
0100
0000
0001
0000
0010
0000
1000
0000
0010
0000
0100
0000
,
1000
0000
0001
0100
0001
0000
0100
0000
0020
0000
0000
0000
1030
0000
0001
0000
,
0010
0000
0200
0000
0000
0000
0000
0000
0000
0000
1300
0100
1000
0000
0100
0000
,
0010
0000
0001
0100
0010
0000
0100
0000
0002
0000
0000
0000
1003
0000
0001
0000
,
0010
0000
0200
0000
0000
0000
0000
0000
0000
0000
0310
0100
0010
0000
0001
0000
,
1000
0000
0001
0100
0010
0000
1000
0000
0001
0000
0010
0100
1000
0000
0001
0000
,
1000
0000
0010
0001
0010
0000
0100
0000
0010
0000
1000
0100
1000
0000
0001
0000
,
0010
0000
0000
0000
0000
0000
0000
0100
0200
0000
0000
0000
0000
0000
0000
0000
,
0300
0000
0000
0000
0000
0000
1000
0001
1000
0001
1000
0001
1000
0001
1000
0000
0000
0000
0000
0000
0000
0000
0000
0000
,
0000
0000
0000
0001
0000
0000
0010
0000
0000
0000
1000
0000
0010
0000
0000
0000
0001
0000
0010
0000
0000
0000
0000
0000
,
0100
0000
0000
0000
0000
0000
0000
0000
0000
0000
0000
0000
0000
0000
0000
0000
0000
0000
0000
0000
0000
0000
0000
0000
0000
0000
0000
0000
0000
0000
0000
0000
1000
0000
0000
0000
0000
0000
0000
0000
0000
0000
0000
0000
0000
0000
0000
0000
0100
0000
0000
0000
0000
0000
0000
0000
0000
0000
0000
0000
0000
0000
0000
0000
0000
0000
0000
0000
0000
0000
0000
0000
0000
0000
0000
0000
0000
0000
0000
0000
0000
0000
0000
0000
0010
0000
0000
0000
0000
0000
0001
0000
0000
0000
0000
0000
0100
0000
0000
0000
0000
0000
0000
0000
0000
0000
0000
0000
0000
0000
0000
0000
0000
0000
0000
0000
0000
0000
0000
0000
0000
0000
0000
0000
0000
0000
0000
0000
0000
0000
0000
0000
0010
0000
0000
0000
0000
0000
1000
0000
0000
0000
0000
0000
0200
0000
0000
0000
0000
0000
0000
0000
0000
0000
0000
0000
0000
0000
0000
0000
0000
0000
0000
0000
0000
0000
0000
0000
0000
0000
0000
0000
0000
0000
0000
0000
0000
0000
0000
0000
0000
0000
0000
0000
0000
0000
0000
0000
0000
0000
0000
0000
,
1300
0000
1000
0010
0000
0001
0010
0000
0000
0100
0000
0001
,
0100
0000
0000
0000
0000
0000
0000
0000
0000
0000
0000
0000
0000
0000
0000
0000
0000
0000
0000
0000
0000
0000
0000
0000
0000
0000
0000
0000
0000
0000
0000
0000
0000
0000
0000
0000
0010
0000
0000
0000
1000
0000
0000
0000
0001
0000
0000
0000
1000
0000
0000
0000
0000
0000
0000
0000
0000
0000
0000
0000
0000
0000
0000
0000
0000
0000
0000
0000
0000
0000
0000
0000
0000
0000
0000
0000
0000
0000
0000
0000
0000
0000
0000
0000
1000
0000
0000
0000
0001
0000
0000
0000
0100
0000
0000
0000
0001
0000
0000
0000
0000
0000
0000
0000
0000
0000
0000
0000
0000
0000
0000
0000
0000
0000
0000
0000
0000
0000
0000
0000
0000
0000
0000
0000
0000
0000
0000
0000
0000
0000
0000
0000
0000
0000
0000
0000
0000
0000
0000
0000
0000
0000
0000
0000
1000
0000
0000
0000
0000
0000
0000
0000
0000
0000
0000
0000
0000
0000
0000
0000
0000
0000
0000
0000
0000
0000
0000
0000
0000
0000
0000
0000
0000
0000
0000
0000
0000
0000
0000
0000
1000
0000
0000
0000
0000
0000
0001
0000
0000
0000
0000
0000
,
0020
0000
0000
0000
0000
0000
0000
0000
0000
0000
0000
0000
0000
0000
0000
0000
0000
0000
0000
0000
0000
0000
0000
0000
0000
0000
0000
0000
0000
0000
0030
0000
0100
0000
0000
0000
0000
0000
0000
0000
0000
0000
0000
0000
0000
0000
0000
0000
2000
0000
0000
0000
0000
0000
0000
0000
0000
0000
0000
0000
0000
0000
0000
0000
0000
0000
0000
0000
0000
0000
0000
0000
0000
0000
0000
0000
0000
0000
0000
0000
0000
0000
0000
0000
0000
0000
0000
0000
0000
0000
0000
0000
0000
0000
0000
0000
3100
0000
0000
0000
0000
0000
0000
0000
0000
0000
0000
0000
0000
0000
0000
0000
0000
0000
0000
0000
0000
0000
0000
0000
0000
0000
0000
0000
0000
0000
0000
0000
0000
0000
0000
0000
0000
0000
0000
0000
0000
0000
0000
0000
0000
0000
0000
0000
0010
0000
0000
0000
0000
0000
0000
0000
0000
0000
0000
0000
0000
0000
0000
0000
0000
0000
0000
0000
0000
0000
0000
0000
0000
0000
0000
0000
0000
0000
0000
0000
0000
0000
0000
0000
0010
0000
0000
0000
0000
0000
0100
0000
0000
0000
0000
0000
,
2000
0000
0000
0000
0000
0000
0000
0000
0000
0000
0000
0000
0000
0000
0000
0000
0000
0000
0000
0000
0000
0000
0000
0000
0000
0000
0000
0000
0000
0000
0000
0000
3001
0000
0000
0000
0000
0000
0000
0000
0000
0000
0000
0000
0000
0000
0000
0000
0020
0000
0000
0000
0000
0000
0000
0000
0000
0000
0000
0000
0000
0000
0000
0000
0000
0000
0000
0000
0000
0000
0000
0000
0000
0000
0000
0000
0000
0000
0000
0000
0000
0000
0000
0000
0000
0000
0000
0000
0000
0000
0000
0000
0000
0000
0000
0000
0130
0000
0000
0000
0000
0000
0000
0000
0000
0000
0000
0000
0000
0000
0000
0000
0000
0000
0000
0000
0000
0000
0000
0000
0000
0000
0000
0000
0000
0000
0000
0000
0000
0000
0000
0000
0000
0000
0000
0000
0000
0000
0000
0000
0000
0000
0000
0000
0020
0000
0000
0000
0000
0000
0000
0000
0000
0000
0000
0000
0000
0000
0000
0000
0000
0000
0000
0000
0000
0000
0000
0000
0000
0000
0000
0000
0000
0000
0000
0000
0030
0000
0000
0000
0001
0000
0000
0000
0000
0000
1000
0000
0000
0000
0000
0000
,
0020
0000
0000
0000
0000
0000
0000
0000
0000
0000
0000
0000
0000
0000
0000
0000
0000
0000
0000
0000
0000
0000
0000
0000
0000
0000
0000
0000
0000
0000
0000
0000
0130
0000
0000
0000
0000
0000
0000
0000
0000
0000
0000
0000
0000
0000
0000
0000
0002
0000
0000
0000
0000
0000
0000
0000
0000
0000
0000
0000
0000
0000
0000
0000
0000
0000
0000
0000
0000
0000
0000
0000
0000
0000
0000
0000
0000
0000
0000
0000
0000
0000
0000
0000
0000
0000
0000
0000
0000
0000
0000
0000
0000
0000
0000
0000
1003
0000
0000
0000
0000
0000
0000
0000
0000
0000
0000
0000
0000
0000
0000
0000
0000
0000
0000
0000
0000
0000
0000
0000
0000
0000
0000
0000
0000
0000
0000
0000
0000
0000
0000
0000
0000
0000
0000
0000
0000
0000
0000
0000
0000
0000
0000
0000
0100
0000
0000
0000
0000
0000
0000
0000
0000
0000
0000
0000
0000
0000
0000
0000
0000
0000
0000
0000
0000
0000
0000
0000
0000
0000
0000
0000
0000
0000
0000
0000
0000
0000
0000
0000
0100
0000
0000
0000
0000
0000
1000
0000
0000
0000
0000
0000
,
0001
0000
0000
0000
0000
0000
0000
0000
1000
0000
0000
0000
0010
0000
0000
0000
0000
0000
0000
0000
0100
0000
0000
0000
0001
1000
0000
0000
0000
0000
0000
0000
0000
0000
0000
0000
0001
0000
0100
0000
0001
0000
0100
0000
0001
0000
0000
0000
,
0000
0000
0100
0010
1000
0001
0010
1000
,
0010
0100
1000
0100
0010
0001
0100
1000
,
0100
0010
1000
0001
0010
0001
1000
0010
,
1000
0000
0010
0000
0100
0001
0100
0001
0100
0001
0100
0001
0100
0001
0100
0001
,
0100
0001
0100
0001
0100
0000
0000
0010
1000
0000
0001
0000
0010
0000
0000
0100
,
0010
0000
0001
0000
1000
0000
0000
0010
1000
0000
0010
0000
0100
0000
0000
0001
,
0010
0000
0100
0000
1000
0000
0000
0100
1000
0000
0010
0000
0100
0000
0000
0010
,
1000
0000
0001
0000
0010
0000
0000
0100
0010
0000
0001
0000
1000
0000
0000
0001
,
0100
0000
0000
0010
0000
0000
1000
0000
0000
0000
0000
0000
0001
1000
0001
1000
0001
1000
0100
0000
0000
0000
0000
0000
,
0000
0000
0000
0000
0000
0000
0010
0001
0100
0010
1000
0100
1000
0100
0010
0100
1000
0100
0010
0001
0010
0100
0010
0001
,
0010
0100
1000
0010
0100
0001
1000
0100
1000
0001
0010
0100
1000
0100
0010
0100
1000
0001
1000
0100
0010
0001
1000
0100
,
0010
0001
1000
0010
0100
0001
1000
0100
0010
0100
1000
0100
0010
0001
0010
0100
1000
0100
0010
0001
1000
0010
0100
0001
,
0010
0000
0100
0000
1000
0000
0100
0000
0010
0000
0001
0000
1000
0000
0000
0000
0000
0000
0001
0000
0000
1000
0000
0000
1001
0000
0000
0000
0000
0000
1000
0000
0000
0000
0000
0000
1001
0000
0000
0000
0000
0000
0100
0000
0000
0000
0000
0000
,
1001
0000
0010
0000
2001
0000
0000
3000
0120
0000
0000
0030
2002
0000
3003
0000
,
1002
0000
0000
0003
0210
0010
0000
0300
2002
0000
3003
0000
2001
0000
0000
3000
,
0120
0100
0000
0030
2002
0000
3003
0000
1001
0000
0000
1000
0010
0000
0000
0000
,
0100
0000
0000
0000
0001
0000
1000
0010
0100
0000
0001
0000
0010
0000
1000
0000
,
0010
0000
0100
0000
1000
0000
0001
0100
0001
0000
0100
0000
0020
0000
0000
0000
,
1030
0000
0001
0000
0010
0000
0200
0000
0000
0000
0000
0000
0000
0000
1300
0100
,
1000
0000
0100
0000
0010
0000
0001
0100
0010
0000
0100
0000
0002
0000
0000
0000
,
1003
0000
0001
0000
0010
0000
0200
0000
0000
0000
0000
0000
0000
0000
0310
0100
,
0010
0000
0001
0000
1000
0000
0001
0100
0010
0000
1000
0000
0001
0000
0010
0100
,
1000
0000
0001
0000
1000
0000
0010
0001
0010
0000
0100
0000
0010
0000
1000
0100
,
1000
0000
0001
0000
0010
0000
0000
0000
0000
0000
0000
0001
2002
0000
0000
0000
,
0000
0000
0000
0000
3003
0000
0000
0100
2002
0000
0000
0000
0000
0000
0000
3003
,
0001
0000
0010
0000
0100
0000
1000
0000
0002
0000
0000
0000
0203
0000
0000
0310
,
1000
0200
0000
0310
0001
0002
0000
1003
,
0010
0000
0000
0000
0000
0000
0000
0000
0000
0000
0000
0000
0100
0000
0000
0000
0000
0000
0000
0000
0000
0010
0000
0000
1000
0000
0100
0000
1000
0000
0100
0000
1000
0000
0100
0000
1000
0000
0100
0000
1000
0000
0100
0000
1000
0000
0100
0000
,
1000
0000
0001
0000
1000
0000
0001
0000
1000
0000
0001
0000
0010
0000
0001
0000
0010
0000
0001
0000
0010
0000
0001
0000
0100
0000
0000
0000
0000
0000
0010
0000
0000
0100
0000
0000
0001
0000
0000
0010
0000
0000
0100
0000
0000
1000
0000
0000
,
0100
0000
0000
0000
0010
0000
0000
0001
1002
0000
0000
0000
1000
0000
0000
0000
,
0013
0000
0000
0000
0100
1000
0010
0000
0000
0000
0000
0000
0000
0000
0000
0000
0000
0000
0000
0000
0000
0000
0000
0000
,
0000
0000
0000
0000
,
0200
0000
0300
0000
;

//---------------dance-single - ----------------
#NOTES:
     dance-single:
     :
     Medium:
     5:
     0.323821,0.363166,0.211450,0.160702,0.016916,224.000000,25.000000,19.000000,0.000000,0.000000,0.000000,0.323821,0.363166,0.211450,0.160702,0.016916,224.000000,25.000000,19.000000,0.000000,0.000000,0.000000:
0000
0000
0000
0000
,
0000
0000
0000
0000
,
1000
0000
0100
0000
0010
0000
0001
1000
,
0001
0000
0100
0000
0010
0000
1000
0010
,
0001
0000
0010
0000
0100
0000
0001
0100
,
0020
0030
0000
0000
0000
0000
0000
0000
,
1000
0000
0001
0000
0010
0100
0000
0100
,
0010
0000
0010
0000
0001
0010
0000
0010
,
0100
0100
1000
0001
,
1000
0100
0010
0100
,
0010
0000
0001
0000
1000
0001
1000
0001
,
1000
0000
0001
0000
0100
0000
0010
1000
,
0010
0200
0000
0000
0000
0310
1000
0010
,
0100
0000
0001
0000
0010
0000
0100
0010
,
0001
2000
0000
0000
0000
3001
1000
0001
,
0100
0101
0100
0110
,
0010
1010
1000
1001
,
0001
0000
0000
0000
0000
0000
0000
1000
0002
0000
0000
0000
0000
0000
0000
0000
,
0003
2000
3000
0000
,
0000
0010
0100
0001
,
0010
1000
0010
0100
,
1000
1000
0010
0100
,
0010
1000
0001
0010
,
0100
2000
3010
0100
,
0001
0020
0130
0010
,
0001
2000
3010
0100
,
0001
0020
0130
2000
,
3000
0001
0001
0001
,
0001
1000
1000
1000
,
1000
0010
0010
0010
,
0010
0100
0100
0100
,
0100
0001
0100
0001
,
0100
0010
0100
0010
,
0100
0010
1000
0010
,
1000
0010
1000
0010
,
0100
0001
2000
3000
,
0000
0001
0100
0010
,
1000
0001
0010
0100
,
0010
0001
1000
0100
,
0010
1001
0001
1000
,
0010
1001
1001
1001
,
0110
0110
0110
0101
,
1100
1001
0011
1010
,
0001
0000
1000
0000
0010
0000
0100
0001
,
0100
0001
0100
0000
0010
0000
1000
0000
,
0001
0000
1000
0020
0000
0000
0000
0130
,
0001
0100
0001
0000
1000
0000
0100
0000
,
0010
0100
1000
0002
0000
0000
0000
1003
,
0010
1000
0010
0000
1010
0000
0100
0000
,
0101
0001
1001
1000
,
1100
0000
0000
0000
0100
0000
0000
0000
0000
0000
0000
0010
0002
0000
0000
0000
,
0000
0000
0000
0000
0003
0000
0000
1000
0020
0000
0000
0000
0000
0000
0000
0000
,
0030
0000
0100
0001
,
0001
0010
0000
0001
0100
0100
0000
0010
,
1000
0001
2002
3003
,
1001
0110
2001
0001
,
3001
0000
0000
0000
1000
0000
0000
0010
0200
0000
0000
0000
0000
0000
0000
0000
,
0310
1001
0000
0000
;

//---------------dance-single - ----------------
#NOTES:
     dance-single:
     :
     Easy:
     3:
     0.199368,0.242111,0.059206,0.084580,0.000000,148.000000,7.000000,10.000000,0.000000,0.000000,0.000000,0.199368,0.242111,0.059206,0.084580,0.000000,148.000000,7.000000,10.000000,0.000000,0.000000,0.000000:
0000
0000
0000
0000
,
0000
0000
0000
0000
,
1000
0000
0000
0000
0000
0000
0000
0001
,
1000
0000
0000
0000
0000
0000
0000
0001
,
1000
0000
0000
0000
0000
0000
0000
0010
,
0200
0300
0000
0000
0000
0000
0000
0000
,
0010
0000
1000
0000
,
0001
0000
0100
0000
,
0001
0010
0100
1000
,
0100
1000
0001
0010
,
1001
0001
1000
1000
,
0001
0100
0010
0100
,
0002
0000
0000
0000
,
1003
0100
0010
0100
,
1000
0000
0000
0000
,
0100
0100
1000
1000
,
0010
0010
0100
0100
,
0001
0000
2000
0000
,
3000
0000
0000
0000
,
0000
0001
1000
0010
,
0000
0200
0000
0300
,
0001
0001
0010
0000
,
0200
0000
0300
1000
,
0001
0100
0100
0001
,
1000
0010
0100
0010
,
1000
0001
0010
0001
,
0010
0100
1000
0010
,
0000
0100
0000
0001
,
0000
1000
0000
0010
,
0000
0100
0000
0001
,
0000
2000
0000
0000
,
0000
3001
0000
1000
,
0000
0010
0000
1000
,
0000
0010
0000
0100
,
0000
0001
0000
1000
,
0000
0001
0000
0000
,
0000
1000
0000
0100
,
0000
0010
0000
0001
,
0000
1000
0000
0010
,
0000
0100
0010
1000
,
1000
0001
1000
1001
,
1000
0001
1001
0001
,
1000
1001
1000
0001
,
0100
0010
0100
0001
,
0001
0100
0010
1000
,
0001
1000
0000
0000
,
0100
1000
0010
0100
,
0001
0002
0000
0000
,
1003
0001
0100
1000
,
0100
0001
0010
1000
,
0010
0001
0000
2000
,
0000
3000
0002
0000
,
0003
0000
1000
0001
,
0100
0000
0001
0000
,
1000
0000
1001
0000
,
0001
1000
0010
1000
,
0100
0010
0012
0000
,
0103
1001
0000
0000
;

//---------------dance-single - ----------------
#NOTES:
     dance-single:
     :
     Beginner:
     2:
     0.130495,0.217900,0.084580,0.000000,0.000000,98.000000,10.000000,0.000000,0.000000,0.000000,0.000000,0.130495,0.217900,0.084580,0.000000,0.000000,98.000000,10.000000,0.000000,0.000000,0.000000,0.000000:
// measure 0
0000
0000
0000
0000
,  // measure 1
0000
0000
0000
0000
,  // measure 2
1000
0000
0000
0000
,  // measure 3
1000
0000
0000
0000
,  // measure 4
1000
0000
0000
0000
,  // measure 5
1000
0000
0000
0000
,  // measure 6
0001
0000
0000
0000
,  // measure 7
0100
0000
0000
0000
,  // measure 8
0010
0000
0100
0000
,  // measure 9
0001
0001
0001
0000
,  // measure 10
1001
0000
0000
0000
,  // measure 11
1000
0000
0001
0000
,  // measure 12
1000
0000
0000
0000
,  // measure 13
0001
0000
0100
0000
,  // measure 14
0010
0000
0000
0000
,  // measure 15
1000
0000
0001
0000
,  // measure 16
0010
0000
0100
0000
,  // measure 17
1000
0000
0100
0000
,  // measure 18
0000
0000
0000
0000
,  // measure 19
0000
1000
0000
0001
,  // measure 20
0000
0100
0000
0010
,  // measure 21
0100
0000
0000
0000
,  // measure 22
0001
0000
1000
0100
,  // measure 23
0000
1000
0000
0010
,  // measure 24
0000
0100
0000
0001
,  // measure 25
0000
1000
0000
0010
,  // measure 26
0000
0100
0000
0001
,  // measure 27
0000
1000
0000
0000
,  // measure 28
0000
0001
0000
0000
,  // measure 29
0000
0100
0000
0000
,  // measure 30
0000
0010
0000
0000
,  // measure 31
0000
1000
0000
1000
,  // measure 32
0000
1000
0000
0001
,  // measure 33
0000
1000
0000
0010
,  // measure 34
0000
0100
0000
0010
,  // measure 35
0000
1000
0000
0000
,  // measure 36
0000
0001
0000
0100
,  // measure 37
0000
0010
0000
1000
,  // measure 38
0000
0001
0000
0010
,  // measure 39
0000
0100
0000
0000
,  // measure 40
0000
1000
1000
1001
,  // measure 41
0001
0001
1001
1000
,  // measure 42
1000
1001
1001
0000
,  // measure 43
0000
0110
0000
0000
,  // measure 44
0000
1000
0000
0001
,  // measure 45
0000
0100
0000
0000
,  // measure 46
0010
0010
0000
0100
,  // measure 47
0000
0001
0000
0000
,  // measure 48
1000
1000
0000
0001
,  // measure 49
0000
0100
0000
0010
,  // measure 50
0000
1000
0000
0001
,  // measure 51
0000
0000
1000
0000
,  // measure 52
0000
0000
1000
0000
,  // measure 53
0001
0000
0100
0000
,  // measure 54
0001
0000
1001
0000
,  // measure 55
1000
0001
1001
0000
,  // measure 56
0000
0010
1001
0000
,  // measure 57
0100
1001
0000
0000
;
