#TITLE:HELIX;
#SUBTITLE:;
#ARTIST:ESTi;
#TITLETRANSLIT:;
#SUBTITLETRANSLIT:;
#ARTISTTRANSLIT:;
#GENRE:;
#CREDIT:;
#BANNER:HELIX.png;
#BACKGROUND:HELIX-bg.png;
#LYRICSPATH:;
#CDTITLE:;
#MUSIC:HELIX.ogg;
#OFFSET:1.142999;
#SAMPLESTART:31.768524;
#SAMPLELENGTH:10.970177;
#LASTBEATHINT:0.179394;
#SELECTABLE:YES;
#BPMS:0.000000=87.510002
,20.000000=175.020004
,74.000000=87.510002
,75.000000=175.020004
,264.000000=87.510002
,297.000000=175.020004
,337.000000=87.510002
;
#STOPS:263.000000=0.343000
;
#BGCHANGES:;
#KEYSOUNDS:;
#ATTACKS:;

//---------------dance-single - ----------------
#NOTES:
     dance-single:
     :
     Hard:
     10:
     0.703991,0.856149,0.235343,0.470686,0.246040,691.000000,658.000000,33.000000,66.000000,0.000000,0.000000,0.703991,0.856149,0.235343,0.470686,0.246040,691.000000,658.000000,33.000000,66.000000,0.000000,0.000000:
// measure 0
0000
0000
0000
0000
,  // measure 1
0000
0000
0000
0000
,  // measure 2
0000
0000
0000
0000
0000
0000
0000
0000
0000
0000
0000
0000
0000
0000
1000
0001
,  // measure 3
0100
0000
0000
0000
0010
0000
0000
0100
,  // measure 4
4004
0000
0000
0000
0000
0000
0000
0000
0000
0000
0000
0000
0000
0000
0000
3003
,  // measure 5
0110
0010
1000
0001
0010
0001
1000
0100
,  // measure 6
1000
0010
1000
0001
0100
0001
0010
0001
,  // measure 7
1000
0100
0010
0001
0010
0100
0010
0001
,  // measure 8
1000
0010
0100
0001
0010
0001
1000
0100
,  // measure 9
0001
0100
0010
0001
0100
0010
1000
0100
,  // measure 10
0010
0100
1000
0010
0100
0001
0010
0001
,  // measure 11
1000
0100
1000
0001
0010
0001
0100
0001
,  // measure 12
0100
0010
1000
0100
1000
0010
0100
0001
,  // measure 13
1000
0001
1000
0001
0100
0001
0100
0001
,  // measure 14
0010
0100
0010
0100
1000
0010
0100
0001
,  // measure 15
1000
0010
0010
0100
0001
0001
1000
1000
,  // measure 16
0100
1000
0010
0100
0100
0010
0010
1000
,  // measure 17
0010
0000
0100
0000
0001
0000
1000
0000
0001
0100
0010
1000
0100
0010
0100
1000
,  // measure 18
0000
0000
0000
0000
1001
0000
0000
0000
0000
0000
0000
0000
1001
0000
0000
0000
0040
0000
0000
0000
0000
0000
0000
0030
1002
0000
0000
0000
0000
0000
0000
0000
,  // measure 19
0013
2001
0000
3010
1002
0000
0013
0001
,  // measure 20
0001
0001
0100
1000
0100
0010
1020
0000
,  // measure 21
1030
2010
0000
3010
1020
0000
0130
0010
,  // measure 22
0000
0000
0100
0000
0010
0000
0010
0000
1000
0000
0001
1000
0020
0000
0000
0000
,  // measure 23
1030
0210
0000
0301
0120
0000
1030
0010
,  // measure 24
0010
0100
1000
0100
0001
0010
0100
1000
,  // measure 25
0001
1000
0100
0000
0010
0000
0001
1000
0100
0000
0010
0001
0100
0010
1000
0001
,  // measure 26
0010
0001
0100
0000
0010
0000
1000
0000
1200
0000
0000
0000
0310
0000
0001
0000
,  // measure 27
1000
0100
0100
0100
0100
0100
0100
0100
,  // measure 28
0100
0100
1000
0100
0001
0100
0120
0000
,  // measure 29
0031
0000
0210
0000
0010
0000
0310
0000
0010
0000
0010
0100
0010
0000
0010
0000
,  // measure 30
0010
0010
0010
0001
0010
1000
0010
0100
,  // measure 31
1000
0000
0001
0000
0001
0000
0001
0000
0001
0000
0001
0100
0001
0000
0001
0000
,  // measure 32
0001
0001
0100
1000
0100
0010
1000
0001
,  // measure 33
0010
0100
1000
0000
0010
0000
0001
0100
0010
0000
1000
0001
0010
0000
0010
0000
,  // measure 34
0010
0000
0010
0000
0010
0100
0010
0100
1000
0100
1000
0001
1000
0000
0001
0000
,  // measure 35
0100
0010
0000
0100
0010
1000
0000
0100
,  // measure 36
0010
0001
0000
0010
0100
1000
0010
0100
,  // measure 37
0001
0010
0000
0100
1000
0010
0000
0100
,  // measure 38
0010
1000
0000
0010
0100
0001
0010
1000
,  // measure 39
0010
0100
0000
1000
0100
0001
0000
0001
,  // measure 40
0100
1000
0000
1000
0010
0100
0001
0010
,  // measure 41
1000
0010
0000
0010
0001
1000
0000
1000
,  // measure 42
0010
0001
0000
0001
0010
1000
0001
0020
,  // measure 43
1000
2030
0000
3010
0002
0100
0000
1000
,  // measure 44
1003
0000
1010
0000
0011
0000
1000
0200
,  // measure 45
0001
0302
0000
0103
2000
0010
0000
0001
,  // measure 46
3001
0000
0101
0000
1100
0000
1000
0001
,  // measure 47
0100
0010
0000
0100
0010
1000
0000
0100
,  // measure 48
0010
0001
0000
0010
1000
0010
0001
0100
,  // measure 49
0010
0000
1000
0000
0000
0000
0001
0000
1000
0000
0100
0000
0000
0000
0010
0001
,  // measure 50
0000
0001
0100
0000
0100
0010
0000
0010
1000
0100
0010
0001
1000
0000
0001
0000
,  // measure 51
0200
0320
1030
0002
0023
0130
2000
3020
,  // measure 52
0130
0002
2003
3100
0020
0230
1300
0010
,  // measure 53
0200
0302
0013
0200
0320
0130
2000
3002
,  // measure 54
0103
0020
2030
3100
0020
0032
1003
0001
,  // measure 55
0200
2300
3100
0002
0023
1030
0020
0032
,  // measure 56
0103
2000
3200
0310
2000
3002
0023
1030
,  // measure 57
0020
0230
1300
0020
0032
0013
0200
2300
,  // measure 58
3100
0020
2030
3002
0023
0230
1300
0001
,  // measure 59
0001
0001
1000
0010
0010
0010
0100
0001
,  // measure 60
0001
0001
1000
0100
0010
0001
1000
0010
,  // measure 61
0010
0010
0100
0001
0001
0001
0010
0100
,  // measure 62
0100
0100
1000
0100
1000
0100
0010
0001
,  // measure 63
0001
0100
0010
0010
1000
0100
0100
1000
,  // measure 64
0001
0001
1000
0100
0001
0100
0110
0000
,  // measure 65
1001
0000
0000
0001
0100
0010
1000
0100
0010
0001
0000
0000
,  // measure 66
0410
0000
0000
0004
0000
0303
1001
0000
0000
1000
0001
1000
0100
0000
0000
0010
0001
0010
0100
0000
0000
1000
0000
0000
,  // measure 67
0010
0000
0000
0000
0000
0000
0100
0000
0001
0000
1000
0000
0001
0000
0000
0000
0000
0000
1000
0000
0000
0000
0000
0000
0100
0000
0000
0000
0000
0000
0010
0000
0100
0000
1000
0000
0001
0000
0000
0000
0000
0000
0000
0000
0000
1000
0000
0000
,  // measure 68
0001
0000
0000
0000
0000
0000
0010
0000
0100
0000
1000
0000
0010
0000
0000
0000
0000
0000
0100
0000
0000
0000
0000
0000
0001
0000
0000
0000
0000
0000
0010
0000
0001
0000
1000
0000
0100
0000
0000
0000
0000
0000
0010
0000
0000
0010
0000
0000
,  // measure 69
0010
0000
0000
0000
0000
0000
0100
0000
0010
0000
0001
0000
1000
0000
0000
0000
0000
0000
0010
0000
0000
0000
0000
0000
0100
0000
0000
0000
0000
0000
0001
0000
0000
0000
0000
0000
0010
0000
0000
0000
0000
0000
0100
0000
0000
1000
0000
0000
,  // measure 70
0010
0000
0000
0000
0000
0000
0100
0000
0000
0000
0000
0000
1001
0000
0000
0000
0000
0000
0010
0000
0000
0010
0000
0000
0010
0000
0000
0000
0000
0000
0100
0000
0001
0000
0100
0000
0010
0000
0000
0000
0000
0000
1000
0000
0000
0000
0000
0000
,  // measure 71
0100
0000
0000
0000
0000
0000
0001
0000
0000
0000
0000
0000
0100
0000
0000
0000
0000
0000
0010
0000
0001
0000
1000
0000
0001
0000
0000
0000
0000
0000
0100
0000
0000
0000
0000
0000
1001
0000
0000
0000
0000
0000
0000
0000
0000
0010
0000
0000
,  // measure 72
1001
0000
0001
0100
1100
0000
0100
0000
0001
0000
0010
0000
0110
0000
0100
0000
,  // measure 73
1000
0000
1001
0000
0201
0000
0320
0000
2030
0000
3200
0000
0320
0000
0031
0010
,  // measure 74
1010
1100
0011
0010
0100
1000
1000
1000
,  // measure 75
1000
1000
1000
1000
1000
1000
1000
0010
,  // measure 76
0100
0001
0010
0100
0010
0100
0100
0100
,  // measure 77
0100
0000
0100
0010
0100
0000
0100
0000
0100
0000
0100
0000
0010
0000
0001
0000
,  // measure 78
1000
0000
0010
0000
0100
0000
0001
0000
0010
0000
0010
0100
0010
0000
0010
0000
,  // measure 79
0010
0000
0010
0100
0010
0000
0010
0000
0010
0000
0010
0000
0100
0000
1000
0000
,  // measure 80
0001
0000
0010
0000
0001
0000
0100
0000
0001
0000
0001
1000
0001
0000
0001
0000
,  // measure 81
0001
0000
0001
1000
0001
0000
0001
0000
0001
0000
0001
0000
0010
0000
0100
0000
,  // measure 82
1000
0010
0100
0010
1000
0001
0010
0001
,  // measure 83
1000
0000
0001
0000
1000
0010
0100
0001
0010
0001
0100
0010
1000
0100
1000
0010
,  // measure 84
0100
0001
0010
0100
0020
0000
0000
0000
0000
0000
0000
0000
0000
0000
0000
0000
,  // measure 85
0000
0000
0000
0030
;

//---------------dance-single - ----------------
#NOTES:
     dance-single:
     :
     Medium:
     8:
     0.497174,0.580958,0.135500,0.121237,0.024961,488.000000,469.000000,19.000000,17.000000,0.000000,0.000000,0.497174,0.580958,0.135500,0.121237,0.024961,488.000000,469.000000,19.000000,17.000000,0.000000,0.000000:
0000
0000
0000
0000
,
0000
0000
0000
0000
,
0000
0000
0000
0000
0000
0000
0000
0000
0000
0000
0000
0000
0000
0000
1000
0001
,
1000
0000
0000
0000
0010
0000
0000
0010
,
0100
0001
0010
0100
,
1000
0000
0010
0000
0100
0001
0100
0000
,
0001
0000
0010
0000
0100
0010
0100
0000
,
0010
0000
0001
0000
1000
0010
1000
0000
,
0001
0000
1000
0000
0001
0000
0010
0100
,
1000
0000
0010
0000
0100
0001
0100
0000
,
0001
0000
0010
0000
0100
0010
0100
0000
,
0010
0000
0001
0000
1000
0010
1000
0000
,
0010
0000
0100
0000
0001
0100
0001
0000
,
1000
0100
0001
0000
0001
0100
1000
0000
,
1000
0010
0001
0000
0001
0010
1000
0000
,
0001
0010
0100
0000
0100
1000
0000
1000
,
0001
0000
0001
0100
0000
0100
0010
1000
,
0001
0010
0100
0010
0001
1000
0001
1000
,
0000
0101
0000
1020
0000
0000
0130
0000
,
0001
0010
0000
0001
1000
0000
0001
0100
,
0010
1000
0100
0010
0001
1000
0001
0000
,
0000
1000
0000
0000
0100
0000
0010
0100
,
0000
0100
1000
0000
0001
1000
0001
0000
,
0100
0010
0000
0100
0001
0000
0100
0010
,
0000
0100
0010
1000
0001
0010
0100
0000
,
1000
0010
0000
0100
0001
0010
0001
1000
,
0001
0200
0000
0000
0000
0000
0310
0000
,
1000
0001
0010
0001
0010
0001
0010
0001
,
0010
0001
2000
0000
0000
0000
3001
0000
,
0100
0010
1000
0010
1000
0010
1000
0010
,
1000
0010
0200
0000
0010
0000
0310
0000
,
1000
0100
0010
0100
0010
0100
0010
0100
,
0010
0100
0020
0000
0000
0000
0031
0000
,
1000
0010
0000
0010
0100
0001
0010
0001
,
1000
0020
0000
0000
0000
0000
0130
0000
,
0001
1000
0000
1000
1100
0000
0000
0000
,
0000
0000
0000
0000
0000
0100
0010
0000
,
0010
0001
0000
0001
1001
0000
0000
0000
,
0000
0000
0000
0001
0100
0010
1000
0000
,
0001
0010
0000
0001
0101
0000
0000
0000
,
0000
0000
0000
0100
0010
1000
0100
0000
,
0010
0001
0000
0001
1001
0000
0000
0000
,
0000
0001
0100
0000
0001
0000
0010
0100
,
1000
0020
0000
0130
0001
1000
0000
0001
,
0000
1000
0001
0000
0011
0000
0010
0100
,
1000
0020
0000
0130
0001
0000
0000
0010
,
0100
0000
1000
0000
1001
0000
1000
0001
,
0010
0200
0000
0310
0001
0000
0000
1000
,
0010
0000
0100
0000
1001
0000
0001
0010
,
0001
2000
0000
3010
0100
0000
0000
0001
,
0010
0001
1000
0010
1000
0000
0100
0000
,
1000
0010
0000
1000
0001
0000
1000
0100
,
0000
1000
0001
0000
1001
0000
1001
0000
,
0001
1000
0000
0001
0010
0000
0001
0100
,
0000
0001
1000
0000
1001
0000
1001
0000
,
1000
0010
0000
1000
0001
0000
1000
0100
,
0000
1000
0001
0000
1001
0000
1001
0000
,
0001
0100
0000
0001
1000
0000
0001
0010
,
0000
0001
1000
0000
1001
0000
0010
1000
,
0100
0000
0010
0001
0000
0001
0100
0000
,
0100
0010
0000
0010
0100
0001
0010
0001
,
1000
0000
1000
0010
0000
0100
0001
0000
,
0001
0010
0000
0100
0010
0001
1000
0001
,
0010
0000
0100
0010
0000
0001
0100
0000
,
0010
1000
0000
0100
0010
0001
1001
0000
,
0110
0000
0100
0001
0010
0001
1000
0000
,
1020
0230
0301
0010
0001
1000
0100
1000
,
0010
0000
0100
0000
0001
0000
0010
0000
1000
0000
0010
0000
0100
0000
0000
0010
,
0001
0000
0001
1000
0010
0000
0100
0000
0001
0000
0010
0000
0001
0000
1000
0000
,
0100
0000
1000
0000
0010
0000
0100
0000
0001
0000
0010
0000
0100
0000
0010
0001
,
0100
1000
0010
0100
0001
0100
1000
0100
,
0001
0000
0010
0000
1000
0000
0010
0000
0100
0000
0001
0000
1000
0000
0000
1000
,
0001
0000
0001
0010
0100
0000
0010
0000
0001
0000
0100
0000
0010
0000
1000
0000
,
0100
0000
1000
0000
0001
0000
0100
0000
1000
0000
0010
0000
0001
0000
1000
0010
,
0100
0001
0010
0000
0100
1000
0001
1000
,
0001
1000
0001
1000
0001
1000
0020
0000
,
0130
0000
0001
0000
0010
0100
1000
0100
,
1000
0100
1000
0100
1000
0100
2000
0000
,
3010
0000
0100
0000
0001
0010
0100
0010
,
0100
0010
0100
0010
0100
0010
0200
0000
,
1300
0000
0001
0000
0100
0001
0010
0001
,
0010
0001
0010
0001
0010
0001
0020
0000
,
0130
0000
1000
0100
0010
0001
0100
0010
,
1000
0001
0010
0100
0010
0001
0100
0010
,
1000
0001
0020
0000
0000
0000
0000
0000
,
0000
0000
0000
0030
;

//---------------dance-single - ----------------
#NOTES:
     dance-single:
     :
     Easy:
     5:
     0.326016,0.519804,0.313790,0.192553,0.000000,320.000000,276.000000,44.000000,27.000000,0.000000,0.000000,0.326016,0.519804,0.313790,0.192553,0.000000,320.000000,276.000000,44.000000,27.000000,0.000000,0.000000:
0000
0000
0000
0000
,
0000
0000
0000
0000
,
0000
0000
0000
0000
,
0010
0000
0000
0000
0100
0000
0000
0010
,
2002
0000
0000
0000
0000
0000
0000
3003
,
0001
0010
0000
0001
,
1000
0010
0000
1000
,
0001
0100
0000
0001
,
1000
0100
0000
1000
,
0001
0010
0000
0001
,
1000
0010
0000
1000
,
0100
1000
0000
0001
,
0100
0001
0000
1000
,
0001
0010
0000
0001
,
0100
0010
0000
0100
,
0010
0010
0100
0001
,
1000
0100
1000
0010
,
0100
0001
0100
0010
,
0000
1001
0000
1001
0000
0000
0001
0000
,
0000
1000
0000
0000
0010
0000
0000
1000
,
0000
0100
1000
0010
,
0000
0100
0000
0000
0001
0000
0000
0010
,
0000
0100
0010
0010
,
0000
0001
0000
0000
0100
0000
0000
0001
,
0000
1000
0100
1000
,
0010
0000
0000
0000
0100
0000
0010
0100
,
0001
2000
0000
0000
0000
0000
3100
0000
,
1000
1010
1010
1010
,
1010
0000
0202
0000
0000
0303
0000
0000
,
0000
0011
0011
0011
,
0011
2200
3300
0000
,
0000
1001
1001
1001
,
1001
0220
0330
0000
,
0010
0000
0100
0001
,
0000
2000
0000
0000
0000
0000
3100
0000
,
0000
1000
0000
0000
0010
0000
0000
0000
,
0000
0000
0100
0010
,
0000
1000
0000
0000
0001
0000
0000
0000
,
0000
0000
0010
0001
,
0000
1000
0000
0000
0100
0000
0000
0000
,
0000
0000
1000
0001
,
0000
0100
0000
0000
0001
0000
0000
0000
,
0000
0010
0100
2000
,
0000
3200
0000
0000
0310
0000
0000
0000
,
0000
0001
0100
0020
,
0000
2030
0000
0000
3001
0000
0000
0000
,
0010
0001
1000
0020
,
0000
0230
0000
0000
0301
0000
0000
0000
,
0010
0001
1000
0200
,
0000
2300
0000
0000
3010
0000
0000
0000
,
0100
0001
0010
0001
,
1000
0000
0000
0001
0000
0000
0100
0000
,
0000
0001
0010
0001
,
1000
0000
0000
0100
0000
0000
1000
0000
,
0000
0010
0100
0010
,
0000
1000
0000
0000
0010
0000
0000
0100
,
0000
0001
0010
0001
,
0000
1000
0000
0000
0100
0000
0000
1000
,
0000
0010
1000
0100
,
1000
0010
0100
0001
,
0010
0100
0100
0010
,
0001
1000
0010
0100
,
0001
0010
0100
0010
,
0001
1000
0010
0100
,
0001
1000
1000
0001
,
0010
0100
1000
0000
,
0001
1000
0010
0000
1000
0000
0100
0000
,
1000
0001
0100
0010
,
0010
0100
0001
0000
1000
0000
0100
0000
,
1000
0000
0001
0000
0010
0000
0100
0010
,
0001
0000
1000
0001
1000
0001
0100
0010
,
0100
0010
1000
0010
1000
0001
0100
0000
,
0001
0010
0001
1000
0100
0010
0100
1000
,
0001
0010
0100
0010
0001
0100
0010
1000
,
0001
1000
0100
0000
0010
0000
0011
0000
,
0011
0011
0011
0202
,
0303
0001
0100
0110
,
0110
0110
0110
2020
,
3030
1000
0100
0110
,
0110
0110
0110
2200
,
3300
1000
0001
0101
,
1001
1100
1001
0022
,
0033
0101
1010
1100
,
0011
0000
0110
0000
1001
0000
0010
0100
,
0001
1000
0020
0000
0000
0000
0000
0000
,
0000
0000
0000
0030
;

//---------------dance-single - ----------------
#NOTES:
     dance-single:
     :
     Beginner:
     3:
     0.148745,0.275191,0.049921,0.000000,0.000000,146.000000,139.000000,7.000000,0.000000,0.000000,0.000000,0.148745,0.275191,0.049921,0.000000,0.000000,146.000000,139.000000,7.000000,0.000000,0.000000,0.000000:
0000
0000
0000
0000
,
0000
0000
0000
0000
,
0000
0000
0000
0000
,
0000
0000
0000
0000
,
0000
0000
0000
0000
,
0010
0000
0000
0000
,
1000
0000
0000
0000
,
0001
0000
0000
0000
,
1000
0000
1000
0000
,
0010
0000
0000
0000
,
1000
0000
0000
0000
,
0001
0000
0000
0000
,
0010
0000
0000
0000
,
0001
0000
0000
0000
,
1000
0000
0000
0000
,
0010
0000
0010
0000
,
0010
0000
0100
0000
,
0100
0000
0010
0010
,
0000
0000
0000
1000
,
0000
0000
1000
0000
,
0000
1000
1000
0001
,
0000
0000
0000
0100
,
0000
0010
0010
0100
,
0000
0000
0010
0000
,
0000
1000
0000
0001
,
1001
0000
0010
0100
,
0000
0000
0000
1000
,
0000
0001
0000
0001
,
0000
1001
0000
0000
,
0000
1000
0000
1000
,
0000
1001
0000
0000
,
0000
0010
0000
0010
,
0000
0110
0000
0100
,
0100
0000
0010
0000
,
0010
0110
0000
0100
,
0000
0000
0000
0000
,
0000
0000
0001
0001
,
0000
0000
0000
0000
,
0000
0000
1000
0010
,
0000
0000
0000
0000
,
0000
0000
0100
0100
,
0000
0000
0000
0000
,
0000
0001
0000
1000
,
0000
0001
0000
0100
,
0000
0010
0010
0010
,
0000
1000
0000
0000
,
0000
0001
0001
1000
,
0000
0010
0000
1000
,
0000
0000
0000
0001
,
0000
1000
0000
0010
,
0000
0000
0000
0100
,
0000
0000
0000
0010
,
0000
0000
1000
1000
,
0000
0000
0000
0001
,
0000
0000
0010
0010
,
0000
0000
0000
0100
,
0000
0000
0010
0010
,
0000
0000
0000
0001
,
0000
0000
0000
1000
,
0000
1000
0000
1000
,
0000
1000
0000
0001
,
0000
0001
0000
0001
,
0000
0001
0000
0100
,
0000
0100
0000
0100
,
0000
0100
0000
0010
,
0000
0010
0010
0010
,
0000
1000
0000
0001
,
0000
0100
0000
0010
,
0000
1000
0000
0100
,
0000
1000
0000
0001
,
1000
0001
0000
0010
,
0000
0001
0000
1000
,
1000
1000
0000
0010
,
0000
0100
0000
0010
,
0000
1000
0000
0010
,
0000
0010
0000
0010
,
0000
0000
0000
0100
,
0000
0100
0000
0100
,
0000
0000
0000
0001
,
0000
0001
0000
0001
,
0000
1000
0000
0001
,
0000
0100
0000
0001
,
0000
0010
0000
0001
,
0001
0001
0001
1000
,
0010
1001
0000
0000
,
0000
0000
0000
1001
;
