#TITLE:Destination Cosmos;
#SUBTITLE:(Space Version);
#ARTIST:Vanello;
#TITLETRANSLIT:;
#SUBTITLETRANSLIT:;
#ARTISTTRANSLIT:;
#GENRE:;
#CREDIT:;
#BANNER:Destination Cosmos (Space Version).png;
#BACKGROUND:Destination Cosmos (Space Version)-background.png;
#LYRICSPATH:;
#CDTITLE:;
#MUSIC:Destination Cosmos (Space Version).ogg;
#OFFSET:-8.109991;
#SAMPLESTART:24.400000;
#SAMPLELENGTH:12.000000;
#SELECTABLE:YES;
#BPMS:0.000000=118.000000
;
#STOPS:
;
#BGCHANGES:;
#KEYSOUNDS:;
#ATTACKS:;

//---------------dance-single - ----------------
#NOTES:
     dance-single:
     :
     Hard:
     8:
     0.445670,0.418235,0.000000,0.022771,0.258076,408.000000,0.000000,3.000000,0.000000,0.000000,0.000000,0.445670,0.418235,0.000000,0.022771,0.258076,408.000000,0.000000,3.000000,0.000000,0.000000,0.000000:
0001
0100
0010
1000
0100
0000
1000
0000
,
0001
0100
0001
1000
,
0100
0010
0001
1000
0010
0000
0100
0000
,
0010
1000
0001
0010
,
0100
1000
0010
0100
0001
0000
0010
0000
,
0100
0010
0001
1000
,
0010
0100
0001
1000
0100
0000
0010
0000
,
0001
0000
1000
0001
0100
0010
1000
0100
,
0010
0000
0100
0000
1000
0000
0001
0100
0000
0000
0001
0000
1000
0000
0010
1000
,
0000
0000
0010
0000
0100
0000
0010
1000
0000
0000
0001
0000
0100
0000
0010
0000
,
1000
0000
0001
0000
0010
0000
0100
1000
0000
0000
1000
0000
0100
0000
0010
0001
,
0000
0000
0001
0000
0010
0000
0100
0010
0000
0000
0100
0000
1000
0000
0010
0000
,
0100
0000
0001
0000
1000
0000
0010
0100
0000
0000
0010
0000
1000
0000
0001
0010
,
0000
0000
0100
0000
0010
0000
0001
0100
0000
0000
0010
0000
0100
0000
0001
0000
,
1000
0000
0100
0000
0001
0000
0100
0010
0000
0000
0010
0000
0001
0000
0100
0010
,
0000
0000
0100
0000
0010
0000
1000
0002
0000
0000
0000
0000
0003
0000
1000
0000
,
0100
1000
0010
0100
0000
0000
0000
0000
,
0010
0100
0001
1000
0000
0100
1000
0010
,
0100
0001
1000
0100
0000
0000
0000
1000
,
0010
0100
0001
0010
0000
0100
1000
0001
,
0100
0001
1000
0010
0000
0000
0000
0000
,
0100
0001
1000
0100
0000
1000
0100
1000
,
0001
0100
0001
0010
0000
0100
1000
0010
,
0000
0100
0001
1000
0000
0000
0000
0000
,
0001
0000
0000
0100
0000
0000
0010
0000
1000
0010
1000
0000
0010
0000
0100
0000
,
0001
0000
0000
1000
0000
0000
0100
0000
1000
0000
0010
0000
0100
0000
0001
0000
,
1000
0000
0000
0100
0000
0000
1000
0000
0010
0100
0010
0000
0100
0000
0010
0000
,
1000
0000
0000
0001
0000
0000
1000
0000
0010
0100
0010
0100
0010
0100
0010
0000
,
1000
0000
0000
1000
0000
0000
0001
0000
0010
0001
0010
0000
0100
0000
1000
0000
,
0100
0000
0000
1000
0000
0000
0010
0000
0100
0000
0001
0000
0010
0000
0100
0000
,
1000
0000
0000
0100
0000
0000
1000
0000
0010
0100
0010
0000
0100
0000
0001
0000
,
1000
0000
0000
0010
0000
0000
1000
0000
0001
0100
0001
0100
0001
1000
0001
1000
,
0000
0001
0010
0100
0010
0001
1000
0000
,
0000
0100
1000
0010
0100
0010
1000
0000
,
0000
0010
0100
0001
1000
0100
0010
0000
,
0000
0100
1000
0010
0100
0001
1000
0000
,
0000
0001
0100
0010
1000
0100
0010
0010
,
0000
0100
1000
0010
0100
0001
0100
0100
,
0000
0001
1000
0100
1000
0001
0100
0001
,
0000
0000
0001
0000
0100
0000
0010
0000
1000
0000
0010
1000
0000
0000
0010
0000
,
0100
0001
0000
0001
,
0000
0001
1000
0010
,
0001
0000
1000
0000
0001
0000
1000
0100
0000
0000
0010
0000
0001
0000
0010
0100
,
0000
0000
0010
0000
0100
0000
0010
0001
0000
0000
0010
0000
0100
0000
1000
0000
,
0010
0000
0100
0000
0010
0000
1000
0100
0000
0000
0010
0000
0001
0000
0010
0100
,
0000
0000
1000
0000
0100
0000
1000
0010
0000
0000
0100
0000
0010
0000
1000
0000
,
0001
0000
1000
0000
0100
0000
0010
0001
0000
0000
0010
0000
0100
0000
0010
0001
,
0000
0000
0100
0000
0010
0000
0001
1000
0000
0000
0100
0000
0010
0000
0001
0000
,
0100
0000
0010
0000
0100
0000
0010
1000
0000
0000
0010
0000
0100
0000
0010
1000
,
0000
0000
0001
0000
1000
0000
0100
0020
0000
0000
0000
0000
0030
0000
0000
0000
,
0100
0000
0010
0000
0001
1000
0001
1000
0000
0000
0001
0000
0100
0001
0100
0001
,
0000
0000
0100
0000
0010
1000
0010
1000
0000
0000
0100
0000
0010
0000
0001
0000
,
1000
0000
0010
0000
0100
0001
0100
0001
0000
0000
0100
0000
0010
1000
0010
1000
,
0000
0000
0001
0000
1000
0001
1000
0010
0000
0000
0100
0000
0001
0000
0010
0000
,
0100
0000
1000
0000
0100
0010
0001
0100
0000
0000
0010
0000
0100
0010
1000
0010
,
0000
0000
0100
0000
0100
0001
0010
0100
0000
0000
0010
0000
0100
0000
1000
0000
,
0001
0000
1000
0000
0001
0100
0010
1000
0000
0000
0100
0000
0010
0001
0010
0100
,
0000
0000
0010
0000
0100
1000
0001
0020
0000
0000
0000
0000
0000
0000
0000
0000
,
0030
0000
0000
0000
;

//---------------dance-single - ----------------
#NOTES:
     dance-single:
     :
     Easy:
     2:
     0.168075,0.154087,0.015181,0.000000,0.000000,153.000000,2.000000,0.000000,0.000000,0.000000,0.000000,0.168075,0.154087,0.015181,0.000000,0.000000,153.000000,2.000000,0.000000,0.000000,0.000000,0.000000:
0001
1000
0000
0000
,
0000
0000
0000
0000
,
0010
0100
0000
0000
,
0000
0000
0000
0000
,
1000
0010
0000
0000
,
0000
0000
0000
0000
,
0100
0001
0000
0000
,
0000
0000
0000
0000
,
1000
0001
0000
0001
,
0000
0001
0010
0100
,
0010
0100
0000
0100
,
0000
0100
0010
0001
,
1000
0010
0000
0010
,
0000
0010
0100
0010
,
1000
0001
0000
1000
,
0000
0001
0010
0000
,
0100
0010
0001
0000
,
1000
0001
1000
0001
,
1000
0010
0100
0000
,
0010
1000
0001
0010
,
0100
0010
0100
0000
,
0010
0001
1000
0001
,
0100
0001
1000
0100
,
0010
0100
1000
0000
,
0001
0000
1000
1000
,
1000
0000
0010
0010
,
0010
0000
0100
0100
,
0100
0000
0001
1000
,
0010
0000
0100
0001
,
1000
0000
0100
0010
,
0001
0000
1000
0001
,
0100
0000
0010
1000
,
0000
0001
0100
0010
,
0000
0100
0010
1000
,
0000
0001
0001
1000
,
0000
0010
0010
1000
,
0000
0010
0100
0001
,
0000
1000
0010
0001
,
0000
0010
0100
0001
,
1001
0000
0000
0000
,
1000
0000
0000
1000
,
0000
0000
1000
0000
,
0001
0100
0000
0010
,
0000
1000
0010
0100
,
0001
1000
0000
1000
,
0000
1000
0010
0100
,
0010
1000
0000
1000
,
0000
1000
0001
0010
,
0100
0010
0000
0100
,
0000
1000
0000
0000
,
0001
1000
0000
0010
,
0000
0100
0010
0001
,
0010
0100
0000
0001
,
0000
1000
0100
0010
,
0100
1000
0000
1000
,
0000
1000
0010
0100
,
0001
1000
0000
0001
,
0000
0100
0000
0000
,
1001
0000
0000
0000
;

//---------------dance-single - ----------------
#NOTES:
     dance-single:
     :
     Medium:
     6:
     0.340487,0.308173,0.007590,0.106267,0.000000,299.000000,1.000000,14.000000,0.000000,0.000000,0.000000,0.340487,0.308173,0.007590,0.106267,0.000000,299.000000,1.000000,14.000000,0.000000,0.000000,0.000000:
0001
0010
0100
1000
0001
0000
1000
0000
,
0010
1000
0001
0010
,
0100
0010
0001
1000
0010
0000
0100
0000
,
0001
1000
0100
1000
,
0010
0100
0001
1000
0001
0000
0010
0000
,
0001
0100
0010
1000
,
0010
0100
0001
1000
0100
0000
1000
0000
,
0010
0100
0001
1000
,
0010
1000
0010
0100
0010
0000
0100
0000
,
0001
0000
1000
0001
0020
0000
0130
0000
,
0010
0001
0010
0100
1000
0000
0100
0000
,
1000
0000
0001
1000
0020
0000
0130
0000
,
0001
1000
0010
1000
0100
0000
1000
0000
,
0010
0000
0100
0001
0020
0000
0130
0000
,
0010
0000
0001
1000
0010
0000
1000
0001
,
0010
0000
0001
1000
0020
0000
0030
0000
,
0100
0001
1000
0000
,
0001
1000
0100
1000
,
0010
0100
0000
0000
,
0100
0010
1000
0001
,
1000
0001
0100
0000
,
0001
1000
0010
1000
,
0001
0010
0100
0010
,
0001
1000
0010
0000
,
0100
0000
0001
0000
1000
0100
1000
0100
,
0010
0000
0100
0000
1000
0001
1000
0001
,
0010
0000
0100
0000
0010
0001
0010
0001
,
1000
0000
0001
0000
0100
0100
0010
0010
,
0100
0000
0010
0000
1000
0010
0100
0001
,
1000
0000
0001
0000
0010
0100
1000
0010
,
0100
0000
0001
0000
1000
0001
0010
0001
,
0010
0000
0100
0000
0010
0100
0001
1000
,
0000
0001
0100
0001
0100
0001
0200
0000
,
0300
0010
1000
0010
1000
0010
2000
0000
,
3000
0001
1000
0001
1000
0001
2000
0000
,
3000
0100
1000
0100
1000
0100
2000
0000
,
3000
1000
0100
0010
0001
0010
0100
1000
,
0000
1000
0100
0010
0001
0010
0100
1000
,
0001
0001
1000
1000
,
0110
0000
0000
0000
,
0001
1000
0000
1000
,
0000
1000
0010
0100
,
0001
0100
0010
1000
,
0001
0000
0100
0010
2000
0000
3001
0000
,
1000
0100
0010
0100
,
1000
0000
0001
1000
0020
0000
1030
0000
,
0100
0010
1000
0001
1000
0000
0001
0000
,
0100
0000
0001
0010
0200
0000
0310
0000
,
0100
0000
1000
0100
0010
0000
0100
1000
,
0010
0000
0100
0010
2000
0000
3000
0000
,
0001
0100
0010
1000
0000
0001
0100
0010
,
0000
0100
0010
1000
0001
0010
0100
0010
,
0001
1000
0010
1000
0000
0100
1000
0010
,
0000
0100
0001
1000
0010
1000
0001
0010
,
0100
0010
0001
1000
0000
0001
1000
0100
,
0000
1000
0010
0100
0010
1000
0001
0010
,
0100
0010
0001
1000
0000
0001
1000
0010
,
0000
1000
0001
0020
0200
0000
0000
0000
,
0330
0000
0000
0000
;

//---------------dance-single - ----------------
#NOTES:
     dance-single:
     :
     Challenge:
     9:
     0.638685,0.616347,0.220124,0.607238,0.478200,480.000000,29.000000,80.000000,0.000000,0.000000,0.000000,0.638685,0.616347,0.220124,0.607238,0.478200,480.000000,29.000000,80.000000,0.000000,0.000000,0.000000:
// measure 0
0002
0000
0103
0020
0000
1030
0002
0000
1003
0000
0100
0000
0001
0100
0010
0001
,  // measure 1
1000
0000
0010
0000
0001
0010
0100
0001
1000
0000
0010
0100
0001
0010
0100
0010
,  // measure 2
0002
0000
0013
0200
0000
1300
0020
0000
1030
0000
0001
0000
0100
0001
0010
0100
,  // measure 3
1000
0000
0100
0000
0010
0100
1000
0010
0100
0000
0001
1000
0000
0001
1000
0000
,  // measure 4
2000
0000
3010
0200
0000
0301
2000
0000
3001
0000
0010
0000
1000
0010
0100
1000
,  // measure 5
0001
0000
0100
0000
1000
0100
0010
1000
0001
0000
0100
0010
1000
0100
0010
0100
,  // measure 6
2000
0000
3100
0020
0000
0031
0200
0000
0301
0000
1000
0000
0010
1000
0100
0010
,  // measure 7
0001
0000
0010
0000
0100
0010
0001
0100
0010
1000
0000
0001
0100
0000
0001
0000
,  // measure 8
1000
0000
0010
0000
0100
0010
1000
0001
0000
0000
0010
0000
0100
0010
0001
1000
,  // measure 9
0000
0000
0001
0000
0100
0010
1000
0020
0000
0000
0130
0000
0001
0000
0010
0000
,  // measure 10
1000
0000
0010
0000
0100
0010
0001
1000
0000
0000
0001
0000
1000
0100
0010
0100
,  // measure 11
0000
0000
0010
0000
0100
1000
0001
0200
0000
0000
0310
0000
1000
0000
0001
0000
,  // measure 12
0010
0000
0100
0000
0010
0001
1000
0010
0000
0000
0100
0000
0001
0010
0100
0010
,  // measure 13
0000
0000
0100
0000
1000
0100
0010
0002
0000
0000
1003
0000
0001
0000
0100
0000
,  // measure 14
1000
0000
0100
0000
0010
1000
0001
0010
0000
0000
0100
0000
0010
0001
1000
0010
,  // measure 15
0000
0000
1000
0000
0001
0100
0002
2000
0000
0000
0000
0000
3003
0000
0000
0000
,  // measure 16
0001
0100
1000
0100
0000
0000
0000
0000
,  // measure 17
0100
1000
0100
0001
0000
0001
0100
1000
,  // measure 18
0100
0001
0100
1000
0000
0000
0000
1000
,  // measure 19
0100
0010
0100
0010
0000
0100
0010
0001
,  // measure 20
0010
1000
0010
0100
0000
0000
0000
0000
,  // measure 21
0010
0001
0010
1000
0000
0010
1000
0010
,  // measure 22
0001
0010
1000
0010
0000
0100
0010
0001
,  // measure 23
0000
0001
0100
0010
0000
0000
0000
0000
,  // measure 24
1001
0000
0000
0101
0000
0000
0011
0000
0001
0001
0100
0000
0001
0000
1000
0000
,  // measure 25
1100
0000
0000
0110
0000
0000
0100
0000
1000
0000
0010
0000
0001
0000
0010
0000
,  // measure 26
0110
0000
0000
1010
0000
0000
0101
0000
0001
0001
0010
0000
0100
0000
0010
0000
,  // measure 27
0001
0000
0000
1000
0000
0000
0010
0000
0100
0100
0001
0100
0100
0010
1000
0000
,  // measure 28
1001
0000
0000
1100
0000
0000
1001
0000
1000
1000
0010
0000
0100
0000
0010
0000
,  // measure 29
1010
0000
0000
0101
0000
0000
0001
0000
0010
0000
1000
0000
0010
0000
0100
0000
,  // measure 30
1100
0000
0000
0110
0000
0000
0011
0000
0001
0001
0100
0000
0010
0000
1000
0000
,  // measure 31
1001
0000
0000
0101
0000
0000
1001
0000
0001
1000
0001
0001
0001
0001
0001
0001
,  // measure 32
0000
2000
3200
0302
0203
0320
0002
0000
,  // measure 33
0033
0002
0023
2030
3020
0230
2000
0000
,  // measure 34
3300
2000
3020
0032
0023
0230
0002
0000
,  // measure 35
0303
0002
0203
2300
3200
0320
2030
0000
,  // measure 36
0000
3020
2030
3020
0230
0302
0023
0230
,  // measure 37
0000
2300
3200
0320
0032
0023
0230
0320
,  // measure 38
0000
0032
0023
0230
2300
3200
2300
3002
,  // measure 39
0000
0000
2003
0000
3020
0000
0032
0000
0023
0000
0230
0320
0000
0000
1030
0000
,  // measure 40
0002
1000
0000
0100
,  // measure 41
0000
0000
0010
0000
0000
0000
1003
0001
,  // measure 42
0100
0000
0010
0000
1000
0010
0100
0001
0000
0000
0010
0000
0100
1000
0010
1000
,  // measure 43
0000
0000
0001
0000
1000
0100
1000
0020
0000
0000
0130
0000
0001
0000
0010
0000
,  // measure 44
0100
0000
0010
0000
0001
0100
0001
1000
0000
0000
0100
0000
1000
0001
1000
0100
,  // measure 45
0000
0000
1000
0000
1000
0001
0100
0020
0000
0000
0130
0000
0001
0000
0010
0000
,  // measure 46
0100
0000
0010
0000
0001
0010
0001
1000
0000
0000
0001
0000
0100
0010
1000
0100
,  // measure 47
0000
0000
0010
0000
0100
1000
0001
0020
0000
0000
0130
0000
0010
0000
0001
0000
,  // measure 48
1000
0000
0010
0000
0100
0010
1000
0002
0000
0000
1003
0000
0001
0010
0100
1000
,  // measure 49
0000
0000
0100
0000
1000
0010
2000
0002
0000
0000
0000
0000
0000
0000
3003
0000
,  // measure 50
0001
0000
1001
0000
1000
0001
0010
0001
0000
0000
1001
0000
0001
1000
0010
1000
,  // measure 51
0000
0000
1001
0000
0001
1000
0100
0020
0000
0000
0130
0000
0010
0000
0001
0000
,  // measure 52
1000
0000
1001
0000
0001
0010
0100
1000
0000
0000
1100
0000
1000
0100
0010
0001
,  // measure 53
0000
0000
0011
0000
0001
0010
0100
0020
0000
0000
0130
0000
1000
0000
0010
0000
,  // measure 54
1000
0000
1010
0000
1000
0010
0100
0001
0000
0000
0101
0000
0001
0010
0100
1000
,  // measure 55
0000
0000
1001
0000
1000
0001
0010
0200
0000
0000
0310
0000
0001
0000
1000
0000
,  // measure 56
0010
0000
1010
0000
0010
1000
0001
0010
0000
0000
0100
0000
0010
0001
0100
0010
,  // measure 57
0000
0000
0100
0000
0001
0100
0002
2000
0000
0000
0000
0000
0000
0000
0000
0000
,  // measure 58
3003
0000
0000
0000
;

//---------------dance-single - ----------------
#NOTES:
     dance-single:
     :
     Beginner:
     1:
     0.100845,0.110062,0.015181,0.007590,0.000000,90.000000,2.000000,1.000000,0.000000,0.000000,0.000000,0.100845,0.110062,0.015181,0.007590,0.000000,90.000000,2.000000,1.000000,0.000000,0.000000,0.000000:
1000
0000
0000
0000
,
0000
0000
0000
0000
,
1000
0000
0000
0000
,
0000
0000
0000
0000
,
0001
0000
0000
0000
,
0000
0000
0000
0000
,
0001
0000
0000
0000
,
0000
0000
0000
0000
,
1000
0000
1000
0000
,
1000
0000
0000
0000
,
0001
0000
0001
0000
,
0001
0000
0000
0000
,
0010
0000
0010
0000
,
0010
0000
0000
0000
,
0100
0000
0100
0000
,
0100
0000
0000
0000
,
0010
0000
0000
0000
,
1000
0000
0000
0001
,
0001
0000
0000
0000
,
0100
0000
0000
0010
,
0100
0000
0000
0000
,
0001
0000
0000
0000
,
1000
0000
0000
0000
,
0100
0000
1000
0000
,
0010
0000
0000
0000
,
0100
0000
0000
0000
,
1000
0000
0000
0000
,
0001
0000
1000
0001
,
0010
0000
0000
0000
,
0100
0000
0000
0000
,
0100
0000
0000
0000
,
0010
0000
0001
0001
,
0001
0000
1000
0000
,
0001
0000
0100
0000
,
0001
0000
1000
0000
,
0001
0000
0010
0000
,
0001
0000
1000
0000
,
0001
0000
0100
0000
,
0001
0000
0010
0000
,
0200
0000
0000
0300
,
0000
0000
0000
0000
,
0000
0000
0000
0000
,
1000
1000
0000
1000
,
0000
1000
0000
0000
,
0001
0001
0000
0001
,
0000
0001
0000
1000
,
0001
0100
0000
0100
,
0000
0100
0000
0000
,
0010
0100
0000
0001
,
0000
0010
0000
0000
,
0100
0000
1000
0000
,
0001
0000
0100
0100
,
0010
0000
0100
0000
,
0001
0000
1000
0001
,
1001
0000
0001
0000
,
1000
0000
0010
0000
,
0100
0001
0000
1000
,
0000
0010
0000
0000
,
1001
0000
0000
0000
;
