#TITLE:Ancient Scapes;
#SUBTITLE:;
#ARTIST:Durandal;
#TITLETRANSLIT:;
#SUBTITLETRANSLIT:;
#ARTISTTRANSLIT:;
#GENRE:;
#CREDIT:;
#BANNER:Ancient Scapes.png;
#BACKGROUND:Ancient Scapes-bg.png;
#LYRICSPATH:;
#CDTITLE:;
#MUSIC:Ancient Scapes.mp3;
#OFFSET:-1.905001;
#SAMPLESTART:34.262314;
#SAMPLELENGTH:16.179775;
#SELECTABLE:YES;
#BPMS:0.000000=89.000000
,30.000000=178.000000
,191.000000=89.000000
,205.000000=178.000000
;
#STOPS:30.000000=1.011000,
205.000000=1.011000,
234.000000=1.011000
;
#BGCHANGES:;
#KEYSOUNDS:;
#ATTACKS:;

//---------------dance-single - ----------------
#NOTES:
     dance-single:
     :
     Hard:
     10:
     0.691917,0.719390,0.902206,0.055399,0.605427,491.000000,114.000000,7.000000,0.000000,0.000000,0.000000,0.691917,0.719390,0.902206,0.055399,0.605427,491.000000,114.000000,7.000000,0.000000,0.000000,0.000000:
1001
0000
0000
0000
0000
0000
0101
0000
0000
0000
0000
0000
1001
0000
0000
0000
0000
0000
0000
0000
0000
0000
0000
0000
0000
0000
1000
0000
0000
0100
0000
0000
,
0110
0000
0000
0000
0000
0000
0011
0000
0000
0000
0000
0000
1010
0000
0000
0000
0000
0000
0000
0000
0000
0000
1000
0010
1000
0000
0000
0010
0000
0000
0100
0000
,
0101
0000
0000
0000
0000
0000
0011
0000
0000
0000
0000
0000
1100
0000
0000
0000
0000
0000
0000
0000
0000
0000
0000
0000
0000
0000
0100
0000
0000
0010
0000
0000
,
0011
0000
0000
0000
0000
0000
1010
0000
0000
0000
0000
0000
1001
0000
0000
0000
0010
0000
0100
0010
0000
0100
0010
0100
0001
0000
0000
0010
0000
0000
0100
0000
,
1000
1000
1000
1000
0100
0100
0100
0100
,
1000
1000
1000
1000
0001
0001
0001
0001
,
0010
0010
0010
0010
0100
0100
0100
0100
,
0010
0010
0010
0010
1001
0000
0001
0000
,
1000
0000
0000
0000
0010
0000
0000
1000
0010
0000
0100
0000
0001
0000
0000
0000
,
0010
0000
0000
0000
0100
1000
0000
1000
0001
0000
0010
0000
0100
0000
0000
0000
,
1000
0000
0000
0000
0001
0000
0000
0100
0010
0000
1000
0000
0001
0000
0000
0000
,
1000
0000
0000
0000
0001
1000
0000
0001
1000
0000
0001
0000
1000
0000
0010
0000
,
1000
0010
0100
0010
0100
0010
0001
0010
,
0001
0010
0100
0010
0100
0010
1000
0001
,
0100
0001
0010
1000
0010
0001
0000
1100
,
0000
0011
0000
0000
0101
0000
0000
1010
0000
0000
0001
0010
0100
0000
1000
0000
,
0000
0001
0000
0000
0010
0000
0000
0100
0000
0000
1000
0001
0000
0000
1000
0000
,
0000
0100
0000
0000
0010
0000
0000
0001
0000
0000
1000
0010
0000
0000
0100
0000
,
0000
0100
0000
0000
0010
0000
0000
1000
0000
0000
0001
0010
0000
0000
0100
0000
,
0000
0100
0000
0000
0010
0000
0000
0001
0000
0000
1000
0001
0000
0000
1000
0000
,
0000
0100
0000
0000
0001
0000
0000
0100
0000
0000
1000
0010
0000
0000
0001
0000
,
0000
0010
0000
0000
1000
0000
0000
0010
0000
0000
0100
0001
0000
0000
1000
0000
,
0000
0010
0000
0000
0100
0000
0000
0001
0000
0000
1000
0010
0000
0000
0100
0000
,
0000
0001
0000
0000
0010
0000
0000
0100
0000
0000
0010
0001
0000
0000
1000
0000
,
0000
0010
0000
0000
1000
0000
0000
0010
0000
0000
0100
0001
0000
0000
0010
0000
,
0000
0100
0000
0000
1000
0000
0000
1000
0000
0000
0001
1000
0000
0000
1000
0000
,
0000
0010
0000
0000
1000
0000
0000
0100
0000
0000
0010
0100
0000
0000
1000
0000
,
0000
0100
0000
0000
0010
0000
0000
0100
0000
0000
1000
0001
1000
0000
0100
0000
,
0010
0001
0010
0010
0001
0001
0010
0001
,
0010
0000
0100
0000
1000
0000
1000
0000
0100
0000
0100
0000
0010
0001
0010
0000
,
0001
0100
0001
0000
1000
0010
1000
0000
0001
1000
0001
1000
0010
0000
0000
0000
,
0100
0010
0100
0010
0100
0000
0000
0100
0000
0000
0100
0000
0110
0000
0000
0000
,
0110
0110
0110
1001
,
1001
1001
1001
0110
,
0110
0110
0110
1001
,
1001
1001
1001
1010
,
1010
1010
1010
0011
,
0011
0011
0011
1100
,
1100
1100
1100
0101
,
0101
0101
0101
0120
,
1000
0100
0001
0100
,
0100
0100
0100
1000
,
0100
0001
0100
1000
,
1000
1000
1030
1200
,
1000
0010
0001
0010
,
0010
0010
0010
1000
,
0010
0001
0310
2002
,
0000
0000
0000
0000
0000
0000
0000
0000
3003
0000
0000
0000
0110
0000
0000
0101
,
0000
0000
0000
0000
1010
0000
0000
0000
0000
0000
0000
0000
0000
0000
0000
0000
0000
0000
1000
0000
0000
0100
0000
0000
0011
0000
0000
0000
0000
0000
1100
0000
,
0000
0000
0000
0000
0101
0000
0000
0000
0000
0000
0000
0000
0000
0000
0001
1000
0001
0000
0000
0100
0000
0000
0010
0000
1010
0000
0000
0000
0000
0000
0110
0000
,
0000
0000
0000
0000
0101
0000
0000
0000
0000
0000
0000
0000
0000
0000
0000
0000
0000
0000
0001
0000
0000
0010
0000
0000
1100
0000
0000
0000
0000
0000
1010
0000
,
0000
0000
0110
0000
1001
0000
0000
0000
0001
0000
0100
0000
0010
1000
0010
1000
,
0010
1000
0010
1000
0010
0000
1000
0000
0001
0000
0010
0000
0100
1000
0100
1000
,
0100
1000
0100
1000
0100
0000
0010
0000
0001
0000
1000
0000
0010
0100
0010
0100
,
0010
0100
0010
0100
0010
0000
1000
0000
0001
0000
0010
0000
0010
0100
0010
0100
,
0010
0100
0010
0100
0010
0000
0001
0000
1000
0000
0001
0100
0000
0010
1000
0000
,
0001
0000
0010
0001
0000
0100
1000
0000
0010
0000
1000
0010
0000
0100
0001
0000
,
0010
0000
0001
0010
0000
0100
1000
0000
0001
0000
1000
0010
1000
0000
0010
0100
,
0010
0000
0100
0001
0100
0000
0001
0010
0001
0000
0000
0000
0000
0000
1001
0000
,
0000
0101
0000
0000
1001
0000
0000
1100
0000
0000
1000
0010
0000
0000
0101
0000
,
0000
0011
0000
0000
1100
0000
0000
1010
0000
0000
0001
0100
0000
0000
0011
0000
,
0000
0110
0000
0000
1100
0000
0000
0110
0000
0000
0010
0001
0000
0000
0011
0000
,
0000
1100
0000
0000
1010
0000
0000
0101
0000
0000
0001
1000
0000
0000
0101
0000
,
0000
1010
0000
0000
0101
0000
0000
1001
0000
0000
1000
0100
0000
0000
1100
0000
,
0000
0110
0000
0000
1100
0000
0000
1010
0000
0000
0010
0100
0000
0000
0101
0000
,
0000
0011
0000
0000
0110
0000
0000
1100
0000
0000
0100
0010
0000
0000
0011
0000
,
0000
1010
0000
0000
0011
0000
0000
1100
0000
0000
1000
0010
0100
0000
0101
0000
,
0000
1010
0000
0000
1100
0000
0000
0011
0000
0000
0001
1000
0000
0000
1010
0000
,
0000
0101
0000
0000
0011
0000
0000
1100
0000
0000
1000
0100
0000
0000
1100
0000
,
0000
1010
0000
0000
0101
0000
0000
0011
0000
0000
0010
0100
0000
0000
0110
0000
,
0000
0011
0000
0000
0110
0000
0000
1100
0000
0000
0100
1000
0010
0000
0100
0000
,
1000
0100
0001
0010
0001
1000
0100
1000
,
0001
0100
0001
0010
0100
0010
0001
1000
,
0010
1000
0000
0001
0100
0000
0001
0010
0000
0100
1000
0010
0200
0000
0000
0000
,
0000
0000
0000
0000
0000
0300
2002
0000
,
0000
0000
0000
3003
;

//---------------dance-single - ----------------
#NOTES:
     dance-single:
     :
     Medium:
     8:
     0.482759,0.509568,0.221594,0.118711,0.221594,384.000000,28.000000,15.000000,0.000000,0.000000,0.000000,0.482759,0.509568,0.221594,0.118711,0.221594,384.000000,28.000000,15.000000,0.000000,0.000000,0.000000:
1000
0000
0000
0100
0000
0000
0010
0000
0000
0000
0000
0000
0000
0000
0100
0000
,
1000
0000
0000
0001
0000
0000
0100
0000
0000
0000
0000
0000
0010
0000
0100
0000
,
0001
0000
0000
1000
0000
0000
0100
0000
0000
0000
0000
0000
0000
0000
1000
0000
,
0001
0000
0000
0100
0000
0000
0010
0000
0100
0000
0001
0000
1000
0000
0000
0000
,
0001
0100
0001
0100
1000
0100
1000
0100
,
0001
0100
0001
0100
1000
0100
1000
0001
,
0010
0100
0010
0100
1000
0100
1000
0100
,
0010
0001
1000
0010
1001
0000
0001
0000
,
0100
0000
0010
0000
1000
0010
1000
0000
,
0010
0000
0100
0000
0001
1000
0100
0000
,
0010
0000
0001
0000
0010
0100
0010
0000
,
0001
0000
1000
0000
0010
0100
0001
1000
,
0001
0000
0001
0100
0001
0000
0010
1000
,
0010
0000
0100
0010
0100
0000
0010
0100
,
0001
1000
0010
0100
0001
1000
0000
1001
,
0000
1010
0000
0000
1001
0000
0000
0011
0000
0000
1001
0000
0000
0000
0001
0000
,
0000
0100
0000
0000
0010
0000
0000
1000
0000
0000
0010
0000
0000
0000
1000
0000
,
0000
0100
0000
0000
0010
0000
0000
0001
0000
0000
0010
0000
0000
0000
0001
0000
,
0000
0100
0000
0000
0001
0000
0000
1000
0000
0000
0100
0000
0000
0000
1000
0000
,
0000
0100
0000
0000
0010
0000
0000
0001
0000
0000
1000
0000
0000
0000
0001
0000
,
0000
1000
0000
0000
0010
0000
0000
1000
0000
0000
0001
0000
0000
0000
1000
0000
,
0000
0001
0000
0000
0100
0000
0000
0001
0000
0000
1000
0000
0000
0000
0001
0000
,
0000
0100
0000
0000
0010
0000
0000
1000
0000
0000
0100
0000
0000
0000
0010
0000
,
0000
0001
0000
0000
0100
0000
0000
0010
0000
0000
1000
0000
0010
0000
0100
0000
,
0000
0010
1000
0010
1000
0000
0010
0100
,
0000
0001
0100
0001
0100
0000
0001
1000
,
0000
0100
0010
0100
0010
0000
0010
0001
,
0000
0001
0010
0100
1000
0000
0001
1000
,
0000
0100
0000
0000
0010
0000
0000
0001
0000
0000
0010
0000
0000
0000
0001
0000
,
0000
0010
0000
0000
0100
0000
0000
1000
0000
0000
0001
0000
0000
0000
0100
0000
,
0000
0010
0000
0000
1000
0000
0000
0001
0000
0000
0100
0000
2002
0000
0000
0000
,
0000
0000
3003
0001
,
1000
0010
1010
1000
,
0001
0010
0011
0001
,
1000
0010
1010
1000
,
0001
0100
1001
0001
,
0100
0010
1010
1000
,
0100
0010
0011
0001
,
0010
0100
1100
1001
,
0001
0000
0100
0010
1000
0000
0002
0000
,
0100
0100
0103
0010
,
1000
0100
0010
0002
,
0010
0010
0013
0100
,
0001
1000
0100
2000
,
3100
0200
0310
0020
,
0031
0002
0013
0020
,
0230
2300
3020
0200
,
0000
0000
0000
0000
0000
0000
0000
0000
0330
0000
0000
0000
1001
0000
0000
0001
,
0000
0000
0100
0000
0000
0000
0000
0000
0000
0000
0010
0000
0100
0000
0000
0001
,
0000
0000
1000
0000
0000
0000
0000
0000
0100
0000
1000
0000
0010
0000
0000
0100
,
0000
0000
0001
0000
0000
0000
0000
0000
0000
0000
1000
0000
0001
0000
0000
0100
,
0000
0010
1001
0000
0001
0100
0001
0100
,
0001
0100
0001
0000
1000
0010
1000
0010
,
1000
0010
1000
0000
0100
1000
0100
1000
,
0100
1000
0100
0000
0010
0100
0010
0100
,
0010
0100
0010
0000
0001
0010
0001
0000
,
0010
0100
0010
0000
0100
1000
0100
0000
,
1000
0001
1000
0000
0001
0100
0010
1000
,
0001
0100
0010
1000
0001
0000
0000
1000
,
0000
0100
0000
0000
0010
0000
0000
0001
0000
0000
0011
0000
0000
0000
0001
0000
,
0000
0010
0000
0000
0100
0000
0000
1000
0000
0000
1100
0000
0000
0000
1000
0000
,
0000
0010
0000
0000
0100
0000
0000
0001
0000
0000
1001
0000
0000
0000
0001
0000
,
0000
0010
0000
0000
0100
0000
0000
1000
0000
0000
1100
0000
0000
0000
1000
0000
,
0000
0010
0000
0000
0100
0000
0000
0001
0000
0000
1001
0000
0000
0000
0001
0000
,
0000
0010
0000
0000
0100
0000
0000
1000
0000
0000
1100
0000
0000
0000
1000
0000
,
0000
0100
0000
0000
0010
0000
0000
0001
0000
0000
1001
0000
0000
0000
0001
0000
,
0000
0100
0000
0000
0010
0000
0000
1000
0000
0000
0010
0000
0000
0000
1000
0000
,
0000
0010
0000
0000
0100
0000
0000
0001
0000
0000
1001
0000
0000
0000
0001
0000
,
0000
0010
0000
0000
0100
0000
0000
1000
0000
0000
1100
0000
0000
0000
0100
0000
,
0000
1000
0000
0000
0010
0000
0000
0100
0000
0000
0101
0000
0000
0000
0001
0000
,
0000
1000
0000
0000
0010
0000
0000
0100
0000
0000
0010
0000
1000
0000
0001
0000
,
0010
0000
0100
1000
0010
0000
0100
0001
,
0010
0000
0100
1000
0010
0000
0100
0010
,
1000
0001
0010
0100
0010
0001
1000
0000
,
0000
0000
0000
0220
,
0000
0000
0000
0330
;

//---------------dance-single - ----------------
#NOTES:
     dance-single:
     :
     Easy:
     5:
     0.332392,0.354947,0.174110,0.055399,0.000000,265.000000,22.000000,7.000000,0.000000,0.000000,0.000000,0.332392,0.354947,0.174110,0.055399,0.000000,265.000000,22.000000,7.000000,0.000000,0.000000,0.000000:
1000
0000
0000
0000
,
0001
0000
0000
0100
,
0010
0000
0000
0000
,
0100
0000
0010
1000
,
0001
0001
1000
1000
,
0001
0001
0100
0100
,
0001
0001
1000
1000
,
0010
0010
1001
0001
,
1000
0100
0100
1000
,
0001
0100
0100
0001
,
1000
0100
0100
1000
,
0001
0100
0100
0010
,
1000
0010
0100
0010
,
0001
0010
0100
1000
,
0100
0001
1000
0002
,
0000
0000
0000
1003
,
0100
0010
0100
0000
,
1000
0100
0010
0000
,
0100
0010
0001
0000
,
1000
0001
0100
0000
,
0001
1000
0010
0000
,
1000
0010
0100
0000
,
0010
0100
0001
0000
,
1000
0001
0100
0001
,
0010
0100
0010
0001
,
1000
0100
0010
0100
,
1000
0001
0100
0001
,
1000
0010
1000
1001
,
0001
0010
0100
1001
,
1000
0100
0010
1001
,
0010
1001
0010
2002
,
0000
0000
3003
0001
,
0001
0001
0001
0100
,
0100
0100
0100
0010
,
0010
0010
0010
0100
,
0100
0100
0100
0010
,
0010
0010
0010
1000
,
1000
1000
1000
0001
,
0001
0001
0001
1001
,
0010
1001
0100
1002
,
1000
1000
1000
0100
,
0100
0100
0103
0001
,
0100
0010
1000
0001
,
0100
0010
1000
2100
,
0100
0100
0100
0001
,
0001
0001
3001
1000
,
0001
0100
0010
2002
,
0000
0000
3003
1001
,
0000
0000
0000
0010
,
0000
0000
0100
0001
,
0000
0000
0000
1000
,
0000
0000
1000
0100
,
0010
0000
0001
0010
0001
0000
0010
0000
,
0100
0000
1000
0100
1000
0000
0100
0000
,
0010
0000
0001
0010
0001
0000
0010
0000
,
0100
0000
1000
0100
1000
0000
0100
0000
,
0001
0100
1000
0010
,
0001
0010
1000
0010
,
0100
0001
1001
0001
,
1000
0010
1000
0010
,
0100
0001
0001
0100
,
0001
0010
0100
0010
,
0001
1000
1000
0001
,
1000
0100
1000
0010
,
0100
0001
0010
0100
,
0010
0001
1000
1010
,
0010
0011
0000
0010
,
0100
0001
1000
0100
,
1000
0010
0100
0101
,
0001
0100
0010
1000
,
0001
1000
1000
1001
,
0001
0100
0010
1010
,
0010
0100
0001
0101
,
0001
1001
1000
1100
,
0000
0000
0000
1001
;

//---------------dance-single - ----------------
#NOTES:
     dance-single:
     :
     Beginner:
     2:
     0.197852,0.207052,0.189938,0.000000,0.000000,151.000000,24.000000,0.000000,0.000000,0.000000,0.000000,0.197852,0.207052,0.189938,0.000000,0.000000,151.000000,24.000000,0.000000,0.000000,0.000000,0.000000:
// measure 0
1001
0000
0000
0000
,  // measure 1
0100
0000
0000
0000
,  // measure 2
0010
0000
0000
0000
,  // measure 3
0001
0000
1000
0000
,  // measure 4
0010
0000
0100
0000
,  // measure 5
0010
0000
1000
0000
,  // measure 6
0001
0000
1000
0000
,  // measure 7
0100
0000
1000
0001
,  // measure 8
0000
0000
0001
0001
,  // measure 9
0000
0000
1000
1000
,  // measure 10
0000
0000
0010
0010
,  // measure 11
0000
0000
0000
0100
,  // measure 12
0000
0010
0000
1000
,  // measure 13
0000
0001
0000
0100
,  // measure 14
0010
1000
0001
1001
,  // measure 15
0000
0000
0000
0001
,  // measure 16
0000
0000
0000
1000
,  // measure 17
0000
0000
0000
0010
,  // measure 18
0000
0000
0000
0100
,  // measure 19
0000
0010
0000
1001
,  // measure 20
0000
0000
0000
1000
,  // measure 21
0000
0000
0000
0100
,  // measure 22
0000
0000
0000
1000
,  // measure 23
0000
0001
0000
1001
,  // measure 24
0000
0001
0000
0100
,  // measure 25
0000
0001
0000
1000
,  // measure 26
0000
1000
0000
0010
,  // measure 27
0000
0100
0000
1001
,  // measure 28
0000
0000
0000
0110
,  // measure 29
0000
0000
0000
1001
,  // measure 30
0000
0110
0100
1001
,  // measure 31
0000
0000
0000
0001
,  // measure 32
0000
0001
0000
0001
,  // measure 33
0001
0001
0001
1000
,  // measure 34
0000
1000
0000
1000
,  // measure 35
1000
1000
1000
0010
,  // measure 36
0000
0010
0000
0010
,  // measure 37
0010
0010
0010
0100
,  // measure 38
0000
0100
0000
0110
,  // measure 39
0000
1001
0000
0110
,  // measure 40
0000
0100
0000
1000
,  // measure 41
1000
1000
1000
0100
,  // measure 42
0000
0010
0000
0001
,  // measure 43
0001
0001
0001
0010
,  // measure 44
0000
0001
0000
1000
,  // measure 45
1000
1000
1000
0001
,  // measure 46
0001
0001
0001
1001
,  // measure 47
0000
0000
0000
0110
,  // measure 48
0000
0000
0000
0100
,  // measure 49
0000
0000
0010
1000
,  // measure 50
0000
0000
0000
0001
,  // measure 51
0000
1001
1001
0000
,  // measure 52
0000
0000
0110
0000
,  // measure 53
0000
0000
1001
0000
,  // measure 54
0000
0000
0110
0000
,  // measure 55
0000
0000
1000
0000
,  // measure 56
0001
0000
0100
0000
,  // measure 57
0010
0000
0100
0010
,  // measure 58
1000
0001
1001
0000
,  // measure 59
0001
0000
0001
0000
,  // measure 60
0001
0000
0001
0000
,  // measure 61
1000
0000
1000
0000
,  // measure 62
1000
0000
1000
0010
,  // measure 63
0100
0000
0100
0000
,  // measure 64
0100
0000
0100
0000
,  // measure 65
0010
0000
0010
0110
,  // measure 66
0000
1001
0000
1000
,  // measure 67
0000
0001
0000
0100
,  // measure 68
0000
0010
0000
0100
,  // measure 69
0000
0001
0000
1000
,  // measure 70
0000
0001
0001
1000
,  // measure 71
0000
0010
0000
1000
,  // measure 72
0000
0001
0000
0100
,  // measure 73
0000
0010
0000
1001
,  // measure 74
0000
0000
0000
1001
;
