#TITLE:chaplet;
#SUBTITLE:;
#ARTIST:DJ TOTTO;
#TITLETRANSLIT:;
#SUBTITLETRANSLIT:;
#ARTISTTRANSLIT:;
#GENRE:;
#CREDIT:;
#BANNER:chaplet.png;
#BACKGROUND:chaplet-bg.png;
#LYRICSPATH:;
#CDTITLE:cdtitle.png;
#MUSIC:chaplet.ogg;
#OFFSET:-11.286000;
#SAMPLESTART:22.100000;
#SAMPLELENGTH:12.000000;
#SELECTABLE:YES;
#BPMS:0.000000=200.000000
;
#STOPS:
;
#BGCHANGES:;
#KEYSOUNDS:;
#ATTACKS:;

//---------------dance-single - ----------------
#NOTES:
     dance-single:
     :
     Hard:
     10:
     0.692235,0.804585,0.267763,0.293676,1.000000,496.000000,31.000000,34.000000,0.000000,0.000000,0.000000,0.692235,0.804585,0.267763,0.293676,1.000000,496.000000,31.000000,34.000000,0.000000,0.000000,0.000000:
// measure 0
0001
0000
1010
0000
,  // measure 1
1000
0100
0110
0000
,  // measure 2
0100
0000
0011
0000
,  // measure 3
0001
0100
1000
0000
,  // measure 4
0120
0000
0000
0030
,  // measure 5
1002
0000
0000
0003
,  // measure 6
0201
0000
0000
0300
,  // measure 7
1020
0000
0000
0030
,  // measure 8
1001
0000
0000
0000
,  // measure 9
0001
0000
1000
0001
0000
0001
0100
0000
0100
0010
0000
0100
,  // measure 10
0001
0000
1000
0100
0010
0100
1000
0001
0100
0001
0010
0100
,  // measure 11
1000
0010
0100
0010
1000
0010
0100
0010
1000
0010
0100
0010
,  // measure 12
1000
0000
0100
0000
,  // measure 13
0010
0000
0100
1000
0000
1000
0001
1000
0001
0100
0000
0100
,  // measure 14
0010
0100
0001
1000
0010
0100
0001
1000
0100
1000
0001
0100
,  // measure 15
0001
0000
0001
0010
0100
1000
0100
0000
1000
0100
0010
0001
,  // measure 16
0010
0000
0001
1000
0010
0100
0002
0013
2000
3010
0002
0013
,  // measure 17
0001
0000
0001
0010
0000
0010
0100
0000
0100
0010
0000
0010
,  // measure 18
0001
0000
0001
1000
0001
0100
0010
1000
0100
0010
0100
1000
,  // measure 19
0001
0010
0100
0010
0001
0010
0100
0010
0001
0010
0100
1000
,  // measure 20
0100
0000
0010
0000
0011
0000
0001
0000
0100
0000
1010
0000
,  // measure 21
0010
0000
1000
0010
0100
0010
1000
0000
0000
0100
0000
0000
,  // measure 22
0010
0000
0100
0010
0001
0010
0001
0000
0000
0010
0000
0000
,  // measure 23
0001
0000
0001
0100
0010
1000
0001
0000
0010
0100
1000
0001
,  // measure 24
0100
0010
1000
0010
0001
0010
1000
0100
0001
0100
0010
0001
,  // measure 25
2000
0000
0000
0000
3100
0010
0002
0000
0000
0000
0013
0100
,  // measure 26
2000
0000
3100
0010
0001
0100
0010
0000
1000
0000
0100
0000
,  // measure 27
2000
0000
0000
0000
3001
0010
0200
0000
0000
0000
0310
0001
,  // measure 28
0020
0000
0130
1000
0100
0010
0001
0000
1000
0000
0001
0000
,  // measure 29
0020
0000
0000
0000
0000
0000
0000
0000
0000
0031
0010
0100
,  // measure 30
1000
0001
0100
0001
0010
0001
1000
0000
0010
0000
0100
0000
,  // measure 31
0002
0000
0000
0000
0000
0000
0000
0000
0000
0003
0000
0100
,  // measure 32
0110
0000
0000
0010
0000
0001
1002
0000
0000
0003
0000
0000
,  // measure 33
1100
0000
0000
0000
1000
0100
2000
0000
0000
0000
3100
0010
,  // measure 34
0002
0000
1003
0100
0010
0100
1000
0000
1000
0000
0001
0000
,  // measure 35
2000
0000
0000
0000
3010
0100
0002
0000
0000
0000
0103
0001
,  // measure 36
0200
0000
0310
0100
1000
0100
0010
0000
1000
0000
0001
0000
,  // measure 37
2000
0000
0000
0000
0000
0000
0000
0000
3000
1000
0100
0010
,  // measure 38
0001
0010
1000
0010
0001
0100
0010
0100
1000
0100
0001
0010
,  // measure 39
0200
0000
0000
0010
0000
0000
0310
0001
1000
1001
0000
0000
,  // measure 40
0020
0000
0000
0000
,  // measure 41
0130
0000
0000
0000
,  // measure 42
0001
0000
0000
0000
,  // measure 43
0010
0000
0000
0000
,  // measure 44
0100
0000
0010
0000
,  // measure 45
0001
0000
0000
0000
,  // measure 46
1000
0000
0000
0000
,  // measure 47
0001
0000
0000
0000
,  // measure 48
0100
0000
0020
0000
,  // measure 49
0230
0000
0000
0300
0101
0000
0001
0000
,  // measure 50
1000
0100
0110
0000
,  // measure 51
1000
0000
0011
0001
,  // measure 52
0100
0010
2010
3000
,  // measure 53
0002
0000
0000
0003
0110
0000
0010
0000
,  // measure 54
1000
0000
0001
0000
1002
0000
0000
0003
,  // measure 55
0021
0000
0001
0000
,  // measure 56
0130
0000
0000
0000
,  // measure 57
1001
0000
0001
0100
0000
0100
0001
0000
0001
1000
0000
1000
,  // measure 58
0001
0000
0001
0010
0100
0010
0001
0100
0010
1000
0100
0010
,  // measure 59
0001
1000
0100
1000
0001
0100
0001
1000
0100
1000
0001
1000
,  // measure 60
0100
0000
0110
0000
,  // measure 61
0011
0000
0010
0100
0000
0100
1000
0001
1000
0100
0000
1000
,  // measure 62
0010
0100
0010
1000
0001
0010
0001
1000
0010
0100
0001
1000
,  // measure 63
0001
0000
0010
0000
,  // measure 64
0100
0000
1000
0000
,  // measure 65
0001
0000
0100
0001
0000
0001
0100
0000
0010
0100
0000
0100
,  // measure 66
0010
0000
1000
0010
1000
0001
0100
0010
1000
0100
0010
0100
,  // measure 67
1000
0001
0010
0001
1000
0001
0010
0001
1000
0001
1000
0001
,  // measure 68
0100
0000
0001
0000
0011
0000
0010
0000
0100
0000
1100
0000
,  // measure 69
1001
0000
0001
1000
0001
0100
0010
0000
0000
0101
0000
0000
,  // measure 70
0001
0000
0010
0100
1000
0001
1000
0000
0000
1100
0000
0000
,  // measure 71
1001
0000
0001
0010
0100
1000
0001
0000
0100
0001
1000
0010
,  // measure 72
0100
0001
0010
0100
1000
0100
0010
0001
1000
0001
0010
0100
,  // measure 73
2000
3000
0002
0003
,  // measure 74
0100
0010
0100
0001
0010
0100
1000
0100
0010
0001
1000
0100
,  // measure 75
0020
0000
0032
0000
,  // measure 76
1003
0010
0100
0001
1000
0001
0010
0001
1000
0100
0010
0001
,  // measure 77
1000
0100
0001
0100
1000
0000
1000
0010
0001
0010
1000
0000
,  // measure 78
0100
0001
0100
1000
0100
0010
0001
0010
1000
0100
0010
0001
,  // measure 79
1000
0001
0010
0100
0000
0010
0001
0010
0100
0010
0000
0100
,  // measure 80
1000
0010
0100
0001
0010
0100
1000
0001
0100
0001
1000
0001
,  // measure 81
0011
0000
0000
0000
;

//---------------dance-single - ----------------
#NOTES:
     dance-single:
     :
     Medium:
     8:
     0.508380,0.629675,0.423238,0.233213,0.453470,336.000000,49.000000,27.000000,0.000000,0.000000,0.000000,0.508380,0.629675,0.423238,0.233213,0.453470,336.000000,49.000000,27.000000,0.000000,0.000000,0.000000:
// measure 0
0001
0000
0100
0010
,  // measure 1
0100
0001
0100
0000
,  // measure 2
0010
0000
1000
0010
,  // measure 3
1000
0100
1000
0000
,  // measure 4
2001
0000
0000
3000
,  // measure 5
0210
0000
0000
0300
,  // measure 6
0120
0000
0000
0030
,  // measure 7
1002
0000
0000
0003
,  // measure 8
1001
0000
0000
0000
,  // measure 9
0001
0000
0000
0100
0000
0010
1000
0000
0000
0100
0000
0000
,  // measure 10
0010
0000
0000
0100
0000
1000
0010
0000
0000
0100
0000
0000
,  // measure 11
0001
0000
1000
0001
0000
0001
0010
0000
0010
0100
0000
0100
,  // measure 12
1000
0000
0100
0000
,  // measure 13
0010
0000
0000
0100
0000
1000
0010
0000
0000
0100
0000
0001
,  // measure 14
0010
0000
0000
0100
0000
1000
0100
0000
0000
1000
0000
0000
,  // measure 15
1001
0100
1001
0010
,  // measure 16
1001
0000
0000
0100
0000
0000
0010
0100
0001
0010
0100
1000
,  // measure 17
0001
0000
0000
1000
0000
0100
0010
0000
0000
0001
0000
0010
,  // measure 18
0100
0000
0000
1000
0000
0010
0100
0000
0000
0001
0000
0000
,  // measure 19
1000
0000
0100
0010
0000
0100
1000
0000
0010
0100
0000
0001
,  // measure 20
1000
0000
0100
0000
0010
0000
0001
0000
0010
0000
0100
0000
,  // measure 21
1000
0000
0000
1000
0100
0010
0001
0000
0000
0010
0000
0000
,  // measure 22
0100
0000
0000
0010
0001
0100
0010
0000
0000
0100
0000
0000
,  // measure 23
1001
0010
0101
0010
,  // measure 24
0101
1100
0101
1100
,  // measure 25
1001
0000
0000
0000
0001
0100
0002
0000
0000
0000
1003
0001
,  // measure 26
0020
0130
0010
0001
,  // measure 27
0020
0000
0000
0000
0031
0010
0200
0000
0000
0000
0310
0100
,  // measure 28
1000
0000
1000
0100
0000
0100
0010
0000
0001
0000
0010
0000
,  // measure 29
0002
0000
0000
0000
0000
0000
0000
0000
0000
1003
0001
0100
,  // measure 30
0001
0000
0000
0100
0000
0000
0010
0000
0100
0000
0001
0000
,  // measure 31
2000
0000
0000
0000
0000
0000
0000
0000
0000
3000
0000
0100
,  // measure 32
0010
0000
0000
0011
0000
0001
0100
0000
0000
1010
0000
0000
,  // measure 33
1001
0000
0000
0000
1000
0010
2000
0000
0000
0000
3001
1000
,  // measure 34
0200
0000
0000
0310
0000
0000
0100
0000
0010
0000
0001
0000
,  // measure 35
0200
0000
0000
0000
0310
0100
0020
0000
0000
0000
0130
0010
,  // measure 36
1000
0000
0001
0010
0000
0010
0100
0000
1000
0000
0100
0000
,  // measure 37
2000
0000
0000
0000
0000
0000
0000
0000
0000
3001
1000
0100
,  // measure 38
1000
0001
1000
0001
1000
0001
0100
0010
0100
0010
0100
0010
,  // measure 39
2000
0000
0000
0000
,  // measure 40
3001
0000
0010
0000
,  // measure 41
1100
0000
0000
0000
,  // measure 42
0100
0000
0000
0000
,  // measure 43
1000
0000
0000
0000
,  // measure 44
0001
0000
0100
0000
,  // measure 45
0001
0000
0000
0000
,  // measure 46
0010
0000
0000
0000
,  // measure 47
0100
0000
0000
0000
,  // measure 48
0010
0000
0002
0000
,  // measure 49
1003
0000
0100
0010
,  // measure 50
0100
1000
1100
0000
,  // measure 51
1010
0000
0010
1000
,  // measure 52
0001
0010
0011
0000
,  // measure 53
1001
0000
0001
0100
,  // measure 54
0010
1000
1010
0000
,  // measure 55
0202
0000
0000
0000
,  // measure 56
0303
0000
0000
0000
,  // measure 57
1001
0001
1000
1000
,  // measure 58
0001
0100
1000
0100
,  // measure 59
0010
0010
0010
0010
,  // measure 60
0100
0000
0001
0000
,  // measure 61
1001
1000
0100
0010
,  // measure 62
0100
1000
0010
0100
,  // measure 63
0001
0000
0100
0000
,  // measure 64
0010
0000
1000
0000
,  // measure 65
0001
0000
0000
1000
0000
0100
0010
0000
0000
0001
0000
0010
,  // measure 66
0100
0000
0000
1000
0000
0010
0100
0000
0000
0001
0000
0000
,  // measure 67
1000
0000
0100
0010
0000
0100
1000
0000
0010
0100
0000
0001
,  // measure 68
1000
0000
0100
0000
0010
0000
0001
0000
0010
0000
0100
0000
,  // measure 69
1000
0000
0000
1000
0100
0010
0001
0000
0000
0010
0000
0000
,  // measure 70
0100
0000
0000
0010
0001
0100
0010
0000
0000
0100
0000
0000
,  // measure 71
1001
0010
0101
0010
,  // measure 72
0101
1100
0101
1100
,  // measure 73
2002
3003
0220
0330
,  // measure 74
0101
1010
0011
1100
,  // measure 75
2002
3003
0220
0330
,  // measure 76
0110
1010
0011
1100
,  // measure 77
0001
0100
0001
0100
0001
0000
0100
0010
0100
0010
0100
0000
,  // measure 78
1010
0110
1010
0101
,  // measure 79
0001
0010
0100
1000
0000
0100
1000
0010
0100
0001
0000
0001
,  // measure 80
1000
0100
0010
0001
0010
0100
1000
0100
0010
0001
0010
0100
,  // measure 81
1000
0000
0000
0000
;

//---------------dance-single - ----------------
#NOTES:
     dance-single:
     :
     Easy:
     5:
     0.356606,0.454765,0.362776,0.164113,0.000000,228.000000,42.000000,19.000000,0.000000,0.000000,0.000000,0.356606,0.454765,0.362776,0.164113,0.000000,228.000000,42.000000,19.000000,0.000000,0.000000,0.000000:
// measure 0
0001
0000
1000
0100
,  // measure 1
1000
0001
0100
0000
,  // measure 2
1001
0000
0001
1000
,  // measure 3
0010
1000
0001
0000
,  // measure 4
2000
0000
0000
0000
,  // measure 5
3200
0000
0000
0000
,  // measure 6
2300
0000
0000
0000
,  // measure 7
3020
0000
0000
0000
,  // measure 8
0130
0000
0000
0000
,  // measure 9
0110
0100
0001
1000
,  // measure 10
0100
1000
0001
0100
,  // measure 11
0001
0010
0100
1000
,  // measure 12
0100
0000
1000
0000
,  // measure 13
0100
1000
0010
0010
,  // measure 14
0100
0001
0010
0010
,  // measure 15
1001
0010
1001
0010
,  // measure 16
1001
0101
1001
1100
,  // measure 17
1001
0001
0100
0001
,  // measure 18
0010
0001
0100
0010
,  // measure 19
1000
0100
0010
0001
,  // measure 20
0020
0000
0000
0000
,  // measure 21
0130
1000
0010
0000
,  // measure 22
0100
0001
1000
0000
,  // measure 23
1100
0000
0011
0000
,  // measure 24
0101
1010
0101
1010
,  // measure 25
1002
0000
2003
0000
,  // measure 26
3100
1000
0010
0100
,  // measure 27
0002
0000
0203
0000
,  // measure 28
0310
0100
0001
1000
,  // measure 29
0200
0000
0000
0310
,  // measure 30
0001
0010
1000
0010
,  // measure 31
0200
0000
0000
0000
,  // measure 32
0310
0000
1001
0000
,  // measure 33
0120
0000
0230
0000
,  // measure 34
0301
0100
0001
1000
,  // measure 35
0200
0000
1300
0000
,  // measure 36
0100
0010
0001
1000
,  // measure 37
0020
0000
0000
0130
,  // measure 38
0001
0100
1000
0100
,  // measure 39
0010
0000
0100
0000
,  // measure 40
0001
0000
1000
0000
,  // measure 41
1100
0000
0000
0000
,  // measure 42
0010
0000
0000
0000
,  // measure 43
0001
0000
0000
0000
,  // measure 44
0100
0000
0001
0000
,  // measure 45
1000
0000
0000
0000
,  // measure 46
0100
0000
0000
0000
,  // measure 47
1000
0000
0000
0000
,  // measure 48
0010
0000
0200
0000
,  // measure 49
0310
0000
0100
0001
,  // measure 50
0100
0100
0101
0000
,  // measure 51
1001
0000
0001
1000
,  // measure 52
0100
0100
1100
0000
,  // measure 53
0110
0000
0010
0100
,  // measure 54
0010
0010
0110
0000
,  // measure 55
2002
0000
0000
0000
,  // measure 56
3003
0000
0000
0000
,  // measure 57
0001
0100
0001
0100
,  // measure 58
0010
0100
0010
0100
,  // measure 59
0010
0100
0001
1000
,  // measure 60
0100
0000
1000
0000
,  // measure 61
0100
1000
0010
0010
,  // measure 62
0100
0001
0010
0010
,  // measure 63
0100
0000
0010
0000
,  // measure 64
0001
0000
1000
0000
,  // measure 65
1001
0001
0100
0001
,  // measure 66
0010
0100
0010
0001
,  // measure 67
1000
0100
0010
0001
,  // measure 68
0020
0000
0000
0000
,  // measure 69
0130
0010
0001
0010
,  // measure 70
0001
0010
0100
0010
,  // measure 71
0001
1000
0010
1000
,  // measure 72
0010
0100
0001
0010
,  // measure 73
1001
0000
0110
0000
,  // measure 74
1001
0001
0100
0010
,  // measure 75
1010
0000
0101
0000
,  // measure 76
1010
1000
0010
0100
,  // measure 77
0110
0010
0110
0100
,  // measure 78
0110
0010
1000
0001
,  // measure 79
1001
0001
0101
0100
,  // measure 80
0110
1001
0110
1001
,  // measure 81
0110
0000
0000
0000
;

//---------------dance-single - ----------------
#NOTES:
     dance-single:
     :
     Beginner:
     2:
     0.167815,0.279856,0.241850,0.000000,0.000000,108.000000,28.000000,0.000000,0.000000,0.000000,0.000000,0.167815,0.279856,0.241850,0.000000,0.000000,108.000000,28.000000,0.000000,0.000000,0.000000,0.000000:
// measure 0
0001
0000
0000
0000
,  // measure 1
0000
0000
0000
0000
,  // measure 2
0100
0000
0000
0000
,  // measure 3
0000
0000
0001
0000
,  // measure 4
0010
0000
0000
0000
,  // measure 5
0001
0000
0000
0000
,  // measure 6
1000
0000
0000
0000
,  // measure 7
0010
0000
0000
0000
,  // measure 8
0100
0000
0000
0000
,  // measure 9
1001
0000
0000
0000
,  // measure 10
0001
0000
1000
0000
,  // measure 11
0100
0000
1000
0000
,  // measure 12
0010
0000
0000
0000
,  // measure 13
0100
0000
0000
0000
,  // measure 14
0010
0000
0000
0000
,  // measure 15
1000
0000
0001
0000
,  // measure 16
1000
0000
0001
0001
,  // measure 17
0100
0000
0000
0000
,  // measure 18
0010
0000
0100
0100
,  // measure 19
0001
0000
0000
0000
,  // measure 20
1000
0000
0010
0000
,  // measure 21
0100
0000
0000
0000
,  // measure 22
0001
0000
0000
0000
,  // measure 23
1000
0000
0100
0000
,  // measure 24
1000
0010
0100
0001
,  // measure 25
1001
0000
0001
0000
,  // measure 26
1001
0000
1000
1000
,  // measure 27
1001
0000
0110
0000
,  // measure 28
1001
0000
0001
0001
,  // measure 29
0001
0000
0000
0000
,  // measure 30
0100
0000
0010
0000
,  // measure 31
1000
0000
0000
0000
,  // measure 32
0110
0000
1001
0000
,  // measure 33
0110
0000
0000
0000
,  // measure 34
0010
0000
0000
0000
,  // measure 35
0100
0000
0000
0000
,  // measure 36
1000
0000
0001
0000
,  // measure 37
0100
0000
0000
0000
,  // measure 38
0001
0000
0010
0000
,  // measure 39
0100
0000
0000
0000
,  // measure 40
1000
0000
0000
0000
,  // measure 41
1001
0000
0000
0000
,  // measure 42
0000
0000
0000
0000
,  // measure 43
0000
0000
0000
0000
,  // measure 44
0000
0000
0000
0000
,  // measure 45
0000
0000
0000
0000
,  // measure 46
0000
0000
0000
0000
,  // measure 47
0000
0000
0000
0000
,  // measure 48
0000
0000
0010
0000
,  // measure 49
1000
0000
0100
0000
,  // measure 50
0000
0000
0100
0000
,  // measure 51
0000
0000
0010
0000
,  // measure 52
0000
0000
0110
0000
,  // measure 53
0110
0000
0000
0000
,  // measure 54
0000
0000
1001
0000
,  // measure 55
1001
0000
0000
0000
,  // measure 56
0000
0000
0000
0000
,  // measure 57
0010
0000
0000
0000
,  // measure 58
0100
0000
0000
0000
,  // measure 59
0001
0000
0010
0000
,  // measure 60
0100
0000
0010
0000
,  // measure 61
0001
0000
0000
0000
,  // measure 62
1000
0000
0000
0000
,  // measure 63
0010
0000
0000
0000
,  // measure 64
0000
0000
0000
0000
,  // measure 65
0100
0000
0000
0000
,  // measure 66
0001
0000
1000
1000
,  // measure 67
0001
0000
0000
0000
,  // measure 68
0010
0000
0100
0000
,  // measure 69
1000
0000
0000
0000
,  // measure 70
0100
0000
0000
0000
,  // measure 71
1000
0000
0001
0000
,  // measure 72
0100
0000
0010
0000
,  // measure 73
1001
0000
0110
0000
,  // measure 74
1001
0000
0000
0000
,  // measure 75
0110
0000
1001
0000
,  // measure 76
0110
0000
0000
0000
,  // measure 77
1001
0000
0110
0000
,  // measure 78
1001
0000
0000
0000
,  // measure 79
0110
0000
1001
0000
,  // measure 80
0110
0000
1001
0000
,  // measure 81
0110
0000
0000
0000
;
