#TITLE:SYNC-ANTHEM;
#SUBTITLE:;
#ARTIST:Tatsh Feat.星野奏子;
#TITLETRANSLIT:;
#SUBTITLETRANSLIT:;
#ARTISTTRANSLIT:Tatsh feat. Kanako Hoshino;
#CREDIT:;
#BANNER:SYNC-ANTHEM.png;
#BACKGROUND:SYNC-ANTHEM-bg.png;
#JACKET:SYNC-ANTHEM-jacket.png;
#LYRICSPATH:;
#CDTITLE:;
#MUSIC:SYNC-ANTHEM.mp3;
#OFFSET:-0.865;
#SAMPLESTART:50.140;
#SAMPLELENGTH:12.000;
#SELECTABLE:YES;
#BPMS:0.000=160.000,257.000=166.000;
#STOPS:256.000=0.375
;
#BGCHANGES:;

//---------------dance-single - ----------------
#NOTES:
     dance-single:
     :
     Hard:
     9:
     0.642,1.000,0.267,0.110,0.527:
0000
0000
0000
0000
,
0000
0000
0000
0000
,
0000
0000
0000
0000
,
0000
0000
0000
0000
,
0000
0000
0000
0000
0001
0000
1000
0010
0000
0100
0001
0000
0010
0000
0100
0000
,
1000
0000
0000
0001
0000
0000
0100
0000
0000
0001
0000
0000
0010
0000
0100
1000
,
0100
0000
0000
0010
0000
0000
0100
0000
0000
1000
0000
0000
0001
0000
0100
0000
,
1000
0000
0000
0100
0000
0000
0010
0000
0000
1000
0000
0000
0010
0000
0100
0001
,
0010
0000
0000
0100
0000
0000
1000
0000
0000
0001
0100
0001
0100
0001
0010
0001
,
0010
0000
0000
0100
0000
0000
1000
0000
0000
0001
0000
0000
0100
0000
0010
0100
,
0001
0000
0000
0010
0000
0000
0100
0000
0000
0010
0000
0000
0001
0000
1000
0000
,
0010
0000
0000
0100
0000
0000
1000
0000
0000
0100
0000
0000
0001
0000
0010
0000
,
0100
0000
0000
1000
0000
0000
0001
0000
0000
0100
1000
0100
0010
1000
0001
0010
,
0100
1000
0000
0100
0000
1000
0100
1000
,
0000
0100
0000
0010
0000
0100
0010
0100
,
0000
0010
0000
0001
0000
0010
0001
0010
,
0100
0000
0000
0100
0000
0000
0100
0000
0000
0000
0000
0000
0000
0000
0000
0000
,
0010
0100
0000
0010
0000
0001
0100
1000
,
0000
0100
0000
0010
0000
0100
0010
1000
,
0000
0010
0000
0100
0010
1000
0100
0010
,
0110
0000
0000
1001
0000
0000
1001
0000
0000
0000
0000
0000
0000
0000
0000
0000
,
0101
0000
0001
0100
0011
0000
0001
0100
,
0010
0000
0000
0010
0000
0000
0100
0000
0000
0000
0000
0000
0000
0000
0000
0000
,
0110
0000
0010
1000
0101
0000
0100
0010
,
0100
0000
0000
0010
0000
0000
1000
0000
0000
0000
0001
0000
0010
0000
0100
0000
,
1000
0000
0100
1000
0000
0100
0010
0001
,
1000
0000
0000
0001
0000
0000
0100
0000
0000
0000
0010
0000
1000
0000
0001
0000
,
0100
0000
0010
1000
0000
0100
0010
1000
,
0001
0000
0010
0100
0000
0010
0001
0100
,
0010
0000
0000
1000
0000
0000
0010
0000
0000
0000
0100
0000
0001
0000
1000
0000
,
0010
0000
0000
0100
0000
0000
1000
0000
0000
0000
0100
0000
0001
0000
1000
0000
,
0010
0100
0001
1000
0100
0001
0100
1000
,
0010
0001
0010
0100
0010
0000
0000
1001
,
0000
0110
0100
0100
0010
0000
1000
0010
,
0000
0100
0100
0010
1001
0000
0000
1010
,
0000
0001
0001
0100
0010
0000
1000
0100
,
1000
0100
0000
1000
0000
0010
0000
0100
,
0000
0010
0100
1000
0100
0000
0100
0010
,
0100
0001
0000
1000
0000
0001
1000
0010
,
0000
0000
0100
0000
0010
1000
0001
2000
,
0000
0000
0000
0000
0000
0000
3000
0101
,
0000
0100
0010
1000
0010
0000
1000
0001
,
0100
0100
0000
1010
0000
0000
0000
1000
,
0000
0100
0001
0100
1000
0000
0010
0100
,
0010
0100
0000
0100
0000
0100
0001
0200
,
0000
0000
0300
0000
0000
0001
1000
0020
,
0000
0000
0030
0000
0000
0100
0010
2000
,
0000
3000
0000
0000
,
0000
1001
1100
0101
,
0011
0000
0000
1001
0000
0000
0110
0000
,
1001
0000
0001
0000
0100
0000
0000
0010
0000
0010
0000
0100
0010
0000
1000
0001
,
0100
0000
0001
0000
0000
0010
0000
0000
0100
0000
0000
1000
0000
0000
0001
0000
,
0100
0000
0001
0000
0010
0000
0100
1000
0000
0001
0000
0100
0010
0000
1000
0001
,
0100
0010
1000
0010
1000
0010
1000
0010
1000
0010
1000
0010
1000
0100
0000
0000
,
0010
0000
0001
0000
1000
0000
0001
0100
0000
0010
0000
1000
0100
0000
0010
0001
,
1000
0001
0100
0001
0000
0000
0100
0000
0000
0010
0000
0000
1000
0000
0000
0001
,
1000
0000
0001
0000
0100
0000
0010
1000
0000
0010
0000
0100
0010
0000
1000
0000
,
0100
0000
0000
0000
0011
0000
0000
0000
0010
0100
1000
0010
0100
0001
0010
0100
,
1000
0000
0000
0000
1000
0001
0100
0000
0010
0000
0000
0000
0100
0001
1000
0000
,
0001
1000
0000
1000
0001
0100
0001
0000
0010
0000
0000
0100
1000
0100
0010
0000
,
0011
0000
0000
0000
1100
0000
0000
0000
1002
0000
0000
0000
0103
0010
1000
0010
,
0100
0001
0000
0010
0000
0100
0000
0010
0000
0001
0000
1000
1010
0000
0101
0000
,
0001
1000
0001
1000
0001
1000
0001
1000
0001
1000
0001
1000
1001
0000
0110
0000
,
0100
0000
0000
0010
0000
0000
0000
0000
0000
1000
0000
0000
0001
0000
0100
0000
0001
0000
0100
0000
0000
0000
0000
0000
0010
0000
0000
0000
0000
0000
1000
0000
0000
0001
0000
0000
1000
0000
0001
0000
1000
0000
0001
0000
0000
0000
0000
0000
,
0000
0000
0010
1000
0001
0100
0001
0100
,
0010
1000
0010
0100
0010
1000
0010
0000
,
0101
0000
0100
0010
1000
0001
0010
0100
,
1000
0000
0001
0000
1000
0000
0000
0001
0100
0000
0000
0100
0010
0000
0000
0010
,
1000
0000
0001
0010
0100
0010
0001
1000
,
0100
0010
0001
0010
0100
1000
0010
0100
,
0010
1000
0002
0000
0000
2003
0000
0000
,
3020
0200
0000
0000
0000
0000
0000
0000
,
0330
0000
0000
0000
0101
0000
0000
0100
0000
0000
0002
0000
0000
0000
0013
0000
,
0100
1000
0100
1000
0100
0000
0000
0011
0000
0000
0002
0000
0000
0000
0103
0000
,
0010
1000
0010
1000
0010
0000
0000
0110
0000
0000
0200
0000
0000
0000
0310
0000
,
1000
0001
1000
0001
1000
0100
0010
0000
0010
0001
0100
0000
0010
1000
0001
0000
,
0100
0010
1000
0000
2002
0000
0000
0000
0000
0000
0000
0000
0000
0000
0000
0000
,
3003
0000
0000
0000
0001
0100
0010
1000
0001
0100
0010
1000
0001
0100
0010
1000
,
0001
1000
0010
0100
0001
0010
0100
1000
0100
0010
0001
0010
0100
1000
0100
0010
,
0001
0010
0100
1000
0001
1000
0001
1000
0001
1000
0001
1000
0001
1000
0001
1000
,
0001
1000
0001
1000
1001
0000
0000
0000
0000
0000
0000
0000
0000
0000
0000
0000
;

//---------------dance-single - ----------------
#NOTES:
     dance-single:
     :
     Medium:
     7:
     0.460,0.536,0.173,0.118,0.138:
0000
0000
0000
0000
,
0000
0000
0000
0000
,
0000
0000
0000
0000
,
0000
0000
0000
0000
,
0000
0000
0000
0000
0001
0000
0000
0100
0000
0000
0010
0000
1000
0000
0100
0000
,
0010
0000
0000
0100
0000
0000
1000
0000
0000
0010
0000
0000
0100
0000
0000
0000
,
0010
0000
0000
1000
0000
0000
0001
0000
0000
0010
0000
0000
0100
0000
0010
0000
,
0001
0000
0000
0001
0000
0000
1000
0000
0000
0010
0000
0000
0100
0000
0001
0000
,
1000
0000
0000
0100
0000
0000
1000
0000
0000
0000
0010
0000
0100
0000
0001
0000
,
1000
0000
0000
0100
0000
0000
1000
0000
0000
0010
0000
0000
0100
0000
0001
0000
,
0010
0000
0000
0100
0000
0000
0010
0000
0000
0100
0000
0000
1000
0000
0100
0000
,
1000
0000
0000
0100
0000
0000
1000
0000
0000
0010
0000
0000
0100
0000
0010
0000
,
1000
0000
0000
0001
0000
0000
0010
0000
0000
0000
0100
0000
1000
0000
0100
0000
,
0001
0100
0000
0010
0000
0001
0000
1000
,
0000
0010
0000
0100
0000
0001
0000
1000
,
0000
0100
0000
1000
0000
0010
0000
0100
,
0001
0000
0000
0001
0000
0000
0001
0000
0000
0000
0000
0000
0000
0000
0000
0000
,
1000
0010
0000
0010
0000
0100
0000
0100
,
0000
0001
0000
0001
0000
1000
0000
1000
,
0000
0100
0000
1000
0100
0010
0001
0010
,
0100
0000
0000
0100
0000
0000
0100
0000
0000
0000
0000
0000
0000
0000
0000
0000
,
0110
0000
0010
0001
0011
0000
0001
0100
,
0101
0000
0000
0001
0000
0000
0200
0000
0000
0000
0000
0000
0300
0000
0000
0000
,
0110
0000
0010
1000
1010
0000
1000
0100
,
1100
0000
0000
0100
0000
0000
0020
0000
0000
0000
0130
0000
1000
0000
0001
0000
,
0100
0000
0000
0001
0000
0000
0010
0000
,
0100
0000
0000
1000
0000
0000
0200
0000
0000
0000
0000
0000
0300
0000
1000
0000
,
0010
0000
0000
0200
0000
0000
0000
0000
,
0000
0300
0010
1000
,
0001
0000
0000
0100
0000
0000
0001
0000
0000
0000
0010
0000
0100
0000
1000
0000
,
0100
0000
0000
0100
0000
0000
0100
0000
0000
0000
1000
0000
0100
0000
0000
0000
,
1000
0100
0010
0001
0010
0100
0010
0001
,
0010
0100
1000
0010
0100
0000
0000
0010
,
0000
0100
0001
0000
1000
0000
0100
1000
,
0000
0010
0100
0001
1000
0000
0000
0001
,
0000
1000
0100
0000
1000
0000
0010
0100
,
0010
1000
0000
0001
0000
0010
0000
0001
,
0000
0100
0001
0000
0010
0000
0100
0010
,
0001
1000
0000
0010
0000
1000
0010
0100
,
0000
0000
0010
0000
0100
0001
0000
2002
,
0000
0000
0000
0000
0000
0000
3003
0110
,
0000
0100
0010
0000
1000
0000
0100
0000
,
0010
0100
0000
0010
0000
0000
0000
0001
,
0000
0100
0001
0000
0010
0000
0100
0000
,
0010
0001
0000
1000
0000
0010
0100
0002
,
0000
0000
0003
0000
0000
0010
0100
2000
,
0000
0000
3000
0000
0000
0100
0010
0200
,
0000
0300
0000
0000
,
0000
0010
0001
1000
,
0020
0000
0000
2030
0000
0000
3020
0000
,
0130
0001
1000
0000
0100
0010
0001
0000
,
1000
0000
0001
0000
0000
0100
0000
0000
0001
0000
0000
0010
0000
0000
0000
0000
,
0100
0000
0010
0000
0001
0000
0000
0010
0000
0001
0000
0000
0100
0000
0010
0000
,
1000
0000
0010
0000
0000
0010
0000
0000
0010
0000
0000
0000
0100
0000
0000
0000
,
0010
0000
1000
0000
0100
0000
0000
1000
0000
0010
0000
0000
0100
0000
0010
0000
,
1000
0000
0000
0010
0000
0000
0100
0000
0000
0001
0000
0000
1000
0000
0000
0010
,
0000
0000
0000
0000
,
0100
0000
1001
0000
0001
1000
0001
0010
,
0100
0011
0010
0110
,
0100
1100
1001
0101
,
1000
1001
0102
0100
,
0010
0000
1000
0000
0010
0000
0103
0100
,
0001
0000
1000
0000
0100
0000
0010
0010
,
0100
0000
0010
0000
0001
1000
0010
1000
,
0000
0000
0100
0010
0001
0000
0001
0010
,
0100
0000
0100
0010
0001
1000
0010
0000
,
0101
0000
0001
1000
0010
0000
0100
0010
,
1000
1010
0011
1010
,
0011
0000
0001
0100
1000
0000
1000
0100
,
0010
0000
0010
0001
1000
0000
1000
0010
,
0100
0000
0100
0010
1000
0100
0010
0100
,
1000
0002
0000
0000
0000
0000
0000
0000
,
0000
0000
0003
0000
0100
0000
0000
0001
0000
0000
1000
0000
0000
0000
0100
0000
,
1000
0000
1000
0000
0100
0000
0000
1000
0000
0000
0010
0000
0000
0000
0100
0000
,
0001
0000
0001
0000
0100
0000
0000
0010
0000
0000
1000
0000
0000
0000
0010
0000
,
0100
0100
1000
0100
0001
0010
1000
0010
,
0001
1000
0020
0000
0000
0000
0000
0000
,
0030
0000
0100
0010
1000
0100
0010
0100
,
1000
0001
0100
0001
0010
0100
1000
0100
,
1000
0010
0100
0001
1000
0001
1000
0001
,
1000
0001
0110
0000
0000
0000
0000
0000
;

//---------------dance-single - ----------------
#NOTES:
     dance-single:
     :
     Easy:
     5:
     0.310,0.378,0.110,0.126,0.000:
0000
0000
0000
0000
,
0000
0000
0000
0000
,
0000
0000
0000
0000
,
0000
0000
0000
0000
,
0000
0020
0000
0000
,
0130
0001
0100
0001
,
1000
0100
1000
0100
,
1000
0010
1000
0010
,
0100
0010
0100
0100
,
0001
0100
0001
0100
,
0010
0100
0010
0100
,
0010
1000
0010
1000
,
0010
0100
0001
1000
,
0200
0000
0000
0000
,
0300
0010
0100
1000
,
0001
0100
0001
1000
,
0100
0100
0100
0000
,
2000
0000
0000
0000
,
3000
0100
0010
0100
,
1000
0001
0100
0001
,
0010
0010
0010
0000
,
0100
0000
0010
0000
,
0001
1000
0010
0000
,
0100
0000
0001
0000
,
1000
0100
1000
0000
,
0100
1000
0010
0100
,
0001
1000
0100
1000
,
0010
0100
0001
0010
,
0100
1000
0010
0100
,
0002
0000
0000
2000
0000
0000
0000
0000
,
0000
0000
0000
3003
,
0001
0010
0100
1000
,
0100
0000
0010
0000
0011
0000
0000
0100
,
0000
1000
0100
0000
1000
0000
0010
0000
,
0100
0000
0001
0000
0001
0000
0000
1000
,
0000
0001
0100
0000
0001
0000
0010
0000
,
0100
0000
0000
0010
0000
0010
0000
0100
,
0000
1000
0100
1000
,
0010
0100
0001
1000
,
0100
0000
1000
0000
0010
0100
0000
0002
,
0000
0000
0000
0000
0000
0000
0000
1003
,
0000
0001
0100
0000
0001
0000
0010
0000
,
0100
0010
0001
1000
,
0010
1000
0010
0100
,
0010
1000
0001
0010
,
0100
1100
0000
0000
,
0100
1001
0000
0000
,
0010
1001
0000
0000
,
0000
0001
0100
0001
,
0010
0100
0010
0001
,
1000
1000
0001
0001
,
0100
0001
0010
0100
,
0010
0010
0100
0100
,
0010
0001
1000
0010
,
0100
0100
0001
0001
,
1000
0100
0010
0001
,
2000
0000
0000
0000
,
0000
3000
0001
0100
,
0101
1010
0000
0000
,
0000
0000
0000
0000
,
1100
0011
2002
0000
,
0000
0000
0000
0000
,
3003
0000
0000
0000
0000
0000
0100
0100
,
0000
0000
0000
0000
0010
0010
0010
0000
,
0000
1000
0100
1000
,
0010
0100
0001
1001
,
0000
0001
0100
0001
,
0010
0110
0110
1001
,
1001
0001
1000
0100
,
1000
0010
0100
0010
,
1000
0000
0020
0000
0000
2030
0000
0000
,
0000
0002
0000
0000
0000
0000
0000
0000
,
3003
0001
0100
0001
,
0020
0130
0010
0001
,
2000
3010
0100
0001
,
2000
3100
1000
0100
,
0010
0002
0000
0000
,
0003
0001
0010
0100
,
1000
0100
0010
0001
,
1000
0000
0001
0100
0001
0100
0001
0100
,
0001
0100
0001
0000
0000
0000
0000
0000
;

//---------------dance-single - ----------------
#NOTES:
     dance-single:
     :
     Beginner:
     2:
     0.155,0.284,0.141,0.000,0.000: // measure 1
0000
0000
0000
0000
,  // measure 2
0000
0000
0000
0000
,  // measure 3
0000
0000
0000
0000
,  // measure 4
0000
0000
0000
0000
,  // measure 5
0000
0000
0000
0000
,  // measure 6
0001
0000
0000
0000
,  // measure 7
0100
0000
0000
0000
,  // measure 8
0001
0000
0000
0000
,  // measure 9
1000
0000
0000
0010
,  // measure 10
0010
0000
0000
0000
,  // measure 11
0100
0000
0000
0000
,  // measure 12
0001
0000
0000
0000
,  // measure 13
1000
0000
0001
1000
,  // measure 14
0110
0000
0000
0000
,  // measure 15
0000
0100
0000
0000
,  // measure 16
0010
0000
0000
0000
,  // measure 17
1000
1000
1000
0000
,  // measure 18
1001
0000
0000
0000
,  // measure 19
0000
0001
0000
0000
,  // measure 20
0100
0000
0000
0000
,  // measure 21
0010
0010
0010
0000
,  // measure 22
0100
0000
0001
0000
,  // measure 23
1000
0000
0000
0000
,  // measure 24
0001
0000
1000
0000
,  // measure 25
0010
0000
0000
0000
,  // measure 26
0100
0000
0000
0000
,  // measure 27
0001
0000
0000
0000
,  // measure 28
1000
0000
0000
0000
,  // measure 29
0000
0000
0001
1000
,  // measure 30
0010
0000
0000
0000
,  // measure 31
0000
0000
0000
0000
,  // measure 32
0100
0000
0010
0000
,  // measure 33
1000
0000
1001
0000
,  // measure 34
0001
0000
0000
0000
,  // measure 35
0100
0000
0001
0000
,  // measure 36
1000
0000
0000
0000
,  // measure 37
0010
0010
0010
0000
,  // measure 38
0100
0000
0000
0000
,  // measure 39
0010
0000
0000
0000
,  // measure 40
1000
0000
0001
0000
,  // measure 41
0010
0000
0000
0000
,  // measure 42
0100
0000
0010
0000
,  // measure 43
0001
0001
0001
0000
,  // measure 44
1000
0000
0010
0000
,  // measure 45
1000
1000
1000
0000
,  // measure 46
0000
0110
0000
0000
,  // measure 47
0000
1001
0000
0000
,  // measure 48
0000
0110
0000
0000
,  // measure 49
0000
0100
0010
0000
,  // measure 50
1000
0000
0000
0000
,  // measure 51
0010
0000
0000
0000
,  // measure 52
0100
0000
0000
0000
,  // measure 53
0001
0000
0000
0000
,  // measure 54
1000
0000
0000
0000
,  // measure 55
0010
0000
0000
0000
,  // measure 56
1000
0000
0000
0000
,  // measure 57
0001
0000
0000
0000
,  // measure 58
0000
0000
0100
0000
,  // measure 59
0110
0110
0000
0000
,  // measure 60
0000
0000
0000
0000
,  // measure 61
1001
1001
0001
0000
,  // measure 62
0000
0000
0000
0000
,  // measure 63
0100
0000
0000
0010
,  // measure 64
0100
0000
0000
0010
,  // measure 65
0000
1000
0000
1000
,  // measure 66
0000
0001
0000
0001
,  // measure 67
0000
0100
0000
0100
,  // measure 68
0000
0010
0010
0100
,  // measure 69
0100
0010
0000
1000
,  // measure 70
0000
0001
0000
1000
,  // measure 71
0000
0010
0000
0100
,  // measure 72
0000
1001
0000
0000
,  // measure 73
0000
1001
0000
0000
,  // measure 74
0000
1001
0000
0000
,  // measure 75
0000
1001
0000
0000
,  // measure 76
0000
1001
0000
0110
,  // measure 77
0000
1001
0000
0000
,  // measure 78
0000
0001
1000
0010
,  // measure 79
0100
0010
1000
0001
,  // measure 80
0100
0010
0010
0010
,  // measure 81
0010
1001
0000
0000
;
