#TITLE:音楽 -Resolve-;
#SUBTITLE:;
#ARTIST:Yu_Asahina;
#TITLETRANSLIT:ONGAKU -Resolve-;
#SUBTITLETRANSLIT:;
#ARTISTTRANSLIT:;
#CREDIT:;
#BANNER:ONGAKU -resolve-.png;
#BACKGROUND:ONGAKU -resolve--bg.png;
#LYRICSPATH:;
#CDTITLE:;
#MUSIC:ONGAKU -resolve-.mp3;
#OFFSET:-1.505;
#SAMPLESTART:22.520;
#SAMPLELENGTH:11.840;
#SELECTABLE:YES;
#BPMS:0.000=120.000,15.000=152.000,27.000=120.000,31.000=135.000,34.000=145.000,35.000=150.000,36.000=155.000,44.000=156.000,46.000=158.000,48.000=160.000,62.000=158.000,64.000=155.000,72.000=157.000,96.000=160.000,104.000=165.000,132.000=150.000,134.000=145.000,135.000=135.000,136.000=155.000,138.000=160.000,140.000=162.000,144.000=164.000,148.000=165.000,154.000=166.000,156.000=167.000,158.000=168.000,159.000=169.000,160.000=170.000,168.000=165.000,180.000=166.000,182.000=167.000,184.000=168.000,186.000=169.000,188.000=170.000,189.000=165.000,190.000=160.000,191.000=155.000,192.000=133.000,196.000=130.000,198.000=135.000,200.000=127.000,201.000=114.000,202.000=165.000,203.000=166.000,204.000=167.000,205.000=165.000,206.000=170.000,254.000=171.000,255.000=172.000,256.000=173.000,257.000=174.000,258.000=175.000,262.000=170.000,264.000=171.000,266.000=172.000,268.000=173.000,270.000=174.000,272.000=175.000,274.000=176.000,276.000=177.000,278.000=178.000,280.000=179.000,282.000=180.000,291.000=181.000,292.000=182.000,293.000=183.000,294.000=184.000,296.000=185.000,298.000=186.000,300.000=187.000,302.000=188.000,304.000=189.000,306.000=190.000,308.000=180.000,309.000=170.000,310.000=220.000,314.000=165.000;
#STOPS:;
#BGCHANGES:;

//---------------dance-single - ----------------
#NOTES:
     dance-single:
     :
     Hard:
     12:
     0.977,1.000,0.701,0.516,1.000:
1010
0010
0100
0101
0000
0000
0011
0010
,
0100
1100
0000
0000
1001
0001
0100
0010
,
0000
0000
0000
0000
0100
0000
0000
0000
0101
0000
0000
0000
0000
0000
0000
0000
0000
0000
0000
0000
0000
1000
0010
0000
0000
0000
0000
0000
0000
0000
0000
0000
,
0000
0000
0000
0000
0000
0000
0000
0000
0000
0000
0000
0000
1000
0010
1000
0001
,
0010
0000
0000
0100
0000
0000
0010
0000
0000
0001
0000
0000
1000
0000
0000
0010
0000
0000
1000
0000
0000
0100
0000
0000
0010
0000
0000
0001
0000
0000
0000
0000
1000
0000
0000
0000
0001
0000
0000
0100
0000
0000
0010
0000
0000
1000
0000
0000
,
0001
0000
0000
0010
0000
0000
0100
0000
0000
1000
0000
0000
0100
0000
0000
0010
0000
0000
0100
0000
0000
1000
0000
0000
0001
0000
0000
0010
0000
0000
0100
0000
0000
1000
0000
0000
0001
0000
0100
0000
0010
0000
1000
0000
0001
0000
0010
0000
,
0100
1000
0100
0010
0001
1000
0001
0100
0010
1000
0100
0010
0001
0010
0100
1000
0001
0100
0000
0000
0000
0000
0000
0000
,
2002
0000
0000
0000
,
0000
0000
0000
0000
0000
0000
0000
3003
0001
0100
0010
1000
0001
0010
0100
1000
,
0001
0000
0100
0001
0010
0100
1000
0000
1000
0001
0010
0100
,
1000
0000
0001
1000
0001
0100
0010
0100
0010
1000
0001
0010
,
0100
0000
1000
0100
0010
0001
1000
0100
0010
0100
0010
0001
,
1000
0000
0000
1000
0010
0000
0000
0100
0010
0000
0000
0100
0001
0000
0000
1000
,
0100
0000
0000
0010
0001
0000
0000
0000
1000
0000
0010
0000
0100
0000
0001
0000
,
1000
0000
0000
0001
1000
0000
0000
1000
0001
0000
0100
0000
1000
0000
0100
0000
,
0001
0000
0000
0100
0001
0000
0000
0001
0010
0000
0000
0010
0100
0000
0000
1000
,
0100
0000
0000
0220
0000
0000
0000
0000
0000
0000
0000
0000
0000
0000
0330
0010
0001
0100
0001
0000
0000
0000
0000
0000
,
1100
0000
0000
0202
0000
0000
0000
0000
0000
0000
0000
0000
0000
0000
0300
0103
0010
0100
0001
0000
0000
0000
0000
0000
,
0011
0000
1000
0010
0200
0000
0310
0000
0110
0000
0100
0001
0200
0000
0310
0000
,
1001
0000
1000
0010
0100
0000
0010
0100
0001
0000
0010
0000
0100
0000
1000
0000
,
0101
0000
2200
0000
0000
3300
0100
0010
0100
0000
2002
0000
0000
0000
3003
0000
,
1100
0000
0202
0000
0303
0000
0010
0100
0010
0000
1001
1000
0001
1000
0001
1000
,
0001
0000
0220
0000
0000
0330
0100
0010
1000
0000
0010
0000
0100
0000
0010
0000
,
0100
0000
0000
0000
0100
0000
0000
0000
0010
0000
0000
0000
1000
0000
0000
0000
1000
0000
0000
0000
0001
0000
0000
0000
0010
0000
0000
0000
0010
0000
0000
0000
0100
0000
0000
0000
1000
0000
0000
0100
0000
0000
0010
0000
0000
0001
0000
0000
,
1000
0001
1000
0000
0001
1000
0001
0000
1000
0001
1000
0000
0001
1000
0001
0000
,
0100
0010
0100
0000
0010
0100
0010
0000
0100
0010
0100
0000
0010
0100
0010
0000
,
1000
0010
0000
0001
0000
0010
0000
0100
0000
0010
0000
1000
0010
0000
0100
0000
,
0001
0010
0000
1000
0000
0010
0000
0001
0000
0010
0000
0100
0010
0000
0001
0000
,
1000
0100
0000
1000
0000
0100
0000
0010
0000
0100
0000
0010
0001
0000
1000
0000
,
0010
1000
0000
0010
0000
0100
0000
0100
0010
1000
0000
0010
0000
0100
0000
0001
,
1001
0000
0201
0000
0310
1000
0010
1000
1010
0000
0102
0000
0013
0001
0010
0001
,
0011
0000
1200
0000
1300
0001
1000
0001
1001
0000
0210
0000
0310
1000
0010
1000
,
1010
0000
0000
0202
0000
0000
0000
0000
0000
0303
0000
0001
0010
0000
0010
0100
0000
0100
1000
0000
1000
0100
0000
0100
,
0010
0000
0000
0000
0000
0000
0010
0000
0000
0010
0000
0000
0001
0000
0000
0000
0000
0000
0001
0000
0000
0100
0000
0000
0001
0000
0000
0000
0100
0000
0000
0000
1000
0000
0000
0000
0100
0000
0000
0000
0001
0000
0000
0000
0100
0000
0000
0000
,
0002
0000
0013
0100
1000
0000
0100
0000
0020
0000
0031
0100
0010
0000
0100
0000
,
0020
0000
1030
0001
0010
0000
0100
0000
2000
0000
3001
1000
0010
0000
0100
0000
,
1001
0000
0100
0001
1000
0100
1000
0001
1000
0000
1000
0100
0010
0100
1000
0001
,
0100
0000
0000
0000
0000
0000
0010
0000
1000
0000
0010
0000
1000
0000
0010
0000
1000
0000
0010
0000
1000
0000
0010
0000
1000
0000
0000
0000
0000
0000
0010
0000
0000
0100
0000
0000
0010
0000
0000
1000
0000
0000
0100
0000
0000
0010
0000
0000
,
0001
0000
0000
0000
0000
0000
0100
0000
2002
0000
0000
0000
0000
3003
0010
0000
,
0101
1100
0011
1010
,
1001
0000
1000
0010
1000
0000
0010
0100
0010
0000
0100
0001
0100
0000
0001
0010
,
0001
0000
0010
0100
0010
0000
0100
1000
0100
0000
1000
0100
0010
0001
1000
0001
,
2000
0000
3010
0100
0001
0000
0011
0000
0210
0000
1300
0010
0100
0000
0110
0000
,
0102
2003
3020
2030
,
3100
0010
1000
0001
0010
0100
0010
0001
,
1000
0001
0100
0010
1000
0000
0100
0010
0100
0001
0010
0100
0010
0000
0100
0010
,
0100
1000
0001
0100
0010
0000
0100
0010
0100
0010
1000
0001
1000
0000
1000
0000
,
0001
0100
0001
1000
0100
0010
0100
1000
0010
0100
0001
0010
,
0100
0000
0000
0000
0000
0000
0000
0000
0000
0000
0000
0000
0000
0000
0000
0000
0000
0000
0000
0000
0000
0000
0000
0000
0000
0000
0000
0000
0000
0000
0000
0000
0000
0000
0000
0000
0001
0000
0000
0000
0000
0000
1000
0000
0000
0000
0000
0000
0002
0000
0000
0000
0000
0000
0000
0000
0000
0000
0000
0000
0000
0000
0000
0000
0000
0000
0000
0000
0000
0000
0000
0000
0000
0000
0000
0000
0000
0000
0000
0000
0000
0000
0000
0000
0000
0000
0000
0000
0000
0000
0000
0000
0000
0000
0000
0000
0000
0000
0000
0000
0000
0000
0000
0000
0000
0000
0000
0000
0000
0000
0000
0000
1000
0000
0000
0000
0000
0000
0000
0000
0000
0000
0000
0000
0000
0000
0000
0000
0000
0000
0000
0000
0000
0000
0000
0000
0100
0000
0000
0000
0000
0000
0000
0000
0000
0000
0000
0000
0000
0000
0000
0000
0000
0000
0000
0000
0000
0000
0000
0000
0010
0000
0000
0000
0000
0000
0000
0000
0000
0000
0000
0000
0000
0000
0000
0000
0000
0000
0000
0000
0003
0000
0000
0000
0000
0000
0000
0000
0000
0000
0000
0000
,
1001
0101
1010
1100
,
1000
0001
0100
0010
1000
0001
0010
0100
1000
0100
0010
0001
0010
0100
0001
1000
,
0001
0010
0100
1000
0100
0010
0001
1000
0001
0000
0000
0001
0010
0000
0000
0010
,
0100
0000
0000
0100
1000
0000
0000
1000
0001
0000
0000
0001
0100
0000
0000
0100
,
0010
0000
0000
0010
1000
0000
0000
1000
0200
0000
0000
0000
0300
0000
0000
0000
,
0110
0000
0000
0000
0000
0000
0100
1000
0010
0000
0000
0000
2002
0000
0000
0000
,
0000
0000
0000
3003
0110
0000
0000
0000
0100
0000
0010
1000
0010
0000
0100
0001
,
0100
0000
0001
0010
0001
0000
0010
0100
0010
0000
0100
1000
0100
0000
0010
0001
,
0010
0000
0001
0100
0001
0000
1000
0000
1010
0000
0210
0000
0002
0000
0303
0000
,
0011
1200
0020
0330
1100
0012
0200
0303
,
0101
0000
1010
0000
2002
0000
3003
0000
0001
1000
0001
1000
0001
0010
0001
0100
,
0001
0100
0001
0010
0001
1000
0100
0010
0100
0000
0000
0000
2002
0000
0000
0000
,
3003
0110
0101
2200
,
3300
1001
1010
0022
,
0033
0000
0000
1001
0000
0000
1000
0100
0010
0001
0010
0100
,
1000
0100
0010
0001
1001
0000
0000
0001
,
0001
0000
0000
1000
0000
0000
0100
0000
0000
0010
0100
1000
,
0001
0000
0000
0000
0100
0000
0000
0000
0101
0000
0000
1010
0000
0000
0010
0100
,
0202
0000
0000
0000
0000
0000
0303
0000
1001
0000
0000
0101
0000
0000
0001
1000
,
2020
0000
0000
0000
0000
0000
3030
0000
0110
0000
0000
0110
0000
0000
0110
0000
,
0102
0000
0000
0000
0013
0000
0100
0000
1100
0000
0000
0110
0000
0000
0011
0000
,
2002
0000
0000
0000
0000
0000
3003
0000
1010
0000
0000
0011
0000
0000
0001
0000
,
0100
0000
0010
1000
0002
0000
0000
0000
0013
0000
0000
0100
0000
0000
1000
0000
,
1001
0000
0000
0001
0000
0000
1000
0000
1001
0000
0000
0001
1000
0000
0010
0000
,
0100
0000
0000
0000
0000
0000
0010
0000
0000
0000
0000
0000
0100
0000
0000
0001
0000
0000
1000
0000
0000
0001
0000
0000
1001
0000
0000
0000
0000
0000
0000
0000
0001
0000
0000
0000
0010
0000
0000
0000
0100
0000
0000
0000
0010
0000
0000
0000
,
0001
1000
0010
1000
0001
1000
0010
0100
0010
0100
0001
1000
,
0001
0010
0100
1000
0010
0100
0010
1000
0001
0010
0100
1000
,
0001
0100
0010
0100
0010
0100
0010
0010
1000
0001
0001
0010
,
1000
1000
0010
0100
0100
0010
0001
0000
0000
0000
0000
0000
,
2020
3030
0000
0000
0000
0000
0000
0000
0202
0000
0000
0000
0000
0000
0000
0000
,
0000
0000
0000
0000
,
0000
0000
0000
0000
,
0000
0303
0000
0000
;

//---------------dance-single - ----------------
#NOTES:
     dance-single:
     :
     Medium:
     9:
     0.697,0.851,0.540,0.685,0.399:
1000
0100
1000
0010
0000
0000
0100
0010
,
1000
0001
0000
0000
1000
0100
1000
0001
,
0000
0000
0001
0000
0100
0000
0000
0000
0000
0000
0000
0010
0000
0000
0000
0000
,
0000
0000
0000
0000
0000
0000
1000
0100
,
0010
0100
1000
0001
0100
0010
2000
3001
,
0010
0100
0010
0001
1000
0010
0100
1000
,
0100
0000
0001
0000
0010
0000
0100
0010
0001
1000
0010
0100
0001
0000
0000
0000
,
2002
0000
0000
0000
,
0000
0000
0000
0000
0000
0000
0000
3003
,
1010
1100
0110
0011
,
0101
0000
1001
0000
0000
0001
0010
0100
,
0110
0000
1100
0000
0100
1000
0001
0100
,
0101
1010
1100
0011
,
1001
0000
1001
0000
0000
0001
1000
0100
,
0110
0000
1100
0000
0000
0100
0010
0001
,
0011
1100
0101
1010
,
0001
0000
2002
0000
0000
0000
0000
0000
0000
3003
0001
0100
0010
0000
0000
0000
,
0010
0000
2020
0000
0000
0000
0000
0000
0000
3030
1000
0001
0010
0000
0000
0000
,
0100
0000
1000
0001
0100
0000
0010
0000
1000
0000
0001
0000
0100
0000
1000
0000
,
0100
0010
0001
0010
1000
0100
0010
0001
,
1000
0000
0020
0000
0000
0000
0130
0001
0020
0000
0200
0000
0000
0000
0330
0000
,
0100
0000
2000
0000
0000
0000
3001
1000
0020
0000
0200
0000
0000
0000
0330
0000
,
0010
0000
2002
0000
0000
0000
0000
0000
0000
3003
0001
1000
0001
0000
0100
0000
,
0001
0010
0100
1000
0001
0010
0100
1000
0100
0010
0100
1000
,
0001
0100
0001
0100
,
0010
0010
1000
1010
,
0100
0001
0000
0100
0000
0001
0000
0100
0000
0001
0000
0100
0001
0000
0010
0000
,
0100
1000
0000
0100
0000
1000
0000
0100
0000
1000
0000
0100
1000
0000
0001
0000
,
0100
0010
0000
1000
0000
0100
0000
0010
0000
0001
0000
0010
0001
0000
0100
0000
,
0010
0000
0000
0000
0100
0000
0010
1000
0001
0000
0000
0000
1000
0000
0000
0000
,
1100
2200
0000
3300
0110
0220
0000
0330
,
0011
0022
0000
0033
0101
0202
0000
0303
,
0101
2020
0000
3030
1000
0100
0010
0001
,
1000
0000
0000
0001
0100
0000
0010
0000
1000
0000
0100
0000
0010
0000
0100
0000
,
2000
0000
0000
3010
0200
0000
0000
0010
,
2300
0000
0000
3001
0020
0000
0000
0130
,
0020
0000
0000
0031
0020
0000
0000
0130
,
1000
0000
0001
0100
0001
0100
0001
0100
0001
0000
0000
0000
0000
0000
0000
0000
,
1001
0000
0000
0010
1001
0000
0000
0100
,
1001
0110
1001
0110
,
0001
0100
0010
1000
0001
0010
0100
0010
,
0001
0100
0010
1000
0100
0010
0100
1000
,
0010
0000
0000
0100
0110
0000
0000
0010
,
0110
0101
1010
0101
,
0001
0010
0100
0010
0001
1000
0010
0100
,
0002
0000
0000
0103
2000
0000
0000
3100
,
0020
0000
0000
1030
0010
0100
0010
0100
,
0001
1000
0010
1000
0001
0010
0001
1000
0010
0100
0001
0010
,
0100
0000
2002
0000
3003
0001
0010
0100
,
1000
0100
0010
0100
,
1000
0000
0001
0000
0100
0000
0001
0000
0010
0000
0100
0000
1000
0000
0000
0100
0000
0000
0010
0000
0000
0001
0000
0000
,
1000
0100
0010
0001
2000
0000
3020
0000
,
0230
0320
2030
3002
,
0023
0230
0020
0330
,
0200
0000
0000
0000
0000
0000
0310
0001
1000
0000
0000
0000
2002
0000
0000
0000
,
3003
0001
2000
3200
,
2300
3020
0230
0302
,
2003
0000
3020
0000
0230
0002
0000
0303
,
0200
0020
0000
0330
2000
0020
0000
3030
,
0200
0002
0000
0303
0001
0010
0100
0010
,
0001
1000
0010
0100
0010
0000
2002
0000
,
0000
3003
0001
0000
0100
0000
2020
0000
,
0000
3030
0010
0000
0100
0000
0022
0000
,
0000
0000
0000
0033
0000
0000
0001
0000
0000
0000
0000
0000
0010
0000
0100
0000
0010
0000
0100
0000
1000
0000
0001
0000
,
1000
0001
0100
0010
1000
0000
0000
0001
,
0001
0000
0000
1000
0000
0000
0100
0000
0000
1000
0100
1000
,
0001
0000
0000
0000
0100
0000
0000
0000
1010
0000
0000
1010
0000
0000
1000
0000
,
2002
0000
0000
0000
0000
0000
3003
0000
0011
0000
0000
0011
0000
0000
0001
0000
,
2002
0000
0000
0000
0000
0000
3003
0000
0101
0000
0000
0101
0000
0000
0001
0000
,
2002
0000
0000
0000
0000
3003
0010
0000
2002
0000
0000
0000
0000
3003
0100
0000
,
2002
0000
0000
0000
0000
0000
0000
3003
0110
0000
0000
1010
0000
0000
0101
0000
,
0021
0000
0000
0000
0230
0000
0000
0000
1300
0000
0000
0100
0000
0000
1000
0000
,
0010
0000
0000
0100
0000
0000
0001
0000
0010
0000
0000
0100
0000
0000
0010
0000
,
0001
0000
0000
0000
0000
0000
0000
0000
0000
1000
0000
0000
0000
0000
0000
0000
0000
0000
0010
0000
0000
0000
0000
0000
1000
0000
0000
0000
0000
0000
0000
0000
0001
0000
0000
0000
0100
0000
0000
0000
0010
0000
0000
0000
1000
0000
0000
0000
,
0001
0100
0010
1000
0001
0100
0001
0010
0100
1000
0001
0010
,
0100
1000
0001
0010
0100
1000
0100
0010
0001
0010
0001
0100
,
0010
1000
0001
0010
0100
0010
0001
1000
0010
1000
0001
0010
,
0100
1000
0100
0010
0001
1000
0010
0000
0000
0000
0000
0000
,
0200
0000
0300
0000
0000
0000
2002
0000
0000
0000
0000
0000
,
0000
0000
0000
0000
,
0000
0000
0000
0000
,
0000
3003
0000
0000
;

//---------------dance-single - ----------------
#NOTES:
     dance-single:
     :
     Easy:
     6:
     0.423,0.570,0.379,0.266,0.000:
1000
0000
0000
0100
0000
0000
1000
0000
,
0000
0001
0000
0000
0100
0000
0000
0001
,
0000
0010
0100
0000
0000
0000
1001
0000
,
0000
0000
0000
0001
,
0100
0010
1000
0001
,
0010
0100
0010
0001
,
1000
0010
0100
0010
,
1001
0000
0000
0000
,
0000
0000
0000
0000
,
0001
0010
0001
1000
,
0010
0000
0010
0000
0000
0100
0001
1000
,
0001
0000
1000
0000
1000
0001
0010
0100
,
1000
0010
0100
0001
,
1000
0000
1000
0000
0000
0100
1000
0010
,
0100
0000
0001
0000
0000
0100
0001
1000
,
0001
0010
0100
0010
,
0001
2000
0000
0000
0000
0000
3000
0000
,
0010
0200
0000
0000
0000
0000
0300
0000
,
0010
0000
1000
0001
0100
0000
0001
1000
,
0100
0010
0001
0010
,
0100
1000
0000
0100
1000
0020
0000
0000
,
0130
0001
0000
1000
0010
0200
0000
0000
,
0310
1000
0000
0000
0000
0010
1000
0001
,
0011
1100
0101
1010
,
2002
0000
0000
0000
,
3000
0000
0003
0000
,
0001
0000
0100
0000
0001
0000
0100
0001
,
0100
0000
0010
0000
1000
0000
0010
1000
,
0010
0000
0100
0000
0010
0000
0100
0010
,
1000
0000
1000
0100
0010
0000
0100
0000
,
1000
0100
0000
0000
0010
0001
0000
0000
,
0001
0100
0000
0000
0100
0010
0000
0000
,
0010
1000
0000
0000
1000
0100
0010
0001
,
0010
0000
0001
0000
0100
0100
0001
0001
,
1000
0000
0000
0100
1000
0000
0000
0100
,
0010
0000
0000
0010
0001
0000
0000
0001
,
1000
0000
0000
0001
0100
0000
0000
0010
,
0100
0000
0000
0010
1000
0000
0000
0000
,
1001
0000
0101
0000
,
1010
0101
1100
0011
,
0010
0100
1000
0010
,
0100
0001
1000
0001
,
1010
0000
0101
0000
,
0011
0110
0011
0110
,
1100
0100
0010
0001
,
2002
3003
0202
0303
,
2020
3030
0110
1001
,
0011
1100
0101
1010
,
1001
0110
0000
0000
,
0100
0001
0010
0100
,
1000
0000
0100
0000
0010
0001
0010
0100
,
1000
0100
0010
0001
1000
0000
0100
0000
,
1000
0010
0100
0001
,
1000
0100
2000
0000
,
3020
0000
0030
0100
0001
0000
1001
0000
,
0000
0001
0100
0001
,
0010
0100
0010
0001
,
1000
0000
0010
0000
0100
0200
0000
0000
,
0310
0020
0000
0000
1030
2000
0000
0000
,
3001
0002
0000
0000
0013
0000
0100
0000
,
1000
0100
1000
0202
,
0000
0303
0001
0000
1000
0000
2020
0000
,
0000
3030
0010
0000
0100
0000
0220
0000
,
0000
0330
0100
0000
0010
0000
1000
0000
,
0100
0000
0010
0000
0001
0000
0000
1000
,
1000
0100
1000
0010
,
0100
0001
1000
0100
,
0120
0000
0000
0030
0010
0000
0001
0000
,
1002
0000
0000
0003
0001
0000
0100
0000
,
2010
0000
0000
3000
0020
0000
0000
0030
,
0200
0000
0000
0300
0001
0000
1000
0000
,
0100
1000
1010
0000
,
0101
0000
0011
1100
,
0011
1100
2002
0000
,
0000
3003
2020
0000
,
0000
3030
1000
0100
,
0010
0000
0001
0000
1000
0100
0010
0001
,
0010
0100
1000
0010
0100
0000
0000
0000
,
0010
0000
1001
0000
;

//---------------dance-single - ----------------
#NOTES:
     dance-single:
     :
     Beginner:
     3:
     0.225,0.316,0.379,0.000,0.000: // measure 1
1000
0000
0000
0010
,  // measure 2
0000
0000
0100
0000
,  // measure 3
0000
0001
0000
1001
,  // measure 4
0000
0000
0000
0110
,  // measure 5
0000
0000
0000
0010
,  // measure 6
0000
0000
0000
1000
,  // measure 7
0000
0000
0000
0000
,  // measure 8
1001
0000
0000
0000
,  // measure 9
0000
0000
0000
0000
,  // measure 10
0010
0000
0100
0000
,  // measure 11
0001
0001
0000
0000
,  // measure 12
1000
0000
0010
0000
,  // measure 13
0100
0000
0010
0000
,  // measure 14
1000
1000
0000
0000
,  // measure 15
0001
0001
0000
0000
,  // measure 16
0100
0000
0010
0000
,  // measure 17
1001
0000
0000
0000
,  // measure 18
0110
0000
0000
0000
,  // measure 19
1001
0000
0001
0000
,  // measure 20
0100
0100
0100
0000
,  // measure 21
0010
0000
1000
0000
,  // measure 22
0010
0000
0100
0000
,  // measure 23
0010
0000
0000
0000
,  // measure 24
1000
1000
0001
0001
,  // measure 25
0110
0000
0000
0000
,  // measure 26
0000
0000
0000
0000
,  // measure 27
1001
0000
0000
0001
,  // measure 28
1001
0000
0000
1000
,  // measure 29
1001
0000
0000
0010
,  // measure 30
0110
0000
1001
0000
,  // measure 31
0110
0000
1001
0000
,  // measure 32
0110
0000
1001
0000
,  // measure 33
0110
0000
1001
0001
,  // measure 34
1000
0000
0100
0000
,  // measure 35
1000
0000
0010
0000
,  // measure 36
0100
0000
0001
0000
,  // measure 37
1000
0000
0001
0000
,  // measure 38
0100
0000
0010
0000
,  // measure 39
0100
0000
0010
0000
,  // measure 40
1000
1000
0001
0001
,  // measure 41
0100
0000
0010
0000
,  // measure 42
1000
0000
0001
0000
,  // measure 43
0100
0000
0001
0000
,  // measure 44
1000
1000
0001
0001
,  // measure 45
0100
0000
0010
0000
,  // measure 46
1001
0000
0110
0000
,  // measure 47
1001
0000
0110
0000
,  // measure 48
1001
0000
0000
0000
,  // measure 49
0000
1001
0000
0000
,  // measure 50
0010
0000
0100
0000
,  // measure 51
0001
0000
1000
0100
,  // measure 52
0010
0001
1001
0000
,  // measure 53
0000
0000
0001
0000
,  // measure 54
0000
0000
1000
0000
,  // measure 55
0000
0000
0010
1001
,  // measure 56
0000
0001
0100
0000
,  // measure 57
0010
0000
0100
0000
,  // measure 58
0001
0000
0110
0000
,  // measure 59
0110
0000
1001
0000
,  // measure 60
1001
0000
1000
0000
,  // measure 61
0001
0000
0100
1001
,  // measure 62
0000
0000
0010
1001
,  // measure 63
0000
0000
1000
0110
,  // measure 64
0000
0001
0110
0000
,  // measure 65
0010
0000
0100
0000
,  // measure 66
0000
0000
0001
0000
,  // measure 67
1000
0000
1001
0000
,  // measure 68
0000
0000
0110
0000
,  // measure 69
0000
0000
0110
0000
,  // measure 70
0000
0000
1001
0000
,  // measure 71
0000
0000
0110
0000
,  // measure 72
0010
0000
1001
0000
,  // measure 73
1001
0000
0110
0110
,  // measure 74
0110
0000
0110
0000
,  // measure 75
0000
0000
1001
0000
,  // measure 76
0000
0000
0001
0001
,  // measure 77
1000
1000
0010
0100
,  // measure 78
0010
1000
0001
0000
,  // measure 79
1000
0000
1001
0000
;
