#TITLE:Moonscape;
#SUBTITLE:;
#ARTIST:syatten;
#TITLETRANSLIT:;
#SUBTITLETRANSLIT:;
#ARTISTTRANSLIT:;
#GENRE:;
#CREDIT:;
#BANNER:moonscape.png;
#BACKGROUND:Moonscape-bg.png;
#LYRICSPATH:;
#CDTITLE:cdtitle.png;
#MUSIC:Moonscape.mp3;
#OFFSET:-6.983000;
#SAMPLESTART:85.239998;
#SAMPLELENGTH:12.000000;
#SELECTABLE:YES;
#BPMS:0.000000=138.000000
,80.000000=69.000000
,113.000000=138.000000
;
#STOPS:80.000000=0.870000
;
#BGCHANGES:;
#KEYSOUNDS:;
#ATTACKS:;

//---------------dance-single - ----------------
#NOTES:
     dance-single:
     :
     Hard:
     7:
     0.382662,0.427461,0.405597,0.016900,0.278848,267.000000,48.000000,2.000000,0.000000,0.000000,0.000000,0.382662,0.427461,0.405597,0.016900,0.278848,267.000000,48.000000,2.000000,0.000000,0.000000,0.000000:
0001
0010
0001
0000
0010
0000
0100
0000
,
1000
0010
1000
0000
0010
0000
0100
0000
,
0001
0100
0001
0000
0100
0000
0010
0000
,
1000
0100
1000
0000
0001
0000
0100
0000
,
0000
0000
0010
0000
0000
1000
0000
0000
0010
0000
0000
0100
0000
0000
0011
0000
,
0000
0000
0010
0000
0000
0100
0000
0000
1000
0000
0000
0001
0000
0000
0011
0000
,
0000
0000
0001
0000
0000
0010
0000
0000
0100
0000
0000
0010
0000
0000
0110
0000
,
0000
0000
1000
0000
0000
0010
0000
0000
0100
0000
0000
0001
0000
0000
1001
0000
,
0000
0000
0001
0000
0000
0010
0000
0000
0001
0000
0000
0100
0000
0000
0011
0000
,
0000
0000
0010
0000
0000
0100
0000
0000
1000
0000
0000
0010
0000
0000
1001
0000
,
0000
0000
0001
0000
0000
0100
0000
0000
0010
0000
0000
0100
0000
0000
1010
0000
,
0000
0000
0100
0000
0000
0001
0000
0000
0010
0000
0000
1000
0000
0000
1010
0000
,
0010
0000
0100
0000
0000
0100
0000
0000
0100
0000
0000
0100
0000
0000
0010
0000
,
0000
0000
0001
0000
0000
0001
0000
0000
0001
0000
0000
0001
0000
0000
1000
0000
,
0000
0000
0010
0000
0000
0010
0000
0000
0010
0000
0000
0010
0000
0000
0100
0000
,
0000
0000
0001
0000
0000
0001
0000
0000
0001
0000
0000
0001
0000
0000
0010
0000
,
0000
0000
0100
0000
0000
0010
0000
0000
0001
0000
0000
0100
0000
0000
1000
0000
,
0000
0000
0100
0000
0000
0010
0000
0000
1000
0000
0000
0010
0000
0000
0001
0000
,
0000
0000
0010
0000
0000
0100
0000
0000
0001
0000
0000
1000
0000
0000
0100
0000
,
0000
0000
1000
0000
0000
0010
0000
0000
0001
0000
0000
0010
0000
0000
0100
0000
,
0000
1001
0000
0001
,
0010
0000
0000
0000
0000
0000
0000
0000
0001
0000
0000
0010
0000
0000
0100
0000
0000
0000
0000
0000
0000
0000
0000
0000
0000
0000
0000
0000
0000
0000
0000
0000
,
0100
0010
1000
0000
0000
0010
0001
0100
,
1000
0000
0100
0000
0010
0000
1000
1000
0000
0000
0000
0000
0000
0000
0000
0000
,
0000
1010
0000
0101
,
1100
0000
0000
0000
0000
0000
0000
0000
1100
0000
0000
0100
0000
0000
0010
0000
0000
0000
0000
0000
0000
0000
0000
0000
0000
0000
0000
0000
0000
0000
0000
0000
,
0100
0010
0001
0000
0000
1000
0010
0001
,
0100
1000
0010
0000
0000
0000
0001
0000
,
1000
0000
0000
0000
0000
0100
0010
0000
0001
0000
0000
0010
0000
0000
0100
0000
,
1000
0000
0100
1000
0000
0100
1000
0000
0001
0000
0000
0100
0000
0000
0001
0000
,
1000
0001
0000
1000
0000
0001
0100
0000
0001
0000
0000
0010
0000
0000
0100
0000
,
1000
0000
0001
0100
0000
0100
0010
0000
1000
0000
0100
0010
0000
0000
0100
0000
,
1000
0000
0010
0100
0000
0010
0100
0000
0010
0000
0000
1000
0000
0000
0010
0000
,
0100
0000
0010
1000
0000
0001
1000
0000
0100
0000
0000
1000
0000
0000
0100
0000
,
0010
0001
0000
1000
0000
0010
0100
0000
0010
0000
0100
0010
0000
0100
0000
0000
,
0001
0100
0000
0010
0000
0100
0010
0000
1000
0000
0100
0010
0100
0000
1000
0000
,
0001
1000
0101
0000
0001
0000
0010
0000
,
0100
0011
0100
1010
,
0010
0000
0000
0000
1001
0000
0000
0101
0000
0000
1001
0000
1000
0000
0000
0000
,
0100
1000
0010
1010
,
0011
0101
0001
1000
,
1100
0110
1100
0101
,
1100
0000
1001
0000
0101
0101
0001
0000
,
0100
0010
1000
0010
,
0100
0010
1001
0000
0001
0000
0100
0000
,
0010
1010
0010
0110
,
0010
0000
0000
0000
1010
0000
0000
1100
0000
0000
1001
0000
0000
0000
0000
0000
,
0000
0000
0000
0101
,
1010
0011
0000
0000
,
0011
0110
1100
0110
,
0011
0110
0001
0100
,
1000
0000
1100
0100
0010
0000
0101
0001
,
0010
2002
0000
0000
,
0000
3003
0000
0000
;

//---------------dance-single - ----------------
#NOTES:
     dance-single:
     :
     Medium:
     5:
     0.325926,0.309057,0.397147,0.000000,0.080274,223.000000,47.000000,0.000000,0.000000,0.000000,0.000000,0.325926,0.309057,0.397147,0.000000,0.080274,223.000000,47.000000,0.000000,0.000000,0.000000,0.000000:
0001
0100
0001
0000
0100
0000
0010
0000
,
1000
0010
1000
0000
0010
0000
0100
0000
,
0001
0100
0001
0000
0100
0000
0010
0000
,
1000
0100
1000
0000
0100
0000
0010
0000
,
0001
0010
0001
0011
,
0100
1000
0100
1100
,
1000
0001
1000
1001
,
0010
0100
0010
0110
,
0100
0001
0010
0110
,
0010
0001
0100
1010
,
1000
0100
0010
0011
,
0001
0100
0010
0101
,
0000
0000
0001
0000
0000
1000
0000
0000
0001
0000
0000
1000
0000
0000
0010
0000
,
0000
0000
1000
0000
0000
0001
0000
0000
1000
0000
0000
0001
0000
0000
0100
0000
,
0000
0000
0001
0000
0000
0100
0000
0000
0001
0000
0000
0100
0000
0000
0010
0000
,
0000
0000
0100
0000
0000
0010
0000
0000
0100
0000
0000
0010
0000
0000
1000
0000
,
0000
0000
0100
0000
0000
0010
0000
0000
0001
0000
0000
0010
0000
0000
0100
0000
,
0000
0000
1000
0000
0000
0100
0000
0000
0010
0000
0000
0001
0000
0000
0010
0000
,
0000
0000
0001
0000
0000
0010
0000
0000
0100
0000
0000
0010
0000
0000
0001
0000
,
0000
0000
1000
0000
0000
0100
0000
0000
0010
0000
0000
0100
0000
0000
1000
0000
,
0000
1001
0000
0001
,
0100
0010
0000
0000
,
0100
0001
1000
0000
0000
0100
1000
0010
,
0100
0000
0001
0000
0010
0000
0100
0100
0000
0000
0000
0000
0000
0000
0000
0000
,
0000
0001
0000
0010
,
0001
0000
0100
0001
0010
0000
0000
0000
,
0100
1000
0010
0000
0000
0001
0010
0100
,
0010
1000
0100
0000
0000
0000
0010
0000
,
0001
0000
1000
0000
1100
0000
0100
1000
,
0100
0000
0010
0000
0110
0000
0010
0001
,
0010
0000
0001
0000
0101
0000
0100
0001
,
0100
0000
0010
0000
0110
0000
0010
0100
,
0010
0000
0100
0000
1001
0000
0001
0100
,
1000
0000
1000
0000
1100
0000
1000
0100
,
0010
0000
0100
0000
0110
0000
0010
0001
,
1000
0000
0100
0000
0011
0000
0001
0100
,
0010
0110
0010
1000
,
0001
0011
0001
0101
,
0001
0000
0000
0000
1001
0000
0000
0001
0000
0000
1000
0000
0100
0000
0000
0000
,
1000
0010
0100
0101
,
1010
0101
0001
1000
,
1100
0110
0011
0110
,
1100
0000
1001
0000
0101
0001
1000
0000
,
0100
1000
0010
0100
,
0001
0011
0001
1000
,
0010
1010
0010
1001
,
0010
0000
0000
0000
1001
0000
0000
0001
0000
0000
0100
0000
0000
0000
0000
0000
,
0000
0000
0000
0101
,
1010
1001
1000
0100
,
0110
1100
0110
0011
,
1100
0011
0000
0000
,
0000
0101
0000
1010
,
0000
1001
0000
0000
;

//---------------dance-single - ----------------
#NOTES:
     dance-single:
     :
     Easy:
     2:
     0.164170,0.220755,0.160549,0.000000,0.000000,117.000000,19.000000,0.000000,0.000000,0.000000,0.000000,0.164170,0.220755,0.160549,0.000000,0.000000,117.000000,19.000000,0.000000,0.000000,0.000000,0.000000:
// measure 0
0001
0000
1000
0000
,  // measure 1
0001
0000
1000
0000
,  // measure 2
0100
0000
1000
0000
,  // measure 3
0100
0000
0010
0000
,  // measure 4
0001
0100
0000
0001
,  // measure 5
0000
1000
0000
0100
,  // measure 6
0000
1000
0000
0001
,  // measure 7
0000
0100
0000
0001
,  // measure 8
0000
0010
0000
0001
,  // measure 9
0000
1000
0000
0100
,  // measure 10
0000
1000
0000
0010
,  // measure 11
0000
0100
0000
0001
,  // measure 12
0010
0000
0000
0000
,  // measure 13
0001
0000
0000
0000
,  // measure 14
0100
0000
0000
0000
,  // measure 15
0010
0000
0000
0000
,  // measure 16
1000
0000
0000
0000
,  // measure 17
0100
0000
0000
0000
,  // measure 18
1000
0000
0000
0000
,  // measure 19
0001
0000
0000
0000
,  // measure 20
0110
1001
0000
0001
,  // measure 21
0100
0001
0000
0000
,  // measure 22
1000
0100
1000
0000
0000
0100
0010
0001
,  // measure 23
1000
0010
0100
0001
0000
0000
0000
0000
,  // measure 24
0000
0100
0000
0001
,  // measure 25
0010
0010
0000
0000
,  // measure 26
0100
1000
0001
0000
0000
0100
0001
0100
,  // measure 27
0010
1000
0100
0000
0000
0000
0010
0000
,  // measure 28
0001
1000
0100
0000
,  // measure 29
1000
0000
0010
0000
,  // measure 30
0100
0000
0001
0000
,  // measure 31
0010
0000
0001
0000
,  // measure 32
0100
0000
0001
0000
,  // measure 33
1000
0000
0100
0000
,  // measure 34
1000
0000
0010
0000
,  // measure 35
0100
0000
0010
1000
,  // measure 36
0001
1001
0000
0001
,  // measure 37
0000
1001
0000
0101
,  // measure 38
0000
0011
0010
0010
,  // measure 39
0000
0000
0000
0110
,  // measure 40
0100
1100
0000
0000
,  // measure 41
1100
0100
0010
0100
,  // measure 42
1000
0000
0001
0000
0100
0001
0000
0000
,  // measure 43
0000
0000
0000
0000
,  // measure 44
0000
0110
0000
0000
,  // measure 45
0000
0101
0000
1010
,  // measure 46
0000
0100
0001
0100
,  // measure 47
0000
0000
0000
1010
,  // measure 48
0101
1010
0000
0000
,  // measure 49
1000
0100
0010
0001
,  // measure 50
0010
0011
0000
0000
,  // measure 51
0000
1100
0000
0101
,  // measure 52
0000
1001
0000
0000
;

//---------------dance-single - ----------------
#NOTES:
     dance-single:
     :
     Beginner:
     1:
     0.089328,0.132453,0.008450,0.000000,0.000000,73.000000,1.000000,0.000000,0.000000,0.000000,0.000000,0.089328,0.132453,0.008450,0.000000,0.000000,73.000000,1.000000,0.000000,0.000000,0.000000,0.000000:
0001
0000
0000
0000
,
1000
0000
0000
0000
,
0001
0000
0000
0000
,
1000
0000
0000
0000
,
0100
0000
0000
0000
,
0010
0000
0000
0000
,
0100
0000
0000
0000
,
0001
0000
0000
0000
,
1000
0000
0000
0000
,
0100
0000
0000
0000
,
1000
0000
0000
0000
,
0001
0000
0000
0000
,
0100
0000
0000
0000
,
0001
0000
0000
0000
,
1000
0000
0000
0000
,
0000
0000
0000
0000
,
0100
0000
0000
0000
,
0000
0000
0000
0000
,
0010
0000
0000
0000
,
0001
0000
0000
0000
,
0000
1000
0000
0010
,
0100
0001
0000
0000
,
1000
1000
0000
0010
,
0100
0001
0000
0000
,
0000
1000
0000
0001
,
0100
0010
0000
0000
,
0100
0100
0000
0010
,
1000
0001
0000
0010
,
0100
1000
0000
0000
,
0000
0001
0000
0000
,
0000
0100
0000
0000
,
0000
0001
0000
0000
,
0000
0001
0000
0000
,
0000
1000
0000
0000
,
0000
0100
0000
0000
,
0000
1000
0000
0000
,
0000
0010
0000
0000
,
0000
0100
0000
0001
,
0000
1000
1000
1000
,
0000
0000
0000
0100
,
0100
0010
0000
0000
,
0001
0001
0000
1000
,
0000
0100
0000
0000
,
0000
0000
0000
0000
,
0000
0010
0000
0000
,
0000
0001
0000
0100
,
0000
0001
0000
0000
,
0000
0000
0000
1000
,
1000
0010
0000
0000
,
0100
0010
0000
1000
,
0000
0001
0000
0000
,
0000
0010
0000
0100
,
0000
1001
0000
0000
;
