#TITLE:Breeze;
#SUBTITLE:;
#ARTIST:Genki Rockets;
#TITLETRANSLIT:;
#SUBTITLETRANSLIT:;
#ARTISTTRANSLIT:;
#CREDIT:;
#BANNER:Breeze.png;
#BACKGROUND:Breeze-background.png;
#JACKET:Breeze-jk.png;
#LYRICSPATH:;
#CDTITLE:;
#MUSIC:Breeze.mp3;
#OFFSET:-1.938;
#SAMPLESTART:92.580;
#SAMPLELENGTH:12.000;
#SELECTABLE:YES;
#BPMS:0.000=125.010,125.000=62.500,141.500=125.010;
#STOPS:93.000=0.960
,169.500=1.680
,200.000=0.480
;
#BGCHANGES:;

//---------------dance-single - ----------------
#NOTES:
     dance-single:
     :
     Hard:
     7:
     0.341,0.420,0.094,0.189,0.094:
0000
0000
0000
0000
,
0000
0000
0000
0000
,
0000
0000
0000
0000
,
0000
0000
0000
0000
,
0010
1000
0010
1000
,
0001
0100
0001
0100
,
0001
1000
0001
1000
,
0010
1000
0010
1000
0010
1000
0010
0000
,
1001
0000
0001
0000
0100
0010
0000
0100
,
0001
1000
0100
0010
0000
0000
0100
0010
,
0001
0010
0001
0000
0100
0000
0010
0000
,
0100
0010
1000
0100
0000
0000
0000
0000
,
0000
0000
1000
0000
0010
1000
0000
0000
,
0010
1000
0001
1000
0000
0001
0000
0100
,
0001
0000
0000
1000
0000
0000
0100
0000
0000
0000
0100
0000
0000
0000
0010
0000
,
0001
0000
0000
1000
0000
0000
0020
0000
0000
0000
0000
0000
0030
0000
0000
0000
,
1002
1000
1000
1003
,
2001
0001
3001
0110
,
0120
0100
0100
0130
,
0001
0000
0000
1000
0000
0000
0100
0000
0000
0000
0000
0000
0000
0000
0000
0000
,
0021
0001
0001
0031
,
1200
0000
1000
0000
1000
0000
1300
0100
,
0010
0000
0010
0100
0000
1000
0000
0010
,
0200
0000
0000
0000
0300
0000
0000
0000
1001
0000
0000
1000
0000
0000
0001
0000
,
0000
0000
0100
0000
0010
0000
0100
0000
1000
0000
0000
0100
0000
0000
0010
0000
,
0000
1000
0010
0100
0010
1000
0000
0001
,
0000
0010
0000
0100
0000
0010
0000
0002
,
0000
0000
0000
0000
0003
0000
0000
0000
0100
0000
0000
0010
0000
0000
1000
0000
,
0000
0000
0010
0000
0001
0000
0100
0000
0010
0000
0000
1000
0000
0000
0100
0000
,
0000
0010
0100
1000
0000
0000
0000
0000
,
0000
0000
0002
0023
,
0230
0000
0000
0000
1300
0020
0000
0000
0000
0000
0000
0000
0000
0000
0100
0000
,
0000
0000
0000
0030
0000
0000
0000
0020
,
0230
0000
0302
0000
0203
0000
0310
0100
0000
0010
0100
0000
0100
0001
0000
0100
,
0001
0000
0001
1000
0000
0100
0010
0001
1000
0000
0010
0100
0000
0010
1000
0000
,
0100
0001
0000
0001
0010
0000
0001
0000
0000
0000
1000
0000
0000
0000
0001
0000
,
0000
1000
0000
0010
0000
0100
0000
0010
,
0000
0100
0000
0001
0000
0010
0000
0001
,
0000
0010
0000
0001
0000
0010
0000
0001
,
0000
0010
0000
0100
1000
0000
0100
0010
,
0000
0010
0001
0000
0001
0100
0000
0010
,
0100
0000
0010
1000
0001
1000
0000
0001
,
0100
0000
0000
0000
0010
0000
1000
0000
0201
0000
0000
0001
0000
0000
0301
0000
,
0000
0000
0001
0000
0010
0000
0100
0000
2000
0000
0000
0100
0000
0000
3100
0000
,
0000
0000
0000
0000
0000
0000
0100
0000
0010
0000
0000
0001
0000
0000
0100
0000
,
0000
0010
0000
1000
0000
0001
0000
0020
,
0000
0000
0000
0000
0030
0000
0100
0000
0020
0000
0000
0001
0000
0000
0031
0000
,
0000
0000
0001
0000
1000
0000
0010
0000
0200
0000
0000
0010
0000
0000
0310
0000
,
0000
0100
0001
2000
0000
0000
0000
3000
,
0000
0000
1001
0110
,
1001
0000
0001
0100
0000
0100
0010
0000
,
0010
1000
0000
1000
0100
0000
0010
0000
,
0001
0000
0010
0001
0000
0001
0100
0000
,
0100
0010
0000
0010
1000
0000
0001
0000
,
0100
0000
0010
0100
0000
0100
0001
0000
,
0001
1000
0000
1000
0100
0000
0010
0100
,
0000
0100
1000
0100
0010
0000
0100
0010
,
0000
0001
0100
1000
0100
0010
1000
0001
,
0020
0000
0130
1000
0010
0100
0001
0010
,
0200
0300
0000
0000
;

//---------------dance-single - ----------------
#NOTES:
     dance-single:
     :
     Medium:
     4:
     0.258,0.326,0.118,0.102,0.000:
0000
0000
0000
0000
,
0000
0000
0000
0000
,
0000
0000
0000
0000
,
0000
0000
0000
0000
,
0001
0100
0001
1000
,
0001
0010
0001
0100
,
0001
1000
0001
1000
,
0020
0000
0000
0030
,
1001
0000
0001
0000
0100
0001
0000
0000
,
0100
0000
0001
1000
0000
0000
0100
0000
,
0010
0100
0010
0000
0001
0000
1000
0000
,
0001
0010
0100
1000
0000
0000
0000
0000
,
0000
0100
1000
0000
,
0010
0100
0010
0100
0000
0010
0000
0100
,
0001
1000
0100
1000
,
0020
0000
0000
0030
,
0200
0000
0000
0300
,
0002
0000
0000
1000
,
2003
0000
0000
3001
,
0200
0000
0000
0300
,
0020
0000
0000
0030
,
2000
0000
0000
3000
,
0010
1000
0100
0010
,
0002
0003
1001
0001
,
0100
0001
0010
0001
,
1000
0100
1000
0010
,
0100
0010
1000
0010
,
0100
0010
1000
1000
,
0001
0010
0100
0100
,
0010
0000
0001
2000
0000
0000
0000
0000
,
3000
0000
0001
0100
,
0010
0000
2000
0000
0000
0000
0000
3000
,
0000
0000
0000
0000
0000
0000
0000
0001
,
0010
0100
1000
0001
0000
0100
0000
0010
,
0000
1000
0000
0010
0000
0100
0000
0001
,
0000
1000
0000
1001
0000
0001
0000
0001
,
0000
0001
0000
1000
0000
1000
0000
1000
,
0000
1000
0000
0010
0000
0010
0000
0010
,
0000
0100
0000
0001
0000
0100
0000
0100
,
0000
0010
0000
1000
0000
0010
0000
0100
,
0000
0001
0000
1000
0000
0100
0000
1000
,
0000
0010
0000
0100
0000
0001
0000
1000
,
0000
0010
0000
1001
1001
0000
0001
0000
,
0100
0001
0011
0010
,
0100
1000
1100
1000
,
0010
0100
0110
0100
,
0010
1000
1001
0001
,
0100
0001
0011
0010
,
0100
1000
1100
0100
,
0010
0001
1000
0001
,
0100
0000
0001
0000
0100
0000
0010
0100
,
0010
0000
1000
0000
0010
0000
0100
0001
,
0010
0000
0100
0000
1000
0000
0100
0010
,
0001
1001
0110
1001
,
0110
0000
0100
0010
1000
0000
0010
0000
,
0100
0000
0010
1000
0100
0000
0010
0000
,
0001
0000
0001
0100
0010
0000
0100
0000
,
0010
0000
1000
0010
1000
0010
2000
0000
,
0000
0000
3001
0100
0001
0100
0002
0000
,
0000
0003
0000
0000
;

//---------------dance-single - ----------------
#NOTES:
     dance-single:
     :
     Easy:
     2:
     0.160,0.210,0.055,0.142,0.000:
0000
0000
0000
0000
,
0000
0000
0000
0000
,
0000
0000
0000
0000
,
0000
0000
0000
0000
,
0001
0000
1000
0000
,
0010
0000
1000
0000
,
0100
0100
0100
0000
,
2002
0000
0000
3003
,
0110
0010
0010
0000
,
0100
0001
0000
0001
,
1000
0000
0100
0000
,
1000
0010
0100
0000
,
0000
0001
0001
0000
,
1000
0000
0000
0010
,
0100
0000
0001
0000
,
1000
1000
0010
0000
,
0200
0000
0000
0300
,
0020
0000
0000
0030
,
2000
0000
0000
3000
,
0001
1000
0010
0000
,
2000
0000
0000
3000
,
0020
0000
0000
0030
,
0200
0000
0000
0300
,
0002
0003
1000
0100
,
1000
0000
0100
0010
,
0100
0000
0010
0001
,
0010
0001
0010
0100
,
0100
0000
0010
0001
,
0100
0000
0010
1000
,
0100
0010
0001
0000
,
0000
0000
1000
0001
,
0100
1001
0000
0000
,
0000
0000
0000
0000
0000
0000
0000
1000
,
0000
0001
0000
0100
0000
0000
0000
0000
,
0000
0000
0000
0001
0000
0000
0000
1000
,
0000
0000
0000
0200
0000
0000
0000
0000
,
0000
0300
0000
2000
0000
0000
0000
3000
,
0000
0010
0000
0020
0000
0000
0000
0000
,
0000
0000
0000
0030
0000
0000
0000
0000
,
0000
0000
0000
0200
0000
0000
0000
0000
,
0000
0300
0000
0002
0000
0000
0000
0000
,
0000
1003
0000
2000
0000
0000
0000
0000
,
0000
0000
0000
3000
1001
0000
0001
0000
,
0001
0000
1001
1000
,
1000
0000
0010
0000
,
0100
0000
0001
0100
,
0001
0000
0110
0010
,
0010
0000
0110
0100
,
0100
0010
2000
0000
,
3000
0000
1000
0100
,
0010
0100
0000
0010
,
0000
0001
0000
1000
,
1000
0001
0000
0100
,
0000
0001
0010
0100
,
1000
0010
0000
0100
,
0000
0010
0000
1000
,
0000
0001
0000
1000
,
0000
0200
0000
0000
,
0300
0020
0000
0000
,
0000
0030
0000
0000
;

//---------------dance-single - ----------------
#NOTES:
     dance-single:
     :
     Beginner:
     1:
     0.081,0.139,0.016,0.000,0.000: // measure 1
0000
0000
0000
0000
,  // measure 2
0000
0000
0000
0000
,  // measure 3
0000
0000
0000
0000
,  // measure 4
0000
0000
0000
0000
,  // measure 5
0001
0000
0000
0000
,  // measure 6
0100
0000
0000
0000
,  // measure 7
0001
0001
0001
0000
,  // measure 8
1000
0000
0000
0000
,  // measure 9
1001
0000
0000
0000
,  // measure 10
0001
0000
0000
0000
,  // measure 11
0100
0000
0100
0000
,  // measure 12
0001
0000
0000
0000
,  // measure 13
0000
1000
0000
0000
,  // measure 14
0100
0000
0000
0000
,  // measure 15
1000
0000
0001
0000
,  // measure 16
0100
0000
0000
0000
,  // measure 17
0010
0000
0000
0000
,  // measure 18
0100
0000
0000
0001
,  // measure 19
1000
0000
0000
0000
,  // measure 20
0100
0000
0000
0000
,  // measure 21
1000
0000
0000
0000
,  // measure 22
0001
0000
0000
0000
,  // measure 23
0100
0000
0010
0000
,  // measure 24
1001
0000
0001
0000
,  // measure 25
0000
0000
1000
0000
,  // measure 26
0000
0000
0010
0000
,  // measure 27
0000
0000
0100
0000
,  // measure 28
0000
0000
0001
0000
,  // measure 29
0000
0000
0100
0000
,  // measure 30
0000
0000
0010
0000
,  // measure 31
0000
0000
1000
0000
,  // measure 32
0001
0000
0000
0000
,  // measure 33
0000
0000
0000
0000
0000
0000
0000
0010
,  // measure 34
0000
0010
0000
0100
0000
0000
0000
0000
,  // measure 35
0000
0000
0000
0000
,  // measure 36
0000
0000
0000
0001
0000
0000
0000
0000
,  // measure 37
0000
0000
0000
1000
0000
0000
0000
0000
,  // measure 38
0000
0100
0000
0100
0000
0000
0000
0000
,  // measure 39
0000
0000
0000
0000
,  // measure 40
0000
0000
0000
0010
0000
0000
0000
0000
,  // measure 41
0000
0000
0000
0100
0000
0000
0000
0000
,  // measure 42
0000
0000
0000
1000
0000
0000
0000
0001
,  // measure 43
0000
0000
0000
0100
0010
0000
0000
0000
,  // measure 44
0000
0000
0010
0000
,  // measure 45
0000
0000
0100
0000
,  // measure 46
0000
0000
0001
0000
,  // measure 47
0001
0000
1000
0000
,  // measure 48
0000
0000
0100
0000
,  // measure 49
0000
0000
1000
0000
,  // measure 50
0000
0000
0010
0010
,  // measure 51
0010
0100
0000
0000
,  // measure 52
0000
0010
0000
0000
,  // measure 53
0000
1000
0000
0000
,  // measure 54
0000
0001
0000
1000
,  // measure 55
0000
0001
0000
0000
,  // measure 56
0000
0100
0000
0000
,  // measure 57
0000
0001
0000
0000
,  // measure 58
0000
1000
0000
0100
,  // measure 59
0000
0010
0000
0001
;
