#TITLE:AM-3P;
#SUBTITLE:(blue trance mix);
#ARTIST:KTz remixed by Tsukasa;
#TITLETRANSLIT:;
#SUBTITLETRANSLIT:;
#ARTISTTRANSLIT:;
#CREDIT:;
#BANNER:AM-3P (Blue Trance mix).png;
#BACKGROUND:AM-3P (Blue Trance mix)-background.png;
#JACKET:AM-3P (Blue Trance mix)-jacket.png;
#LYRICSPATH:;
#CDTITLE:;
#MUSIC:AM-3P (Blue Trance Mix).mp3;
#OFFSET:-0.042;
#SAMPLESTART:54.860;
#SAMPLELENGTH:12.000;
#SELECTABLE:YES;
#BPMS:0.000=140.000,64.000=70.000,96.000=140.000;
#STOPS:;
#BGCHANGES:;

//---------------dance-single - ----------------
#NOTES:
     dance-single:
     :
     Hard:
     8:
     0.403,0.664,0.233,0.134,0.318:
0000
0000
0000
0000
,
0000
0000
0000
0000
,
0000
0000
0000
0000
,
0000
0000
0000
0000
,
2000
0000
0000
3001
,
0200
0000
0000
0020
0000
0000
0330
0000
,
0200
0000
0000
0302
,
2003
0000
0000
0200
0000
0000
0000
3300
,
1000
0000
0000
0001
0000
0000
0100
0000
0000
0001
0100
0000
0010
0000
1000
0000
,
0100
0000
0000
0010
0000
0000
0100
0000
0000
1000
0010
0000
0100
0000
0001
0000
,
1000
0000
0000
1000
0000
0000
0001
0000
0000
0001
0100
0000
0010
0000
1000
0000
,
0010
0100
0000
0010
0100
0000
0010
0100
0000
0010
0100
0000
0000
0000
0000
0000
,
0100
0000
0000
0010
0000
0000
1000
0000
0100
0000
0000
0000
0010
0000
0000
0000
,
0000
0100
1000
0010
,
0101
0100
0001
0011
0010
0100
0110
0100
,
1000
1100
0100
0010
0011
0011
1100
1100
,
2002
0000
3003
0000
,
0020
0000
0000
0000
0000
0000
0000
0030
,
0200
0000
0000
0000
0000
0000
0000
0300
,
0002
0000
0000
0000
0000
0000
0000
0003
,
1000
0000
0000
0000
,
0010
0000
0000
0000
0000
0000
0000
0000
0000
0000
0000
0000
0000
0000
0000
0000
0000
0000
0000
0000
0000
0000
0000
0000
0000
0000
0000
0000
0000
0100
0000
0000
,
0010
0000
0000
0000
0000
0000
0000
0000
0100
0000
0000
0000
0000
0000
0000
0001
,
1000
0000
0000
0000
0000
0000
1000
0000
0010
0000
0000
0000
0000
0000
0100
0000
0001
0000
0000
0000
1000
0000
0100
0000
0010
0001
0000
0001
0010
0000
0100
0000
,
1000
0000
0000
0010
0000
0000
0001
0000
0010
0000
0000
0100
0000
0000
0010
0000
,
1010
0000
0010
1000
0000
0010
1000
0000
0000
0000
0000
0000
0000
0000
0000
0000
,
0110
0000
0000
0100
0000
0000
0001
0000
1000
0000
0000
0100
0000
0000
1000
0000
,
1200
0000
0000
0000
0300
1000
0100
0010
,
0001
0000
0000
0010
0000
0000
0001
0000
0100
0000
0000
0000
0010
0000
0100
0000
,
0001
0000
0001
0100
0000
0100
0010
0000
0000
0000
0000
0000
0000
0000
0000
0000
,
0010
0000
0000
0100
0000
0000
0001
0000
1000
0000
0000
0000
1000
0000
0100
0000
,
0010
0100
0000
0010
0100
0000
0010
0100
0000
0010
0100
0000
0000
0000
0000
0000
,
0110
0000
0000
0100
0000
0000
1000
0000
0010
0000
0000
0100
0000
0000
0001
0000
,
0101
0000
0001
0100
0000
0001
0100
0000
0000
0000
0000
0000
0000
0000
0000
0000
,
0101
0000
0000
0001
0000
0000
0100
0000
0010
0000
0000
1000
0000
0000
0010
0000
,
0110
0000
0000
0000
0000
0001
0010
0100
,
1000
0000
0000
0100
0000
0000
0010
0000
0001
0000
0000
0000
0010
0000
0100
0000
,
1000
0000
0010
0100
0000
0100
0010
0000
0000
0000
0100
0000
0001
0000
1000
0000
,
0010
0000
0000
0100
0000
0000
0001
0000
1000
0000
0000
0000
0001
0000
1000
0000
,
0001
0100
0000
0010
1000
0000
0001
0100
0000
0010
1000
0000
0001
0000
0010
0000
,
0100
1000
1000
0000
0001
0001
0000
0100
,
0000
0000
0010
0000
0010
0000
0000
0100
0000
0001
0000
1000
0000
0001
0000
1000
,
0000
0001
0001
0000
1000
1000
0000
0100
,
0000
0000
1000
0000
1000
0000
0000
0010
0000
0010
0000
0100
0000
0100
0000
0010
,
0000
0010
0100
0000
0001
0010
0000
0100
,
0000
0000
0100
0000
1000
0000
0000
0100
0000
0100
0000
1000
0000
1000
0000
0010
,
0000
0100
0010
0000
0100
1000
0000
0100
,
0010
0000
1000
0100
0000
0000
0010
0100
,
1000
0000
0000
0001
0000
0000
0100
0000
0001
0000
0000
0000
0001
0000
0010
0000
,
0100
0000
0010
0100
0000
0010
0100
0000
0000
0000
0000
0000
0000
0000
0000
0000
,
0110
0000
0000
0100
0000
0000
1000
0000
0010
0000
0000
0000
0100
0000
0010
0000
,
1000
0010
0000
1000
0010
0000
1000
0010
0000
1000
0010
0000
0000
0000
0000
0000
,
0100
0000
0000
0001
0000
0000
1000
0000
0100
0000
0000
0000
1000
0000
0000
0000
,
0000
0000
0000
0000
,
0101
0100
0010
1010
0010
0100
0110
0010
,
0100
0101
0001
0100
0110
0110
1010
1010
,
0202
0000
0000
0000
,
0303
0000
0000
0000
;

//---------------dance-single - ----------------
#NOTES:
     dance-single:
     :
     Medium:
     6:
     0.302,0.460,0.224,0.108,0.170:
0000
0000
0000
0000
,
0000
0000
0000
0000
,
0000
0000
0000
0000
,
0000
0000
0000
0000
,
2000
0000
0000
3001
,
0200
0000
0000
0002
0000
0000
0303
0000
,
0002
0000
0000
0103
,
0200
0000
0000
0020
0000
0000
0330
0000
,
0010
0000
0000
0010
0000
0000
0010
0000
0000
0000
0100
0000
0001
0000
0000
0000
,
0100
0000
0000
0100
0000
0000
0100
0000
0000
0000
0010
0000
1000
0000
0000
0000
,
0100
0000
0000
0100
0000
0000
0100
0000
0000
0000
1000
0000
0100
0000
0000
0000
,
1000
0000
0000
0000
0010
0000
0000
0100
0000
0000
0100
0000
0000
0000
0000
0000
,
0100
0000
0000
0001
0000
0000
0010
0000
0000
0000
0000
0000
0000
0000
0000
0000
,
0000
0000
0000
0000
,
0110
0000
0000
0011
0000
0000
1100
0000
,
0000
0101
0000
0000
0001
0010
0100
1000
,
0200
0000
0000
0000
0000
0300
0000
0000
,
2000
0000
0000
0000
0000
0000
0000
3000
,
0020
0000
0000
0000
0000
0000
0000
0030
,
0200
0000
0000
0000
,
0010
0000
0000
0300
,
0110
0000
0000
0000
,
0101
0000
1010
0000
,
0110
0000
1001
0000
0101
1010
1100
0011
,
0110
0000
0000
0010
0000
0000
0100
0000
1000
0000
0000
0000
0100
0000
1000
0000
,
0100
0000
0000
0100
0000
0000
0100
0000
0000
0000
0000
0000
0000
0000
0000
0000
,
1100
0000
0000
0100
0000
0000
0010
0000
0001
0000
0000
0000
0001
0000
0010
0000
,
0100
0000
0000
0000
0000
0010
0001
1000
,
0001
0000
0000
1000
0000
0000
0010
0000
1000
0000
0000
0000
0010
0000
0100
0000
,
0001
0000
0000
0001
0000
0000
0001
0000
0000
0000
0001
0000
0101
0000
0000
0000
,
0001
0000
0000
0100
0000
0000
0010
0000
1000
0000
0000
0000
0010
0000
0100
0000
,
0001
0000
0000
0000
0100
0000
0000
0010
0000
0000
1000
0000
0000
0000
0000
0000
,
1001
0000
0000
0001
0000
0000
0010
0000
0100
0000
0000
1000
0000
0000
0100
0000
,
1000
0000
0000
1000
0000
0000
1000
0000
0000
0000
0000
0000
0000
0000
0000
0000
,
1100
0000
0000
0100
0000
0000
0100
0000
1000
0000
0000
0010
0000
0000
0100
0000
,
0001
0000
0000
0000
0000
0001
0100
1000
,
0100
0000
0000
0100
0000
0000
0010
0000
1000
0000
0000
0000
0010
0000
0100
0000
,
0001
0000
0000
0100
0000
0000
0010
0000
0000
0000
0000
0000
0000
0000
0000
0000
,
0100
0000
0000
0010
0000
0000
1000
0000
0001
0000
0000
0000
1000
0000
0100
0000
,
1000
0000
0000
0000
0100
0000
0000
0010
0000
0000
0001
0000
0000
0000
0010
0000
,
0001
0000
0010
0000
0000
0100
0000
1000
,
0000
0000
0000
0000
0100
0000
0000
1000
0000
0001
0000
1000
0000
0001
0000
1000
,
0000
0000
0001
0000
0000
0100
0000
0010
,
0000
0000
0000
0000
0100
0000
0000
0001
0000
0100
0000
0001
0000
0100
0000
0001
,
0000
0000
0100
0000
0000
0010
0000
1000
,
0000
0000
0000
0000
0010
0000
0000
0100
0000
0010
0000
0100
0000
0010
0000
0010
,
0000
0100
0010
0000
0100
0010
0000
0100
,
0001
0000
0100
0010
0000
0000
0100
0001
,
1001
0001
0100
0010
,
0100
0001
0010
0100
,
1100
0100
1000
0010
,
0100
0000
0000
0000
0010
0000
0000
1000
0000
0000
0001
0000
0000
0000
0000
0000
,
1000
0000
0000
0100
0000
0000
0010
0000
0001
0000
0000
0000
0010
0000
0000
0000
,
0000
0000
0000
0000
,
0011
0000
0000
1100
0000
0000
0101
0000
,
0000
1010
0000
0000
0010
0010
0100
0100
,
2002
0000
0000
0000
,
3003
0000
0000
0000
;

//---------------dance-single - ----------------
#NOTES:
     dance-single:
     :
     Easy:
     3:
     0.216,0.332,0.143,0.045,0.000:
0000
0000
0000
0000
,
0000
0000
0000
0000
,
0000
0000
0000
0000
,
0000
0000
0000
0000
,
1000
0000
0000
0001
,
0001
0000
0000
0001
0000
0000
0000
0000
,
0100
0000
0000
0010
,
0010
0000
0000
0010
0000
0000
0000
0000
,
0100
0001
0100
0010
,
0100
0001
1000
0100
,
1000
0010
0100
0001
,
2000
0000
0000
3000
,
0001
0100
0001
0010
,
0000
0000
0000
0000
,
0100
0000
0000
0100
0000
0000
0100
0000
,
0000
0100
0000
0000
0010
0001
0010
0001
,
0010
0000
0000
0000
,
0200
0000
0000
0000
0000
0000
0000
0300
,
2000
0000
0000
0000
0000
0000
0000
3000
,
0002
0000
0000
0000
,
0103
0000
0000
0000
,
0010
0000
0000
0000
,
0100
0000
0001
0000
,
1000
0001
0100
0001
,
0011
0010
0100
1000
,
1100
0000
0000
0000
,
1001
0001
0100
0001
,
0011
0000
0000
0010
,
0110
0100
1000
0100
,
1000
1000
1000
0000
,
0100
1000
0010
0001
,
0010
0010
0010
0000
,
1001
0001
0100
0001
,
1001
0000
0000
0000
,
1100
0100
0010
0001
,
0011
0000
0000
0011
,
1001
0001
0100
0001
,
1000
0100
1000
0010
,
0100
0100
0010
0010
,
1000
0001
0010
0100
,
1100
0100
0000
0100
,
0000
1000
0000
0010
,
0000
0100
0000
0001
,
0000
1000
0000
0100
,
0100
1000
0010
0100
,
0001
0010
0001
1000
,
0100
1000
0010
0100
,
0001
0010
0000
0010
,
0100
1000
0100
1000
,
0010
0010
0010
0000
,
0100
0001
1000
0100
,
1000
1000
1000
0000
,
0001
0100
0001
1000
,
0000
0000
0000
0000
,
1100
0000
0000
1100
0000
0000
0101
0000
,
0000
0101
0000
0000
0001
0100
0001
0100
,
0002
0000
0000
0000
,
0003
0000
0000
0000
;

//---------------dance-single - ----------------
#NOTES:
     dance-single:
     :
     Beginner:
     1:
     0.081,0.151,0.036,0.000,0.000: // measure 1
0000
0000
0000
0000
,  // measure 2
0000
0000
0000
0000
,  // measure 3
0000
0000
0000
0000
,  // measure 4
0000
0000
0000
0000
,  // measure 5
0001
0000
0000
0000
,  // measure 6
0000
0000
0000
0000
,  // measure 7
1000
0000
0001
0000
,  // measure 8
0100
0000
0010
0000
,  // measure 9
0100
0000
0000
0000
,  // measure 10
0100
0000
0000
0000
,  // measure 11
0100
0000
0000
0000
,  // measure 12
0001
0000
0000
0000
,  // measure 13
1000
0000
0000
0000
,  // measure 14
0000
0000
0000
0000
,  // measure 15
0010
0000
0000
0100
,  // measure 16
0000
0000
0010
0010
,  // measure 17
1001
0000
0000
0000
,  // measure 18
0010
0000
0000
0000
,  // measure 19
0100
0000
0000
0000
,  // measure 20
0001
0000
0000
0000
,  // measure 21
1001
0000
0000
0000
,  // measure 22
1000
0000
0000
0000
,  // measure 23
0100
0000
1000
0000
,  // measure 24
0001
0000
0100
0000
,  // measure 25
0010
0000
0000
0000
,  // measure 26
1000
0000
0000
0000
,  // measure 27
0100
0000
0000
0000
,  // measure 28
1000
0000
0000
0001
,  // measure 29
0001
0000
0000
0000
,  // measure 30
0000
0000
0000
0000
,  // measure 31
0100
0000
0000
0000
,  // measure 32
0010
0000
0000
0000
,  // measure 33
0110
0000
0000
0000
,  // measure 34
0100
0000
0000
0000
,  // measure 35
0001
0000
0000
0000
,  // measure 36
0100
0000
0000
0010
,  // measure 37
1000
0000
0000
0000
,  // measure 38
0100
0000
0000
0000
,  // measure 39
1000
0000
0000
0000
,  // measure 40
0001
0000
0100
0000
,  // measure 41
0010
0000
0000
0000
,  // measure 42
0100
0000
0000
0000
,  // measure 43
0001
0000
0000
0000
,  // measure 44
1000
0000
0000
0000
,  // measure 45
0100
0000
0000
0000
,  // measure 46
1000
0000
0000
0000
,  // measure 47
0001
0000
0000
0000
,  // measure 48
0100
0000
0000
0000
,  // measure 49
0010
0000
0000
0000
,  // measure 50
0000
0000
0000
0000
,  // measure 51
0100
0000
0000
0000
,  // measure 52
0000
0000
0000
0000
,  // measure 53
0001
0000
1000
0000
,  // measure 54
0000
0000
0000
0000
,  // measure 55
0100
0000
0000
1000
,  // measure 56
0000
0000
0010
0010
,  // measure 57
1001
0000
0000
0000
;
