#TITLE:Jin Go Lo Ba;
#SUBTITLE:;
#ARTIST:Fatboy Slim;
#TITLETRANSLIT:;
#SUBTITLETRANSLIT:;
#ARTISTTRANSLIT:;
#GENRE:;
#CREDIT:;
#MENUCOLOR:#FFFF99;
#NEWMETERSYSTEM:NO;
#BANNER:Jin Go Lo Ba-bn.png;
#BACKGROUND:Jin Go Lo Ba-bg.png;
#LYRICSPATH:;
#CDTITLE:PROJECT VIRIDIAN-cdtitle.png;
#MUSIC:Jin Go Lo Ba.mp3;
#OFFSET:-0.040;
#SAMPLESTART:30.260;
#SAMPLELENGTH:11.980;
#SELECTABLE:YES;
#LISTSORT:;
#BPMS:0.000=127.000;
#STOPS:;
#BGCHANGES:;
#ATTACKS:;

//---------------dance-single - ----------------
#NOTES:
     dance-single:
     :
     Easy:
     4:
     0.287,0.338,0.158,0.260,0.000:
0000
0000
0000
0000
,
0000
0000
0000
0000
,
0000
0000
0000
0000
,
0000
0000
0000
0000
,
1000
0100
0001
0100
,
1000
0100
0001
0000
,
0001
0100
1000
0100
,
0001
0100
1000
0000
,
0020
0100
0100
0130
,
2000
0010
0010
3010
,
0002
1000
1000
1003
,
0200
0001
0001
0301
,
1001
0000
1100
0000
,
1001
0000
0101
0000
,
0011
0000
0110
0000
,
1100
0000
2002
3003
,
1000
0010
0100
0001
,
0010
0100
1000
0010
,
0100
0001
0010
0001
,
1000
0100
1000
0001
,
0200
0001
0301
0000
,
0020
1000
1030
0000
,
0200
1000
1300
0000
,
0020
0001
0031
0000
,
0101
0001
1010
0100
,
1001
0010
0011
0000
,
1100
1000
1010
0100
,
1001
0010
1001
0000
,
0002
0103
2000
3010
,
0200
0310
0020
1030
,
0200
1300
0002
0013
,
2000
3001
0020
0130
,
0020
0100
2030
0001
,
3002
1000
0103
0000
,
2000
0100
3020
1000
,
0230
0001
0310
0000
,
0200
0020
0000
0000
,
0000
0000
0000
0000
,
0000
0000
0000
0000
,
0000
0000
0000
0330
,
0100
0001
0100
1000
,
0100
0001
0100
1000
,
0100
0001
0100
1000
,
0100
0001
0100
1000
,
0001
1000
1001
0000
,
0010
0100
0110
0000
,
1000
0100
1100
0000
,
0001
0100
0202
0303
,
0001
0010
1000
0010
,
0001
0100
0010
0100
,
1000
0100
0001
0100
,
1000
0010
0100
0100
,
0002
1000
0010
0013
,
2000
0001
0100
3100
,
0020
1000
0100
0130
,
1000
0001
0200
0000
,
0310
0000
0000
0001
0001
0000
0000
1000
,
1000
0000
0000
0010
0010
0000
0000
0100
,
0100
0000
0000
0010
0010
0000
0000
1000
,
1000
0000
0000
0001
0001
0000
0000
0000
,
1000
0000
0000
0100
0100
0000
0000
0010
,
0010
0000
0000
0001
0001
0000
0000
1000
,
1000
0000
0000
0001
0001
0000
0000
0100
,
0100
0000
0000
0001
0001
0000
0000
0000
,
0020
0000
0000
0000
,
0000
0000
0000
0000
,
0030
0000
0000
0000
;

//---------------dance-single - Copied from----------------
#NOTES:
     dance-single:
     Copied from:
     Beginner:
     1:
     0.114,0.126,0.000,0.103,0.000:
0000
0000
0000
0000
,
0000
0000
0000
0000
,
0000
0000
0000
0000
,
0000
0000
0000
0000
,
1000
0000
0000
0000
,
0001
0000
0000
0000
,
0010
0000
0000
0000
,
0100
0000
0000
0000
,
2000
0000
3000
0000
,
0002
0000
0003
0000
,
2000
0000
3000
0000
,
0002
0000
0003
0000
,
1000
0000
1000
0000
,
1000
0000
1000
0000
,
0001
0000
0001
0000
,
0001
0000
0001
0000
,
0200
0000
0300
0000
,
0100
0000
0000
0000
,
0020
0000
0030
0000
,
0010
0000
0000
0000
,
2000
0000
3000
0000
,
1000
0000
0000
0000
,
0002
0000
0003
0000
,
0001
0000
0100
0000
,
0010
0000
0010
0000
,
0010
0000
0010
0000
,
0100
0000
0100
0000
,
0100
0000
0100
0000
,
1000
0000
1000
0000
,
1000
0000
1000
0000
,
0001
0000
0001
0000
,
0001
0000
0001
0000
,
0100
0000
0100
0000
,
0100
0000
0100
0000
,
0010
0000
0010
0000
,
0010
0000
0010
0000
,
0200
0000
0000
0000
,
0000
0000
0000
0000
,
0000
0000
0000
0000
,
0300
0000
0000
0000
,
0001
0000
0000
0000
,
0100
0000
0000
0000
,
1000
0000
0000
0000
,
0100
0000
0000
0000
,
0000
0001
0001
0000
,
0000
1000
1000
0000
,
0000
0010
0010
0000
,
0000
0100
0100
0000
,
0002
0000
0003
0000
,
0001
0000
0000
0000
,
0200
0000
0300
0000
,
0100
0000
0000
0000
,
0020
0000
0030
0000
,
0010
0000
0000
0000
,
2000
0000
3000
0000
,
1000
0000
0100
0000
,
0001
0000
0001
0000
,
0001
0000
0001
0000
,
0010
0000
0010
0000
,
0010
0000
0010
0000
,
0100
0000
0100
0000
,
0100
0000
0100
0000
,
1000
0000
1000
0000
,
1000
0000
1000
0000
,
0100
0000
0000
0000
;

//---------------dance-single - Copied from----------------
#NOTES:
     dance-single:
     Copied from:
     Medium:
     5:
     0.319,0.364,0.087,0.166,0.000:
0000
0000
0000
0000
,
0000
0000
0000
0000
,
0000
0000
0000
0000
,
0000
0000
0000
0000
,
1000
0001
0100
0001
,
0010
0000
0100
1000
0010
0000
0000
0000
,
0100
0010
0100
0010
,
1000
0000
0100
0001
0010
0000
0100
0000
,
0001
0010
0000
0010
0000
0010
0000
0010
,
0100
1000
0000
1000
0000
1000
0000
1000
,
0100
0001
0000
0001
0000
0001
0000
0001
,
0100
0010
0000
0010
0000
0010
0000
0010
,
0001
0000
0000
0001
0100
0000
0000
0100
,
0010
0000
0000
0010
1000
0000
0000
1000
,
0100
0000
0000
0100
1000
0000
0000
0001
,
0100
0000
0000
1000
0200
0000
0300
0000
,
1001
0001
0100
0000
1000
0100
0010
0000
,
0100
1000
0001
0100
,
0010
0010
1000
0000
0001
0100
0010
0000
,
1000
0100
0010
0001
,
1000
1000
0100
0000
0001
0100
1000
0000
,
0100
0010
0100
0001
,
0010
0010
0001
0000
1000
0010
1000
0000
,
0100
1000
0020
0030
,
1001
0000
0001
0100
0001
0000
1000
0100
,
1000
0000
0010
0100
0010
0000
1000
0000
,
0001
0000
0010
0001
0010
0000
1000
0010
,
1000
0000
0001
0100
0010
0000
0100
0000
,
0101
0000
0001
1000
0100
0000
1000
0010
,
0100
0000
0010
1000
0001
0000
0010
0000
,
1001
0000
0100
1000
0100
0000
0010
0001
,
0010
0000
0100
0010
0100
0000
0001
0000
,
2000
0000
0000
3001
0020
0000
0000
0130
,
0200
0000
0000
0310
0001
0000
0000
0010
,
0002
0000
0000
0013
0200
0000
0000
1300
,
0020
0000
0000
0130
0010
0000
0000
0000
,
2000
0200
0000
0000
0000
0000
0000
0000
,
0000
0000
0000
0000
,
0000
0000
0000
0000
,
0000
0000
0000
3300
,
1000
0100
1000
0010
,
0100
0001
0010
0001
,
1000
0010
0100
0001
,
1000
0100
1000
0010
,
1000
0001
0101
0000
,
0001
1000
1100
0000
,
0010
1000
0101
0010
,
0100
1000
2002
3003
,
1001
1000
0010
0000
0100
0001
0100
0000
,
0010
1000
0001
0100
,
0001
0001
0100
0000
0010
1000
0100
0000
,
1000
0010
1000
0001
,
0100
0100
0010
0000
0001
0010
0100
0000
,
1000
0001
0010
0100
,
1000
1000
0001
0000
0100
0010
0100
0000
,
0001
0100
0020
0030
,
2100
0000
0000
3010
0200
0000
0000
0301
,
0020
0000
0000
0031
1000
0000
0000
1000
,
0002
0000
0000
0013
0200
0000
0000
1300
,
0002
0000
0000
0103
0010
0000
0000
0000
,
1000
0000
0000
1000
0100
0000
0000
0001
,
0100
0000
0000
0010
0100
0000
0000
0010
,
1000
0000
0000
0100
0010
0000
0000
0001
,
1000
0000
0000
0010
0100
0000
0000
0000
,
0022
0000
0000
0000
,
0000
0000
0000
0000
,
0033
0000
0000
0000
;

//---------------dance-single - Copied from----------------
#NOTES:
     dance-single:
     Copied from:
     Hard:
     7:
     0.392,0.443,0.103,0.110,0.162:
0000
0000
0000
0000
,
0000
0000
0000
0000
,
0000
0000
0000
0000
,
0000
0000
0000
0000
,
0010
0000
0000
1000
0000
0000
0010
0000
0100
0000
0000
0000
0001
0000
0000
0000
,
0010
0000
0000
0100
0000
0000
0010
0000
0001
0000
0000
0000
0000
0000
0000
0000
,
1000
0000
0000
0100
0000
0000
1000
0000
0010
0000
0000
0000
0100
0000
0000
0000
,
0001
0000
0000
0010
0000
0000
0100
0000
1000
0000
0000
0000
0000
0000
0000
0000
,
0010
0100
0000
0100
0000
0001
0000
0001
,
1000
0010
0000
0010
0000
0100
0000
0100
,
1000
0001
0000
0001
0000
1000
0000
1000
,
0010
0001
0000
0001
0000
0010
0000
0010
,
1000
0000
0000
0001
0000
0000
0100
0000
0010
0000
0000
0010
0000
0000
1000
0000
,
0100
0000
0000
1000
0000
0000
0001
0000
0100
0000
0000
0000
0000
0000
0010
0000
,
0100
0000
0000
0001
0000
0000
0100
0000
0010
0000
0000
1000
0000
0000
1000
0000
,
0001
0000
0000
1000
0000
0000
0100
0000
0010
0000
0000
0000
0000
0000
0000
0000
,
1001
0001
0100
1000
0100
0010
1000
0000
,
0001
0000
1000
0000
0100
0010
0100
0000
,
1000
0100
0001
0100
1000
0010
0100
0000
,
0001
0000
0100
0000
0010
1000
0001
0000
,
0010
0001
0010
0010
0100
1000
0001
0000
,
0100
0000
0010
0000
1000
0100
1000
0000
,
0100
1000
0010
0100
0001
1000
0001
0000
,
1000
0000
0001
0000
0020
0000
0031
0001
,
1001
0000
0100
0001
0101
0000
0100
1000
,
1100
0000
1000
0010
0110
0000
0001
0000
,
0101
0000
0010
1000
1100
0000
0100
0001
,
0110
0000
0001
1000
0101
0000
1000
0100
,
2000
0000
3001
0100
0020
0000
0130
0001
,
0020
0000
0130
1000
0020
0000
0130
0001
,
0200
0000
0310
1000
0002
0000
0103
0001
,
0020
0000
0130
1000
0200
0000
1300
0001
,
0100
0000
0000
0100
0000
0000
0010
0000
0100
0000
0000
0100
0000
0000
0001
0000
,
0100
0000
0000
0100
0000
0000
0010
0000
1000
0000
0000
0000
0000
0000
1000
0000
,
0010
0000
0000
0010
0000
0000
0100
0000
0010
0000
0000
0010
0000
0000
1000
0000
,
0010
0000
0000
0010
0000
0000
0100
0000
0001
0000
0000
0000
0000
0000
0000
0000
,
2000
0002
0000
0000
0000
0000
0000
0000
,
0000
0000
0000
0000
,
0000
0000
0000
0000
,
0000
0000
0000
3003
,
0010
0000
0000
0010
0000
0000
0100
0000
0001
0000
0000
1000
0000
0000
0100
0000
,
0010
0000
0000
0100
0000
0000
1000
0000
0001
0000
0000
0100
0000
0000
0010
0000
,
0100
0000
0000
0001
0000
0000
0010
0000
0100
0000
0000
1000
0000
0000
0010
0000
,
1000
0000
0000
0001
0000
0000
0100
0000
1000
0000
0000
0100
0000
0000
0001
0000
,
0010
0100
0000
0000
1000
0000
0100
0000
0010
0000
0000
0000
0000
0000
0000
0000
,
0001
0100
0000
0000
0001
0000
1000
0000
0010
0000
0000
0000
0000
0000
0000
0000
,
1000
0100
0000
0000
1000
0000
0010
0000
0100
0001
0000
0000
0010
0000
0001
0000
,
1000
0001
0000
0000
0010
0000
0010
0000
0100
0000
0000
0000
0000
0000
0000
0000
,
1100
0100
0001
0100
1000
0010
0100
0001
,
0010
0000
0100
0000
1000
0001
0100
0000
,
0010
1000
0010
0100
0001
0010
0100
0010
,
0001
0000
1000
0000
0010
1000
0100
0000
,
0010
0100
1000
0100
0010
0001
1000
0001
,
0100
0000
0010
0000
0010
1000
0001
0000
,
0010
0100
0010
0001
1000
0001
0010
0001
,
1000
0000
0100
0000
2002
0000
3003
0010
,
0100
0000
0000
0100
0000
0000
0010
0000
1000
0000
0000
1000
0000
0000
0001
0000
,
0010
0000
0000
0010
0000
0000
0100
0000
1000
0000
0000
0000
0110
0000
0100
0000
,
0001
0000
0000
0001
0000
0000
0100
0000
0010
0000
0000
0010
0000
0000
0100
0000
,
1000
0000
0000
1000
0000
0000
0100
0000
0010
0000
0000
0000
1001
0000
0000
0000
,
1000
0000
0000
0100
0000
0000
0010
0000
0001
0000
0000
0010
0000
0000
0100
0000
,
1000
0000
0000
0100
0000
0000
0010
0000
0001
0000
0000
0000
0000
0000
0001
0000
,
0001
0000
0000
0010
0000
0000
0100
0000
1000
0000
0000
0100
0000
0000
0010
0000
,
0001
0000
0000
0010
0000
0000
0100
0000
1000
0000
0000
0000
0000
0000
1000
0000
,
0200
0000
0000
0000
,
0000
0000
0000
0000
,
0300
0000
0000
0000
;

//---------------dance-single - Copied from ----------------
#NOTES:
     dance-single:
     Copied from:
     Challenge:
     9:
     0.513,0.547,0.087,0.032,0.367: // measure 1
0000
0000
0000
0000
,  // measure 2
0000
0000
0000
0000
,  // measure 3
0000
0000
0000
0000
,  // measure 4
0000
0000
0000
0000
,  // measure 5
1000
0000
0001
0100
0000
0000
0001
0000
0010
0000
0100
0000
1000
0000
0010
0000
,  // measure 6
0100
0000
0010
0100
0000
0000
0010
0000
1001
0000
0000
0000
0100
0000
0000
0000
,  // measure 7
1000
0000
0100
1000
0000
0000
0010
0000
0100
0000
0001
0000
1000
0000
0001
0000
,  // measure 8
0100
0000
0001
0010
0000
0000
0100
0000
1000
0000
0000
0000
1001
0000
0000
0000
,  // measure 9
0010
0100
0001
0100
1000
0100
0001
0010
,  // measure 10
0100
1000
0100
0010
0100
1000
0010
0100
,  // measure 11
0001
0010
0100
1000
0001
0100
1000
0100
,  // measure 12
0010
1000
0100
0010
0001
1000
0100
1000
,  // measure 13
1001
0000
0000
0001
0000
0000
0100
0000
0110
0000
0000
0010
0000
0000
1000
0000
,  // measure 14
1100
0000
0000
0001
0000
0000
1000
0000
1001
0000
0000
0000
0000
0000
0010
0000
,  // measure 15
1010
0000
0000
0100
0000
0000
0001
0000
0011
0000
0000
0100
0000
0000
1000
0000
,  // measure 16
0101
0000
0000
0000
0000
0000
0000
0000
0000
1000
0000
0000
0000
0000
0000
0000
0000
0000
0010
0000
0000
0000
0000
0000
1000
0000
0000
0000
0100
0000
0000
0000
1000
0000
0000
0000
0100
0000
0000
0000
1000
0000
0000
0000
0100
0000
0000
0000
,  // measure 17
1000
0000
0100
0010
0001
0000
0100
0000
0010
0000
1000
0000
0001
0000
0010
0000
,  // measure 18
0100
0000
1000
0100
1000
0000
0010
0000
0100
0000
0001
0000
1000
0000
0010
0000
,  // measure 19
0001
0000
0010
1000
0100
0000
0010
0000
0001
0000
1000
0000
0100
0000
1000
0000
,  // measure 20
0001
0000
0010
0001
0100
0000
0010
0000
0100
0000
0001
0000
0010
0000
1000
0000
,  // measure 21
0010
0000
0001
1000
0001
0000
0100
0000
0001
0000
1000
0000
0010
0000
0100
0000
,  // measure 22
0010
0000
1000
0100
0010
0000
0100
0000
1000
0000
0001
0000
0100
0000
0010
0000
,  // measure 23
1000
0000
0100
0010
0001
0000
1000
0000
0010
0000
1000
0000
0100
0000
0001
0000
,  // measure 24
0100
0000
0000
0000
0000
0000
1000
0000
0000
0001
0000
0000
0010
0000
0000
0000
0000
0000
0001
0000
0000
0000
0000
0000
1000
0000
0000
0000
0100
0000
0000
0000
1000
0000
0000
0000
0001
0000
0000
0000
0100
0000
0000
0000
0001
0000
0000
0000
,  // measure 25
0010
0000
0000
0001
0100
0000
0010
0000
1000
0000
0000
1000
0100
0000
0010
0000
,  // measure 26
0100
0000
0000
1000
0010
0000
0100
0000
0001
0000
0000
0010
0001
0000
0100
0000
,  // measure 27
0010
0000
0000
1000
0010
0000
0001
0000
0010
0000
0000
0100
0010
0000
1000
0000
,  // measure 28
0001
0000
0000
0001
0100
0000
0010
0000
1000
0000
0001
1000
0001
0000
0100
0000
,  // measure 29
0010
0000
0000
1000
0010
0000
0100
0000
0010
0000
0000
0100
0001
0000
0010
0000
,  // measure 30
0001
0000
0000
0010
0100
0000
0010
0000
0001
0000
0000
1000
0100
0000
1000
0000
,  // measure 31
0100
0000
0000
0010
0001
0000
1000
0000
0010
0000
0000
1000
0010
0000
0100
0000
,  // measure 32
1000
0000
0000
0100
0001
0000
0010
0000
0100
0000
0000
1000
0010
0000
1000
0000
,  // measure 33
0001
0000
0000
0001
0000
0000
0100
0000
0010
0000
0000
0010
0000
0000
1000
0000
,  // measure 34
0100
0000
0000
0100
0000
0000
0100
0000
0010
0000
0000
0000
0000
0000
0001
0000
,  // measure 35
0100
0000
0000
0010
0000
0000
0100
0000
0001
0000
0000
1000
0000
0000
0100
0000
,  // measure 36
1000
0000
0000
0010
0000
0000
0100
0000
0010
0000
0000
0000
0000
0000
0000
0000
,  // measure 37
0002
2000
0000
0000
0000
0000
0000
0000
,  // measure 38
0000
0000
0000
0000
,  // measure 39
0000
0000
0000
0000
,  // measure 40
0000
0000
0000
3003
,  // measure 41
0010
0100
0000
0010
0100
0000
0010
0000
1000
0100
0000
1000
0100
0000
1000
0000
,  // measure 42
0001
0100
0000
0001
0100
0000
0001
0000
1000
0010
0000
1000
0010
0000
1000
0000
,  // measure 43
0001
1000
0000
0001
1000
0000
0001
0000
0010
0001
0000
0010
0001
0000
0010
0000
,  // measure 44
0100
1000
0000
0100
1000
0000
0100
0000
0010
0100
0000
0010
0100
0000
0010
0000
,  // measure 45
0100
1000
0000
0000
0001
0000
0100
0000
0010
0000
0000
0000
0100
0000
0000
0000
,  // measure 46
0100
0001
0000
0000
1000
0000
0001
0000
0100
0000
0000
0000
0000
0000
0000
0000
,  // measure 47
0010
0100
0000
0000
0010
0000
1000
0000
0001
0100
0000
0000
0010
0000
0100
0000
,  // measure 48
0001
0000
0000
0010
0000
0000
0000
0000
0000
0000
0000
0000
0100
0000
0000
0000
0000
0000
1000
0000
0000
0000
0000
0000
0001
0000
0000
0000
0010
0000
0000
0000
0001
0000
0000
0000
0010
0000
0000
0000
0001
0000
0000
0000
0010
0000
0000
0000
,  // measure 49
0001
0000
1000
0100
0010
0000
0100
0000
0001
0000
0100
0000
1000
0000
0010
0000
,  // measure 50
0100
0001
1000
0100
0010
0100
1000
0010
,  // measure 51
0100
0000
0001
0100
0001
0000
1000
0000
0010
0000
0100
0000
0001
0000
1000
0000
,  // measure 52
0100
0001
0010
1000
0001
0100
0010
1000
,  // measure 53
0010
0000
0100
0001
0100
0000
0010
0000
1000
0000
0001
0000
0010
0000
0001
0000
,  // measure 54
0100
0010
1000
0100
1000
0010
0100
0001
,  // measure 55
1000
0000
0100
0010
0100
0000
0010
0000
0100
0000
1000
0000
0001
0000
0010
0000
,  // measure 56
0001
0000
0000
0100
0000
0000
0001
0000
0000
1000
0000
0000
0001
0000
0010
0000
0100
0000
1000
0000
0100
0000
0010
0000
,  // measure 57
0001
0000
0000
1000
0100
0000
1000
0000
0010
0000
0000
0100
0010
0000
0100
0000
,  // measure 58
0001
0000
0000
0010
0001
0000
0100
0000
0010
0000
0000
0000
1001
0000
0010
0000
,  // measure 59
0100
0000
0000
1000
0100
0000
1000
0000
0010
0000
0000
0100
0010
0000
0100
0000
,  // measure 60
0001
0000
0000
0010
0001
0000
1000
0000
0100
0000
0000
0000
1001
0000
0000
0000
,  // measure 61
0010
0000
0000
0100
0000
0000
0010
0000
1000
0000
0000
0100
0000
0000
1000
0000
,  // measure 62
0001
0000
0000
0100
0000
0000
0001
0000
0010
0000
0000
0000
0100
0000
0010
0000
,  // measure 63
0100
0000
0000
1000
0000
0000
0100
0000
0001
0000
0000
0100
0000
0000
1000
0000
,  // measure 64
0001
0000
0000
0100
0000
0000
0001
0000
1000
0000
0000
0000
0000
0000
2000
0000
,  // measure 65
0020
0000
0000
0000
,  // measure 66
0000
0000
0000
0000
,  // measure 67
3030
0000
0000
0000
;
