#TITLE:Dies Irae;
#SUBTITLE:;
#ARTIST:DM ASHURA;
#TITLETRANSLIT:;
#SUBTITLETRANSLIT:;
#ARTISTTRANSLIT:;
#GENRE:;
#CREDIT:;
#MENUCOLOR:#CC6666;
#NEWMETERSYSTEM:NO;
#BANNER:Dies Irae-bn.png;
#BACKGROUND:Dies Irae-bg.png;
#LYRICSPATH:;
#CDTITLE:;
#MUSIC:Dies Irae.mp3;
#OFFSET:-0.040;
#SAMPLESTART:21.960;
#SAMPLELENGTH:12.500;
#SELECTABLE:YES;
#LISTSORT:;
#BPMS:0.000=175.000;
#STOPS:;
#BGCHANGES:;
#ATTACKS:;

//---------------dance-single - ----------------
#NOTES:
     dance-single:
     :
     Easy:
     4:
     0.296,0.353,0.152,0.212,0.000:
0000
0000
0000
0000
,
0000
0000
0000
0000
,
0000
0000
0000
0000
,
0000
0000
0000
0000
,
0010
0000
1000
0000
,
0001
0100
0001
0100
,
0002
0003
1000
0000
,
1000
0100
0010
0000
,
0010
0001
0100
0000
,
0100
0010
1000
0010
,
2000
3000
0001
0000
,
0100
0001
1000
0000
,
0100
1000
0001
0000
,
1000
0010
1000
0010
,
0200
0300
0002
0003
,
1000
0001
1000
0001
,
0101
0000
1000
0000
,
0010
0100
0000
0000
,
0001
0000
1000
0000
,
0100
1000
0000
0010
,
0100
0010
0000
1000
,
0001
1000
0000
0001
,
0010
0001
0100
0010
,
1000
0100
2000
0000
,
0000
0001
3001
0000
,
0020
0000
0130
0010
,
1000
0000
0001
0000
,
0220
0000
0330
0000
,
2000
0000
3001
0001
,
0010
0000
0001
0000
,
2002
0000
3003
0000
,
1010
0000
0101
0000
,
1001
0000
1001
0000
,
0010
0100
0020
0000
,
1030
0000
0001
0000
,
0100
0000
0010
0000
,
1000
0100
0010
0001
,
2000
0001
3002
0003
,
1000
0001
0100
0000
,
0020
0100
0230
0300
,
0001
0100
0001
0000
,
1000
0100
0010
0000
,
0100
0010
0001
0000
,
0100
0001
1000
0000
,
0001
0100
0000
0000
,
0010
0010
0010
0010
,
2001
0000
0000
0000
,
0010
0000
0000
0000
,
0020
0000
3030
0000
,
1002
0000
0000
0000
,
0100
0000
0000
0000
,
0200
0000
0303
0000
,
0110
0000
1001
0000
,
0110
0000
1001
0000
,
1000
0001
1000
0001
,
0100
0100
0020
0000
,
1000
0000
1000
0000
,
0130
0000
1001
0000
,
0100
0010
1001
0000
,
0001
1000
0200
0000
,
0010
0000
1000
0000
,
1300
0000
1001
0000
,
0100
0010
1001
0000
,
0001
1000
0002
0000
,
1000
0000
1000
0000
,
0013
0000
2000
0000
,
0001
0000
0001
0000
,
3010
0000
0000
0010
,
0100
0010
0100
0010
,
0100
0010
0000
1000
,
0001
1000
0001
1000
,
0001
2000
0000
0000
,
3010
0000
0100
0000
,
0001
0000
1000
0000
,
0001
0010
0100
0000
,
1000
0001
1000
0000
,
0010
0000
1000
0000
,
0100
0000
0010
0000
,
0001
0010
1000
0000
,
1000
0010
0001
0000
,
1000
0000
0001
0000
,
0100
0000
0010
0000
,
1000
0100
0010
0001
,
1000
1001
0000
0000
;

//---------------dance-single - Copied from----------------
#NOTES:
     dance-single:
     Copied from:
     Beginner:
     1:
     0.114,0.212,0.051,0.144,0.000:
0000
0000
0000
0000
,
0000
0000
0000
0000
,
0000
0000
0000
0000
,
0000
0000
0000
0000
,
0001
0000
0001
0000
,
0000
0000
0000
0000
,
0000
0000
1000
0000
,
0000
0000
0001
0000
,
0000
0000
0100
0000
,
0000
0000
0000
0000
,
0000
0000
0010
0000
,
0000
0000
1000
0000
,
0000
0000
0001
0000
,
0000
0000
0000
0000
,
0100
0000
0100
0000
,
0200
0000
0300
0000
,
1001
0000
0000
0000
,
0010
0000
0000
0000
,
0100
0000
0000
0000
,
0001
0000
0000
0000
,
2000
0000
3000
0000
,
0002
0000
0003
0000
,
0200
0000
0000
0000
,
0000
0000
0300
0000
,
0000
0000
0000
0000
,
0010
0000
0000
0000
,
1000
0000
0000
0000
,
0100
0000
0000
0000
,
0010
0000
0000
0000
,
0001
0000
0000
0000
,
0100
0000
0000
0000
,
0002
0000
0003
0000
,
2000
0000
3000
0000
,
0010
0010
0010
0000
,
0010
0000
0000
0000
,
0000
0000
0000
0000
,
0000
0000
0000
0000
,
0001
0000
0000
0000
,
1000
0000
0000
0000
,
0010
0000
0000
0000
,
1000
0000
0000
0000
,
0002
0000
0003
0000
,
2000
0000
3000
0000
,
0010
0000
0000
0000
,
0100
0100
0000
0000
,
0000
0000
0000
0000
,
0002
0000
0000
0000
,
0000
0000
0000
0000
,
0000
0000
0003
0000
,
2000
0000
0000
0000
,
0000
0000
0000
0000
,
0000
0000
3000
0000
,
0010
0000
0000
0000
,
0100
0000
0000
0000
,
0010
0000
0010
0000
,
1000
0000
0200
0000
,
0000
0000
0000
0000
,
0300
0000
1001
0000
,
0000
0000
1001
0000
,
0000
0000
0020
0000
,
0000
0000
0000
0000
,
0030
0000
1001
0000
,
0000
0000
1001
0000
,
0000
0000
0200
0000
,
0000
0000
0000
0000
,
0300
0000
2002
0000
,
0000
0000
0000
0000
,
0000
0000
3003
0000
,
0010
0000
0010
0000
,
0010
0000
0000
0000
,
0100
0000
0100
0000
,
0100
0000
0000
0000
,
0001
0000
0000
0000
,
0001
0000
0000
0000
,
0100
0000
0000
0000
,
0200
0000
0000
0000
,
0300
0000
0000
0000
,
0010
0000
0000
0000
,
1000
0000
0000
0000
,
2000
0000
0000
0000
,
3000
0000
0000
0000
,
0001
0000
0000
0000
,
1000
0000
0000
0000
,
0010
0010
0000
0000
;

//---------------dance-single - Copied from----------------
#NOTES:
     dance-single:
     Copied from:
     Medium:
     7:
     0.501,0.599,0.390,0.263,0.000:
0000
0000
0000
0000
,
0000
0000
0000
0000
,
0000
0000
0000
0000
,
0000
0000
0000
0000
,
2000
0000
0001
0000
,
0010
0001
0010
0001
,
0010
3001
1001
0000
,
0010
0100
1001
0000
,
0100
0010
0002
0000
,
0100
1000
0100
1000
,
0100
1003
1001
0000
,
0010
0100
1001
0000
,
0100
0010
2000
0000
,
0001
0100
0001
3100
,
1001
0000
0110
0000
,
1001
0110
1001
0110
,
0002
0103
2000
3100
,
0001
0000
1000
0000
0001
0010
1000
0000
,
0002
0103
2000
3100
,
1000
0000
0001
0000
1000
0010
0001
0000
,
1000
0000
0001
0000
1000
0001
1000
0000
,
0001
0000
1000
0000
0010
0100
0010
0000
,
2000
3200
0302
0203
,
1300
0001
0100
0001
,
1000
0010
1000
0010
0100
0001
0010
0100
,
1000
0001
0100
0010
,
0100
0001
0010
0100
,
1000
0000
0010
0100
0001
0100
0010
0000
,
1100
0010
0100
0001
,
0010
0001
0100
0001
,
1000
0000
0100
1000
0010
0100
0001
1000
,
0100
1100
0010
0101
,
0010
1001
0001
1010
,
0001
0100
1000
0000
0100
0001
1000
0000
,
0010
1000
0001
0100
0010
1000
0100
0000
,
0010
0001
0100
0000
0001
0000
1000
0000
,
0010
1000
0001
0100
0001
0010
0100
0000
,
2020
3030
0202
0303
,
1001
0000
0110
0000
1000
0010
0001
0000
,
0022
0033
2200
3300
,
0001
0000
1000
0000
0001
0100
1000
0000
,
0100
0000
0100
0000
0001
1000
0001
0000
,
0010
0000
0010
0000
0001
1000
0001
0000
,
1100
0110
0011
1000
,
0001
0100
1000
0100
0001
0000
1000
0000
,
0010
0100
0010
0100
0001
0100
1000
0100
,
0020
0000
1000
1000
,
0100
1000
0130
0000
,
1000
0100
0001
0000
,
0200
0000
0001
0001
,
0010
0001
0301
0000
,
1000
0100
0001
0000
,
1001
0000
0110
0000
,
0011
0000
1100
0000
,
0001
0000
0100
0000
0001
1000
0100
0010
,
0001
1000
0020
0000
,
0100
1000
0100
1000
,
0001
1030
1001
0000
,
0100
0010
1001
0000
,
0100
0010
0200
0000
,
0010
0001
0010
0001
,
1000
0301
1001
0000
,
0100
0010
1001
0000
,
0100
0010
2000
0000
,
0001
0001
0010
0010
,
0001
3100
1002
0000
,
1000
0100
1000
0100
,
0010
0013
0000
1000
,
0101
0101
1100
1100
,
0110
0110
0001
1000
,
0011
0011
1010
1010
,
1001
0000
1001
0000
0010
1000
0001
0100
,
0001
0000
1001
0000
1000
0000
0100
0010
,
0001
0000
1000
0000
0010
0000
0100
0010
,
1000
0001
0100
0001
,
2000
3002
0203
0010
,
0310
0000
1000
0000
0001
0000
0100
0001
,
1000
0000
0010
0000
1000
0100
0010
0001
,
1000
0000
0001
0000
0100
0000
0010
0100
,
0002
0023
0230
1000
,
0310
0001
0100
1000
0100
0001
1000
0000
,
0010
0100
0001
1000
0100
0000
1000
0000
,
0001
0100
0001
0100
1000
0100
1000
0100
,
0001
0100
1000
0000
0000
0000
0000
0000
;

//---------------dance-single - Copied from ----------------
#NOTES:
     dance-single:
     Copied from:
     Hard:
     9:
     0.689,0.716,0.440,0.381,0.085: // measure 1
0000
0000
0000
0000
,  // measure 2
0000
0000
0000
0000
,  // measure 3
0000
0000
0000
0000
,  // measure 4
0000
0000
0000
0000
,  // measure 5
2001
0000
0000
0000
0010
0000
0000
3001
,  // measure 6
1000
0010
0100
0001
0010
0100
1000
0000
,  // measure 7
0011
0000
1100
0000
1001
0000
1000
0100
,  // measure 8
0002
0000
0203
0000
1300
0000
1000
0100
,  // measure 9
0002
0000
0203
0000
2300
0000
0000
3001
,  // measure 10
0100
0010
1000
0100
0010
0001
0010
0000
,  // measure 11
1001
0000
0110
0000
0011
0000
1000
0100
,  // measure 12
0020
0000
0230
0000
1300
0000
1000
0100
,  // measure 13
0020
0000
0230
0000
2300
0000
0000
3010
,  // measure 14
0100
0001
0010
0100
0010
1000
0010
0000
,  // measure 15
0011
0000
1000
0000
0110
0000
1000
0001
,  // measure 16
0100
1000
0100
0001
0010
1000
0010
0001
,  // measure 17
2000
3010
0002
0103
,  // measure 18
0010
0100
0010
1000
0100
0010
0001
0000
,  // measure 19
2000
3100
0020
0130
,  // measure 20
0010
0100
0001
0010
0100
0010
0001
1000
,  // measure 21
0010
0000
0000
0000
1000
0000
0000
0000
1000
0000
1000
0100
0010
0000
0000
0000
,  // measure 22
0001
0000
0000
0000
0100
0000
0000
0000
0001
0000
0001
0010
0100
0000
0000
0000
,  // measure 23
1000
1000
0010
0010
0200
0000
0302
0000
,  // measure 24
1003
0100
0010
0000
1000
0100
0010
0000
,  // measure 25
1000
0100
0001
0100
1000
0010
0100
0001
,  // measure 26
0100
0000
0010
0100
0010
0000
1000
0100
,  // measure 27
0001
0000
0001
0100
1000
0000
0010
0100
,  // measure 28
0002
0100
0100
0100
0100
0100
0103
0000
,  // measure 29
1001
0000
1000
0100
0010
0000
0100
0010
,  // measure 30
0001
0000
0100
0010
1000
0000
0001
0000
,  // measure 31
2000
0010
0010
0010
0010
0010
3010
0000
,  // measure 32
2001
3010
0120
0130
,  // measure 33
0102
1003
2100
3001
,  // measure 34
0001
0100
0010
0100
1000
0100
0001
0000
,  // measure 35
1000
0010
1000
0001
0100
0001
0010
0001
,  // measure 36
1000
0100
0010
0100
1000
0010
0100
0001
,  // measure 37
1000
0010
1000
0010
0100
0001
0100
0001
,  // measure 38
1000
1100
0001
1001
,  // measure 39
0110
0000
0110
0000
1000
0100
0010
0001
,  // measure 40
1000
0101
0001
1100
,  // measure 41
0110
0000
0110
0000
0010
0100
0001
1000
,  // measure 42
0010
0000
0000
0000
0010
0000
0000
0000
1000
0000
0001
1000
0001
0000
0000
0000
,  // measure 43
1000
0000
0000
0000
1000
0000
0000
0000
0001
0000
1000
0001
1000
0000
0000
0000
,  // measure 44
0010
0210
0010
0310
,  // measure 45
1000
0100
1000
0100
0010
0001
0100
0010
,  // measure 46
0100
0001
0100
0001
0100
0010
1000
0001
,  // measure 47
2000
0100
0100
0010
,  // measure 48
0010
0001
0100
0001
,  // measure 49
3010
0000
0000
0000
0001
0000
1000
0000
0001
0000
1000
0000
0001
1000
0001
1000
,  // measure 50
0002
0100
0100
1000
,  // measure 51
1000
0100
1000
0010
,  // measure 52
0103
0000
0000
0000
1000
0000
0001
0000
1000
0000
0001
0000
1000
0001
1000
0001
,  // measure 53
2000
0010
3002
0100
,  // measure 54
2003
0100
3002
0010
,  // measure 55
1003
0000
0001
0000
1000
0000
0001
0000
1000
0000
0001
1000
0001
1000
0001
1000
,  // measure 56
0001
0100
0020
0000
2030
0000
3001
0100
,  // measure 57
0010
0100
0010
0100
0001
0100
0001
1000
,  // measure 58
0100
0000
1000
0000
0110
0000
1000
0001
,  // measure 59
1000
0000
0110
0000
1001
0000
0100
0010
,  // measure 60
0100
0000
1001
0000
0001
0000
0100
0010
,  // measure 61
1000
0100
0001
0100
0001
0100
1000
0100
,  // measure 62
1000
0000
0010
0000
1001
0000
0100
0010
,  // measure 63
0100
0000
1001
0000
0110
0000
1000
0001
,  // measure 64
1000
0000
0110
0000
0001
0000
0100
0010
,  // measure 65
0100
0001
0100
0001
0100
0010
0100
0010
,  // measure 66
2000
0000
3200
0000
0310
0000
0001
0100
,  // measure 67
1000
0100
0001
0010
1000
0010
0001
1000
,  // measure 68
0020
2030
3001
0100
,  // measure 69
1001
0110
1001
0110
,  // measure 70
1001
0110
0000
1100
,  // measure 71
0101
0011
1010
1100
,  // measure 72
0011
0000
0000
0000
1100
0000
0000
0000
0001
0000
1000
0001
1000
0001
1000
0001
,  // measure 73
1000
0000
0000
0000
0020
0000
0000
0000
0130
0000
0001
0100
0001
0000
1000
0000
,  // measure 74
0100
0000
0000
0000
2000
0000
0000
0000
3010
0000
1000
0010
1000
0000
0001
0000
,  // measure 75
0200
0301
0002
1003
,  // measure 76
0011
0110
1100
0001
,  // measure 77
1001
0000
0000
0000
0020
0000
0000
0000
0130
0000
0001
0010
0001
0000
1000
0000
,  // measure 78
0001
0000
0000
0000
2000
0000
0000
0000
3001
0000
0010
0001
0010
0000
0001
0000
,  // measure 79
0010
0000
0000
0000
0002
0000
0000
0000
1003
0000
0010
1000
0010
0000
0000
0000
,  // measure 80
1001
1010
0102
1003
,  // measure 81
0110
0001
0100
0010
1000
0100
0010
0001
,  // measure 82
0100
0010
0100
0001
0100
0010
1000
0001
,  // measure 83
1000
0100
0010
0001
1000
0010
0100
0001
,  // measure 84
1000
0000
0001
0010
0200
0000
0000
0000
0000
0000
0000
0000
0000
0000
0000
0000
,  // measure 85
0000
0000
0300
0000
;
