
//----- song ID: unsc -----//
#TITLE:Unwelcome School;
#ARTIST:Mitsukiyo;
#GENRE:スペシャル楽曲パック feat. ブルーアーカイブ Vol.2;
#MUSIC:Unwelcome School.ogg;
#BANNER:Unwelcome School.png;
#BACKGROUND:Unwelcome School-bg.png;
#CDTITLE:./CDTitles/NSD A3.png;
#SAMPLESTART:65.326;
#SAMPLELENGTH:15.000;
#SELECTABLE:YES;
#OFFSET:0.000;
#BPMS:0.000=180.000;
#STOPS:;
#BGCHANGES:;
#FGCHANGES:;

//--------------- dance-single - ----------------
#NOTES:
     dance-single:
     :
     Beginner:
     6:
     0,0,0,0,0:
0000
0000
0000
0000
,
0000
0000
0000
0000
,
0000
0000
0000
0000
,
0000
0000
0000
0000
,
0000
0000
0000
0000
,
1000
0001
1000
0000
,
0100
0010
0100
0000
,
1000
0100
0010
0001
,
1000
0001
1001
0000
,
0100
0010
1000
0000
,
0001
1000
0001
0000
,
1000
0100
0010
0001
,
1000
0001
1000
0000
,
0001
0100
0010
0000
,
0100
0010
0100
0000
,
1000
0001
0100
0010
,
0001
0100
1000
0000
,
1001
0100
0110
0000
,
1000
0001
0100
0000
,
0010
0001
0010
0100
,
1000
0001
0100
0000
,
0001
1000
0100
0000
,
0010
0100
1000
0000
,
0001
1000
0001
0100
,
0010
0001
1000
0000
,
1001
0000
0100
0000
,
0010
0000
0001
0000
,
0100
1000
0100
0001
,
0100
1000
0100
0001
,
0100
0000
0010
0000
,
0001
1000
0001
0000
,
0100
0000
0010
0000
,
0100
1000
0001
0000
,
0010
0100
1000
0000
,
0001
0100
0010
0000
,
1000
0000
0001
0000
,
1000
0001
1000
0000
,
0100
0010
0001
0000
,
1000
0001
0100
0000
,
0020
0000
0000
0000
,
1030
0000
0010
0000
,
0100
0000
1000
0000
,
0001
0000
1000
0000
,
0001
1000
0001
0000
,
0100
0000
0010
0000
,
1000
0000
0001
0000
,
0100
0000
0010
0000
,
0001
1000
0001
0000
,
0100
0010
0001
0000
,
1001
0000
0100
0000
,
0001
0100
1000
0000
,
0001
0000
0100
0000
,
0010
0001
1000
0000
,
0001
0000
1000
0000
,
0001
1000
0001
0000
,
0100
0000
0010
0000
,
0001
1000
1001
0000
,
0100
0000
0010
0000
,
0100
0000
1000
0000
,
0001
0000
0100
0000
,
0010
0000
0100
0000
,
1000
0000
0001
0000
,
0100
0000
0010
0000
,
0001
0000
0010
0000
,
0100
0000
1000
0000
,
0001
0000
1000
0000
,
0100
0000
0010
0000
,
0001
0000
0100
0000
,
0010
0000
1000
0000
,
0001
0000
0100
0000
,
0010
0000
0001
0000
,
1000
0000
0001
0000
,
0100
0010
0100
0000
,
1001
0000
0100
0000
,
0010
0000
0001
0000
,
0100
0000
1000
0000
,
0001
0000
1000
0000
,
0100
0000
0010
0000
,
0001
0000
0100
0000
,
0010
0000
0100
0000
,
1000
0001
1000
0000
,
1001
0000
0100
0000
,
0010
0000
0001
0000
,
0100
0000
1000
0000
,
0001
1000
0001
1000
,
0100
0000
0010
0000
,
0100
0000
1000
0000
,
0001
0000
1000
0000
,
0001
1000
0001
0000
,
0100
0000
0000
0000
,
0010
0000
0000
0000
;

//--------------- dance-single - ----------------
#NOTES:
     dance-single:
     :
     Easy:
     8:
     0,0,0,0,0:
0000
0000
0000
0000
,
0000
0000
0000
0000
,
0000
0000
0000
0000
,
0000
0000
0000
0000
,
0000
0000
0000
0000
,
1000
0001
0100
0010
,
1000
0001
0100
0010
,
1000
0001
0100
0000
1000
0001
0100
0000
,
0100
1000
0001
0000
,
0101
0010
1000
0000
,
0001
1000
0001
0100
,
1000
0001
0100
0000
0100
0000
0010
0000
,
0001
0000
0010
0100
1001
0000
0100
0000
,
0010
1000
0001
0100
,
0010
0001
0100
0010
,
1000
0001
0100
0000
0010
0000
0100
0000
,
0001
1000
0010
0000
0110
0000
0001
0000
,
0100
0000
0010
0000
1000
0000
0100
0001
,
0100
1000
0001
0100
,
0010
1000
0001
0100
,
0010
1000
0001
0000
0100
0000
0101
0000
,
1000
0001
0100
0000
,
0010
0100
1000
0001
,
1000
0001
0100
0000
1000
0001
0100
0000
,
0010
0100
1000
0000
0001
0010
1000
0100
,
0001
0000
1000
0000
0001
0100
0010
0000
,
0100
0000
1000
0000
0001
0100
0010
0000
,
1000
0000
0100
0000
0001
0000
0100
0001
,
1000
0000
0100
0000
0001
0010
0100
0000
,
1000
0000
0001
0100
0010
0000
1000
0000
,
0001
0100
1000
0000
0001
0000
0100
0000
,
0001
1000
0001
0000
0100
0001
0010
0000
,
1000
0000
0001
0010
0100
1000
0001
0000
,
0101
0000
1000
0000
0001
0100
0010
0000
,
0100
0000
1000
0001
0010
0000
0100
0000
,
0010
0100
1000
0000
0001
1000
0001
0000
,
0100
1000
0001
0100
0010
0000
0001
0000
,
0100
1000
0001
0000
0100
0000
0010
0000
,
0001
0010
0100
0000
1000
0000
0001
0000
,
0101
0000
1000
0000
,
0001
0000
1000
0001
0100
0000
0010
0000
,
0002
0000
1003
0000
,
0200
0000
0310
0001
,
1000
0100
0001
0100
,
1000
0010
1000
0001
,
1000
0000
0001
0000
0100
0000
0000
0010
,
1000
0000
0100
0000
0001
1000
0001
0000
,
0100
0010
0100
1000
,
0001
0010
0100
0000
2000
0000
0000
0000
,
3001
0000
0100
0000
1000
0001
0100
0000
,
1000
0001
0010
0000
0100
1000
0001
0000
,
0100
1000
0001
0000
0100
0010
0100
0000
,
1000
0001
0010
0000
0100
0000
1000
0000
,
0001
0100
0010
1000
,
0001
0100
0010
0000
1000
0001
0010
0000
,
0100
1000
0001
0000
0100
0010
0100
0000
,
1000
0110
1000
1001
,
0100
0000
0010
0000
1000
0001
0010
0100
,
0001
1000
0001
0010
1000
0100
0001
0000
,
0100
0010
1000
0001
0010
0000
0100
0000
,
0001
1000
0001
0010
0100
0000
0010
0000
,
0101
1000
1001
0100
,
0010
0100
1000
0000
0001
0100
0010
0000
,
0100
1000
0001
0000
0100
0010
0001
0000
,
0010
0100
1000
0001
,
1001
0000
0100
0000
0010
0001
0010
0000
,
0100
0000
1000
0000
0001
0100
0100
0000
,
0001
1000
0001
0000
0100
0010
1000
0000
,
0001
0100
1000
0001
0100
0100
0001
0000
,
0100
0010
1000
0000
0001
0100
1000
0000
,
0001
0010
0100
1000
0001
0000
0100
0000
,
0010
0100
0001
0000
0010
1000
0001
0000
,
0100
1000
0001
0100
,
0101
0000
1000
0000
,
1001
0000
0100
0000
,
0001
0010
0100
1000
,
0001
1000
0001
0000
0100
0001
0010
0000
,
0100
1000
0001
0000
,
1000
0001
0100
0000
,
0010
0100
0010
0100
,
1000
0001
0020
0000
,
0130
1000
0001
0000
,
0100
0010
1000
0000
,
0001
0000
1000
0000
,
0001
0000
1000
0001
1000
0000
0100
0000
,
0010
0000
0100
0000
,
0001
0100
0010
0000
,
1001
0000
0100
0000
,
0001
0000
1000
0000
,
0001
0000
0000
0000
,
1000
0000
0000
0000
;

//--------------- dance-single - ----------------
#NOTES:
     dance-single:
     :
     Medium:
     13:
     0,0,0,0,0:
0000
0000
0000
0000
,
0000
0000
0000
0000
,
0000
0000
0000
0000
,
0000
0000
0000
0000
,
0000
0000
0000
0000
,
0001
0000
1000
0100
0010
0000
0100
0000
,
0001
0100
1000
0001
0010
1000
0100
0000
,
0001
1000
0010
0100
0001
1000
0010
1000
,
0010
1000
0001
0100
2000
0000
3001
0000
,
1010
0100
0001
0100
,
1000
0100
0001
0010
1000
0100
0010
0000
,
0001
1000
0010
0100
0010
1000
0100
0000
,
1000
0001
0100
0010
0001
0100
0010
0000
,
0101
0000
1001
0000
1000
0100
0010
0000
,
0100
0010
1000
0100
0010
0001
0100
0000
,
0001
1000
0010
1000
0100
0001
0010
0100
,
1000
0001
0100
0001
0110
0000
1000
0000
,
0010
0000
0100
0000
0001
1000
0010
1000
,
0010
1000
0001
0100
1000
0001
0010
0000
,
0100
1000
0001
0100
1000
0100
0010
1000
,
0100
0001
1000
0100
0010
0000
1010
0000
,
0001
0000
1000
0000
0010
1000
0001
0000
,
0100
1000
0010
0100
0001
0010
1000
0000
,
0001
1000
0010
0100
0001
1000
0010
0001
,
0100
0010
0001
0010
1000
0100
0001
0010
,
1000
0000
0001
0010
1000
0010
0100
0000
,
0010
0000
0001
0100
1000
0010
0100
0000
,
0001
0100
0010
0000
1000
0100
0010
1000
,
0001
0000
0010
0100
1000
0100
0010
0000
,
0001
0010
1000
0010
0100
0000
0001
0000
,
1000
0010
0001
0100
1000
0100
0010
0000
,
1000
0001
1000
0001
0010
1000
0100
1000
,
0001
0000
1000
0100
0010
0001
1000
0000
,
1010
0000
0001
0100
1000
0010
0100
1000
,
0010
0000
0001
1000
0100
0001
0010
0000
,
0100
0010
0001
0100
1000
0001
1000
0100
,
0010
0001
1000
0010
0100
0001
1000
0000
,
0010
0001
1000
0000
0010
1000
0100
0000
,
1000
0100
0010
0000
0001
0100
1000
0000
,
1010
0000
0100
0001
0000
0000
0100
0010
,
1000
0000
0001
1000
0010
0000
0100
0001
,
2000
0000
3002
0000
,
0023
0000
0230
2300
,
3001
0100
0010
0000
1000
0000
0010
0000
,
0001
1000
0100
0000
0001
0100
2000
0000
,
3001
0000
1000
0000
0010
0001
0000
0100
,
0001
1000
0010
0000
1000
0001
1000
0000
,
0010
1000
0100
0000
0010
1000
0001
0000
,
1000
0100
0010
0000
0002
0000
0103
0000
,
1000
0100
0010
0000
0001
1000
0010
0000
,
0001
1000
0100
0000
0010
0001
1000
0000
,
0010
0001
1000
0100
0010
0100
0010
0100
,
0001
1000
0100
0001
0010
0000
0002
0000
,
1003
0000
0010
0000
0100
1000
0001
0000
,
1000
0010
0100
0010
0001
1000
0100
0000
,
0010
0001
1000
0100
0010
0100
0010
1000
,
0001
0010
0100
0010
0001
0100
1001
0000
,
0010
1000
0100
0010
0001
1000
0100
0010
,
1000
0001
1000
0100
0001
0010
1000
0000
,
0010
0100
0001
1000
0100
1000
0010
0100
,
1000
0001
1000
0100
0010
0001
0100
0000
,
1000
0100
0001
0100
1000
0100
0010
1000
,
0100
0010
0001
0100
1000
0010
0100
0000
,
0010
0001
1000
0100
0010
0100
1000
0001
,
0100
1000
0010
0100
0001
0100
1000
0000
,
1000
0100
0010
0001
0100
1000
0100
0000
,
0010
0100
0001
0100
1000
0010
0010
0000
,
1000
0001
1000
0100
0010
0100
0001
0000
,
1000
0010
0001
1000
0010
0001
1000
0000
,
0010
0100
0001
0100
1000
0010
0001
0000
,
1000
0100
0010
0001
1000
0100
0010
0000
,
0100
0010
1000
0001
0100
0001
1000
0000
,
0010
0100
0001
0100
1000
0100
0010
0000
,
1010
0000
0100
0010
0001
0010
0100
0000
,
1001
0000
0100
1000
0010
0000
0101
0000
,
1000
0001
0100
1000
0010
0100
0001
0000
,
1000
0001
1000
0001
0010
1000
0100
0000
,
0010
1000
0001
0010
1000
0000
0101
0000
,
0001
0100
1000
0001
0010
1000
0101
0000
,
0100
1000
0010
0001
0100
1000
0010
0001
,
0001
0100
1000
0001
0200
0000
0000
0000
,
0310
0000
0001
0010
1000
0100
0001
0000
,
0010
0000
0100
1000
0001
0100
0010
0000
,
1000
0100
1000
0100
0001
0010
0100
0001
,
1000
0010
0001
1000
0001
1000
0010
0001
,
0100
0000
0001
1000
0010
0100
1000
0001
,
1000
0100
0010
0001
0100
0010
0000
0000
,
1001
0100
0010
1000
,
1000
0100
0001
0101
,
2000
0000
0000
0000
,
3002
0000
0000
0013
0000
0000
0000
0000
;

//--------------- dance-single - ----------------
#NOTES:
     dance-single:
     :
     Hard:
     17:
     0,0,0,0,0:
0000
0000
0000
0000
,
0000
0000
0000
0000
,
0000
0000
0000
0000
,
0000
0000
0000
0000
,
0000
0000
0000
0000
,
0001
0000
1000
0100
0010
1000
0100
0010
,
0001
0000
0100
0000
1000
0000
0001
0000
0010
0000
1000
0001
0000
0000
0000
0000
,
0001
1000
0010
0100
0001
1000
0010
1000
,
0010
1000
0001
0100
2000
0000
3001
0000
,
1010
0000
0100
0000
0001
0010
0100
0010
,
1000
0000
0100
0000
0001
0000
0010
0000
1000
0000
0100
0001
0010
0000
0100
0000
,
0001
0000
1000
0100
0010
0000
0100
0001
0010
0000
1000
0001
0100
0000
1000
0010
,
1000
0000
0001
0010
0100
0000
0010
1000
0001
0000
0100
1000
0010
0000
1000
0000
,
0101
0000
0000
0000
1001
0000
0000
0000
1000
0000
0100
0001
0010
0000
0100
1000
,
0100
0000
0010
0000
1000
0000
0100
0000
0010
0000
0001
0010
0100
0000
1000
0000
,
0001
0000
1000
0100
0010
0000
1000
0010
0100
0000
0001
1000
0010
0000
0100
0001
,
1000
0000
0001
0010
0100
0000
0001
1000
0010
0000
0100
0001
1000
0000
0100
0000
,
0010
0000
0001
1000
0100
0000
0010
0100
0001
0000
1000
0001
0010
0000
1000
0000
,
0010
0100
1000
0010
0001
0000
0100
0000
1000
0000
0001
1000
0010
0000
0001
0000
,
0100
0000
1000
0010
0001
0000
0100
0001
1000
0000
0100
1000
0010
0000
1000
0001
,
0100
0000
0001
0010
1000
0000
0100
0001
0010
0000
0100
0001
2000
0000
0000
0000
,
3001
0000
0010
0001
1000
0000
0100
1000
0010
0000
1000
0100
0001
0000
0010
0000
,
0100
0000
1000
0000
0010
0000
0100
0000
0001
0000
0010
0100
1000
0000
0010
0000
,
0001
0000
1000
0100
0010
0000
0100
0010
0001
0000
1000
0100
0010
0000
0001
1000
,
0100
0000
0010
0100
0001
0000
0010
0100
1000
0000
0100
0010
0001
0100
0010
0100
,
1000
0000
0100
0010
0001
0000
0010
0000
1000
0000
0010
0000
0100
0000
1000
0100
,
0010
0000
1000
0000
0001
0000
0100
0000
1000
0100
0010
0001
0100
0000
1000
0000
,
0001
0000
0100
1000
0010
0000
0100
0001
1000
0000
0100
0001
0010
0000
1000
0100
,
0001
0000
0100
1000
0010
0000
0100
0001
1000
0000
0100
1000
0010
0000
0100
1000
,
0001
0000
0010
0100
1000
0000
0010
0000
0100
0000
0010
0000
0001
0000
0100
0000
,
1000
0100
0010
1000
0001
0000
0100
0000
1000
0000
0100
0001
0010
0000
0100
0000
,
1000
0000
0001
0100
1000
0000
0001
0100
0010
0000
1000
0001
0100
0000
1000
0010
,
0001
0000
0010
0100
1000
0000
0100
1000
0010
1000
0001
0100
1000
0001
0100
0010
,
0001
0000
0100
1000
0001
0010
0100
0000
1000
0000
0010
0000
0100
0000
1000
0000
,
0010
0000
0100
0000
0001
0010
1000
0001
0100
0000
0001
0000
0010
0000
1000
0000
,
0100
0000
0010
1000
0001
0000
0100
0010
1000
0000
0001
0010
1000
0000
0100
0001
,
0010
0000
0001
0100
1000
0000
0010
1000
0100
0000
0001
0010
1000
0000
0100
1000
,
0010
0000
0001
0000
1000
0010
0100
0001
0010
0100
1000
0000
0100
0000
0001
0000
,
1000
0000
0100
0000
0010
0100
1000
0010
0001
0010
0100
0000
1000
0000
0001
0000
,
1010
0000
0100
0101
0000
0000
0100
0010
,
1000
0000
0001
1000
0010
0000
0100
0001
,
2000
0010
3002
0100
,
0023
1000
0230
2300
,
3001
0100
0010
0100
1000
0100
0010
1000
,
0001
1000
0100
0010
0001
0100
2000
0000
,
3001
0000
1000
0100
0010
0001
1000
0100
,
0001
0000
1000
0000
0010
0000
0100
0000
1000
0000
0001
0100
2000
0000
0100
0000
,
3010
1000
0100
0001
0010
1000
0001
0010
,
1000
0100
0010
1000
0002
0000
0103
0000
,
1000
0000
0100
0000
0010
0000
1000
0000
0001
0000
1000
0100
0010
0000
0100
0000
,
0001
0000
1000
0000
0100
0000
1000
0000
0010
0000
0001
0100
1000
0000
0100
0000
,
0010
0000
0001
0100
1000
0000
0100
0001
0010
0000
0100
1000
0010
0000
0100
0010
,
0001
0000
1000
0010
0100
0000
0001
0000
0010
0000
0100
0000
0002
0000
0100
0000
,
1003
0000
0100
0000
0010
0000
0001
0010
0100
0000
1000
0000
0001
0000
0100
0000
,
1000
0000
0010
1000
0100
0000
0010
0000
0001
0000
1000
0001
0100
0000
1000
0000
,
0010
0000
0001
0100
1000
0000
0100
0001
0010
0000
0100
1000
0010
0000
1000
0100
,
0001
1000
0010
0001
0100
1000
0010
0100
0001
0010
0100
1000
0002
0000
0000
0000
,
0013
0000
1000
0001
0100
0000
0010
1000
0001
0000
1000
0010
0100
0000
0010
0100
,
1000
0000
0001
0010
1000
0000
0100
0010
0001
0000
0010
0100
1000
0000
0100
0000
,
0010
1000
0100
0000
0001
0010
1000
0000
0100
0001
1000
0000
0010
1000
0100
0000
,
1000
0010
0001
0000
1000
0010
0100
0000
0010
1000
0001
0000
0100
0000
0010
0000
,
1000
0001
0100
0000
0001
0010
0100
0000
1000
0000
0100
0001
0010
0000
1000
0000
,
0100
1000
0010
0100
0001
0000
0100
0000
1000
0000
0010
0000
0100
0001
1000
0100
,
0010
0000
0001
0000
1000
0010
0100
0000
0010
1000
0100
0000
1000
0010
0001
0000
,
0100
0001
1000
0000
0010
1000
0100
0000
0001
0010
0100
0000
1000
0000
0010
0100
,
1000
0000
0100
1000
0010
0000
0001
0000
0100
0000
1000
0000
0100
0000
1000
0000
,
0010
1000
0100
0000
0001
0010
0100
0000
1000
0100
0010
0000
0100
0001
0010
0000
,
1000
0010
0001
0000
1000
0000
0100
0000
0010
1000
0100
0000
0001
0000
0100
0000
,
1000
0100
0010
0000
0001
0100
1000
0000
0010
0100
0001
0000
1000
0001
0100
0000
,
0010
0000
0100
0000
0001
0010
0100
0000
1000
0100
0010
0000
0001
0000
0100
0000
,
1000
0001
0100
0000
0010
1000
0001
0000
1000
0001
0100
0000
0010
0000
1000
0000
,
0100
0001
0010
0000
1000
0000
0001
0010
0100
0000
0001
0010
1000
0000
0100
0000
,
0010
0000
0100
1000
0001
0000
0100
0000
1000
0001
0100
0000
0010
0000
0100
0000
,
1000
0001
0100
0010
0001
0010
0100
0010
,
1000
0010
0100
1000
0010
1000
0001
0100
,
1000
0000
0001
0000
0100
0010
1000
0000
0010
1000
0100
0000
0001
0100
0010
0000
,
1000
0010
0001
0000
1000
0100
0001
0000
0010
0100
1000
0000
0100
0010
0001
0000
,
0010
1000
0001
0010
1000
0100
0001
0100
,
0001
0100
1000
0001
0010
1000
0001
0010
,
0100
0000
1000
0000
0010
1000
0001
0000
0100
0001
1000
0000
0010
0100
1000
0000
,
0001
0010
0100
0000
1000
0010
0001
0000
0100
0001
1000
0000
0010
0100
1000
0000
,
0010
0100
0001
0010
1000
0100
0001
1000
,
0010
0001
0100
1000
0001
0100
0010
0100
,
1000
0000
0100
0001
1000
0000
0100
1000
0001
0000
0010
1000
0100
0000
0001
0100
,
1000
0000
0010
0100
0001
0000
1000
0100
0001
0000
1000
0100
0010
0000
0001
0000
,
0100
0010
0001
1000
0010
0100
1000
0001
,
1000
0100
0010
0001
0100
0010
1000
0100
,
1001
0000
0100
0110
0000
0000
1001
0000
,
1000
0100
0001
0000
0100
0000
1000
0000
0001
0000
0000
0000
0101
0000
0000
0000
,
1001
0101
1000
0110
,
0001
0000
1000
0010
0000
0000
0000
0000
;

//--------------- dance-single - ----------------
#NOTES:
     dance-single:
     :
     Challenge:
     18:
     0,0,0,0,0:
0000
0000
0000
0000
,
0000
0000
0000
0000
,
0000
0000
0000
0000
,
0000
0000
0000
0000
,
0000
0000
0000
0000
,
0001
0000
1000
0000
0001
0010
0000
0100
0001
0000
1000
0000
0010
0000
0001
0100
,
0010
0000
0100
0010
0001
1000
0100
0000
0010
1000
0100
0000
0001
0000
1000
0000
,
0001
0100
1000
0001
0010
0100
1000
0001
0100
1000
0010
0100
0001
0010
1000
0100
,
0010
0001
1000
0010
0100
0001
0010
1000
0100
0001
1000
0010
0200
0000
0000
0000
,
1300
0010
0001
0000
1000
0100
0000
0010
1000
0000
0001
0010
0100
0000
1000
0010
,
0100
0001
0010
0100
1000
0001
0010
0000
0100
0001
0010
0100
1000
0010
0001
0000
,
1000
0010
0001
1000
0100
0010
0001
1000
0010
0001
0100
0010
1000
0100
0001
0010
,
0100
1000
0001
0100
0010
1000
0100
0001
0010
1000
0001
0100
0010
0000
0100
0000
,
0001
0100
1000
0000
0001
0010
1000
0100
0001
0000
1000
0100
0010
0000
0001
0100
,
0010
0000
0100
0010
0001
1000
0100
0000
0010
1000
0100
0010
0001
0000
1000
0000
,
0001
0100
1000
0001
0010
0100
1000
0001
0100
1000
0010
0100
0001
0010
1000
0100
,
0010
0001
1000
0010
0100
0001
0010
1000
0100
0001
1000
0010
0100
0000
1000
0000
,
0100
0010
0001
1000
0100
0010
0100
0010
0200
0000
2300
0000
3002
0000
0203
0000
,
0310
0100
0010
0100
0001
1000
0001
0100
0002
0000
0023
0000
0032
0000
2003
0000
,
3001
0010
0100
0010
0100
0010
0001
0100
0020
0000
0230
0000
2300
0000
3002
0000
,
0103
1000
0100
0010
0100
1000
0010
1000
0100
1000
0001
0100
0010
0100
0010
0100
,
0001
1000
0100
0010
0001
0100
0010
0100
0002
0000
2003
0000
3200
0000
2300
0000
,
3001
0100
0001
0100
0010
1000
0001
1000
0100
0000
0100
0001
0100
0000
0001
1000
,
0010
1000
0010
1000
0100
0010
0001
0010
0001
1000
0001
0010
0100
0010
0100
0010
,
0001
0100
0010
1000
0010
1000
0001
0010
0001
1000
0100
1000
0010
0100
0001
0010
,
0001
0000
0100
1000
0010
0000
0100
0010
0100
0010
0001
1000
0010
0100
0010
0100
,
0001
0000
0010
1000
0001
0000
0100
1000
0001
0010
0100
1000
0001
1000
0001
0100
,
0001
0000
0010
1000
0001
0000
0010
0100
0010
0100
0010
1000
0100
1000
0100
0010
,
0001
0000
0100
0010
0001
0000
0010
1000
0001
0000
0010
1000
0100
0010
0100
0010
,
0001
0000
1000
0100
0010
0000
0001
1000
0010
0000
0001
1000
0100
0000
0010
0100
,
0010
1000
0010
0100
0001
0100
0010
0100
0001
1000
0001
0100
0001
0100
0010
1000
,
0100
0000
0001
0100
0010
0000
0001
0100
0010
0000
0001
0010
0100
0000
0001
0100
,
0010
0000
0010
1000
0100
0000
0100
0010
0001
0000
0100
1000
0100
0010
0100
1000
,
0010
0100
0010
1000
0010
1000
0001
1000
0100
0010
0100
0010
0100
1000
0010
0100
,
0010
1000
0001
1000
0100
0010
0100
1000
0010
0100
0010
0100
0010
1000
0001
1000
,
0100
0000
0010
1000
0001
0000
0100
1000
0010
0000
0010
0100
0010
0000
0001
0010
,
0100
0000
0100
0010
0001
0100
0001
0010
0100
1000
0100
1000
0001
0100
0001
1000
,
0001
0000
0100
0010
0001
0000
1000
0100
0001
0000
0100
1000
0010
0000
0001
0100
,
0010
1000
0010
0100
0010
0100
0001
0100
0001
0010
0001
0100
0010
0100
0010
1000
,
0100
1000
0001
0000
0100
0010
1000
0001
0010
0100
1000
0000
0010
0100
0010
1000
,
0001
0010
0100
0000
1000
0001
0010
0100
1000
0000
0001
0000
0110
0000
1001
0000
,
0010
0001
1000
0000
0010
0100
0001
1000
0100
0010
0001
0000
0100
0010
0100
0001
,
1000
0100
0010
0000
0001
1000
0100
0010
0001
0000
1000
0000
0110
0000
1001
0000
,
0010
0000
0101
0000
0100
0001
0100
0001
0010
0000
1100
0000
0100
1000
0100
1000
,
0010
0000
0101
0000
0010
0100
0010
0100
0010
0000
0100
0000
1001
0000
0000
0000
,
1100
0000
0000
0100
0010
0000
0000
0010
0001
0000
1000
0000
0001
0000
1000
0000
,
0010
0000
0101
0000
0100
0001
0100
0001
0010
0000
1100
0000
0100
1000
0100
1000
,
0010
0000
0101
0000
0010
0100
0010
0100
0010
0000
0100
0000
1001
0000
0110
0000
,
0010
1010
0010
0011
0020
0000
1030
0000
,
0010
0000
0100
0010
0001
0000
0100
0010
0001
0010
0100
1000
0001
0100
0010
0100
,
0001
0000
0010
1000
0001
0000
0100
1000
0010
0100
0010
1000
0010
1000
0100
1000
,
0100
0010
0001
0010
0001
1000
0010
0100
0001
0010
0001
1000
0010
0100
0001
0010
,
0001
0010
0100
1000
0001
1000
0001
0100
0001
0100
0010
0100
0010
1000
0100
1000
,
0100
0000
0010
0100
0001
0000
0001
0010
0100
0010
0100
1000
0010
1000
0010
1000
,
0100
0000
0001
1000
0100
0000
0001
0010
0100
0010
0100
1000
0010
1000
0010
1000
,
0100
0010
0100
0010
0001
0010
0100
1000
0001
0100
0010
0100
0010
1000
0100
0010
,
0100
1000
0001
0010
0001
1000
0100
1000
0010
1000
0010
0100
0002
0000
0000
0000
,
0103
0010
0001
1000
0010
0100
0001
0100
0010
0100
0001
0010
0100
1000
0100
1000
,
0010
0100
0010
0100
0001
0100
0010
1000
0100
0010
0100
0010
0001
0010
0100
1000
,
0001
0010
0100
1000
0010
0100
0010
0100
0010
1000
0001
1000
0010
1000
0010
0100
,
0001
0100
0001
0100
0010
1000
0100
0010
0100
1000
0100
0010
0001
1000
0001
0010
,
0001
0010
0100
0010
0100
1000
0010
0100
0010
0100
0001
0100
0001
1000
0010
1000
,
0001
0100
0001
0100
0010
0100
0010
1000
0010
0100
0001
0010
0001
0010
0100
0010
,
0100
1000
0001
0010
0100
1000
0001
1000
0100
0010
0100
0010
0100
1000
0001
1000
,
0001
0010
0100
1000
0010
0100
0010
0100
0001
0100
0010
1000
0010
1000
0010
0100
,
0001
0100
0010
0100
0001
0010
0001
0100
0010
0100
0010
1000
0001
0010
0001
0100
,
0010
1000
0100
0010
0001
1000
0100
1000
0010
0100
0010
0100
0001
0100
0001
0010
,
0100
1000
0001
0100
0001
0100
0010
0100
0010
1000
0001
0100
0001
1000
0100
0010
,
0001
1000
0010
0100
0010
0100
0010
1000
0001
0010
0100
0010
0100
0010
0001
0100
,
0010
0100
0001
0010
0100
1000
0001
1000
0010
0100
0001
0100
0010
1000
0100
0010
,
0100
0010
0001
1000
0100
1000
0100
1000
0010
0100
0001
0010
0100
0010
0001
1000
,
0001
1000
0010
0100
0001
0100
0010
0100
0010
1000
0010
1000
0100
0010
0100
0010
,
0001
0010
0100
1000
0010
0100
0001
0010
0100
1000
0100
1000
0100
0010
0001
0010
,
0100
0000
0001
0100
0001
0000
1000
0100
0010
0000
0010
0100
0001
0000
0100
1000
,
0001
0100
0001
0100
0010
1000
0100
0010
0100
1000
0010
0100
0010
1000
0100
1000
,
0001
0000
0100
1000
0100
0000
1000
0010
0001
0000
0001
1000
0100
0000
0001
0010
,
0001
0010
0100
1000
0001
0010
0100
0010
0100
0010
0001
0100
0001
1000
0001
0010
,
0100
0000
0100
1000
0100
0000
0001
0010
0001
0100
0010
1000
0010
0100
0010
1000
,
0100
0000
1000
0010
0001
0000
0100
1000
0001
0000
0010
1000
0100
0010
0100
1000
,
0010
0000
0001
0010
0100
0000
0001
0010
0100
0000
1000
0010
0001
0000
0100
0010
,
0001
0000
0100
1000
0001
0000
0100
0010
0100
1000
0010
0100
0001
0010
0001
0100
,
0001
0000
0100
0010
0001
0000
0100
0010
0001
0000
0010
0100
0010
0000
0001
0100
,
0001
0000
0100
1000
0001
0000
1000
0010
0001
0000
0100
0010
0001
0000
0001
0010
,
0001
0000
0100
1000
0100
0000
0100
0010
0001
0000
0010
0100
0001
0000
0010
0100
,
0001
0000
0100
1000
0100
0000
1000
0010
0001
0000
1000
0100
0010
0000
0100
0010
,
0100
0000
0100
1000
0001
0010
0001
0100
0010
1000
0001
0010
0001
0010
0100
1000
,
0100
0000
0100
1000
0001
0010
0001
0100
0010
1000
0100
0010
0001
0100
0010
0000
,
1000
0000
0100
0000
0001
0100
0010
0000
1000
0000
0001
0100
0010
0100
1000
0010
,
0001
0100
0010
0000
1000
0000
0001
0010
0100
0000
1000
0000
0002
0000
0000
0000
,
1003
0000
0100
0010
0100
1000
0001
0010
,
0100
0001
1000
0001
0000
0000
0000
0000
;
