#TITLE:SHADE;
#SUBTITLE:[HYPER];
#ARTIST:dj MURASAME vs. dj KILLER;
#TITLETRANSLIT:;
#SUBTITLETRANSLIT:;
#ARTISTTRANSLIT:;
#CREDIT:;
#BANNER:SHADE [HYPER].png;
#BACKGROUND:SHADE [HYPER]-bg.png;
#LYRICSPATH:;
#CDTITLE:;
#MUSIC:SHADE [HYPER].mp3;
#OFFSET:0.000;
#SAMPLESTART:100.050;
#SAMPLELENGTH:12.000;
#SELECTABLE:YES;
#BPMS:0.000=151.000;
#STOPS:;
#BGCHANGES:;

//---------------dance-single - ----------------
#NOTES:
     dance-single:
     :
     Medium:
     11:
     0.552,0.615,0.645,0.112,0.000: // measure 1
0000
0000
0000
0000
,  // measure 2
0000
0000
0000
0000
,  // measure 3
0000
0000
0000
0000
,  // measure 4
0000
0000
0000
0000
,  // measure 5
1010
0110
0001
0101
,  // measure 6
1000
0000
1010
0000
0100
0010
0110
0000
,  // measure 7
1000
1001
0100
0110
,  // measure 8
1000
0000
1001
0000
0110
0100
0110
0000
,  // measure 9
1000
1001
0100
0110
,  // measure 10
1000
0000
1001
0000
1000
0001
1001
0000
,  // measure 11
0100
0110
1000
1001
,  // measure 12
1000
0000
1001
0000
1000
0010
1010
0000
,  // measure 13
0100
0000
0101
0000
0100
0010
0110
0000
,  // measure 14
1000
0001
1001
0100
0010
0100
0110
1000
,  // measure 15
0010
1000
1010
0100
0001
0100
0101
0100
,  // measure 16
0010
0100
0110
1000
0010
1000
0001
1000
,  // measure 17
1001
0100
0010
0010
,  // measure 18
1000
0000
0100
0000
0100
0010
0100
0000
,  // measure 19
1000
0100
0010
0000
0100
0001
0100
0000
,  // measure 20
0010
0100
0010
1000
0100
0010
0001
0000
,  // measure 21
0010
0100
0010
0000
1000
0100
0010
0000
,  // measure 22
1000
0100
0010
1000
0010
0100
0001
0000
,  // measure 23
0100
0010
0100
0000
1000
0100
0010
0000
,  // measure 24
0002
0000
1003
0000
0100
0010
0100
0000
,  // measure 25
2001
0000
3010
0101
,  // measure 26
1000
0010
0100
0000
0010
0000
0001
0000
,  // measure 27
1000
0010
1000
0010
1000
0000
0110
0000
,  // measure 28
1000
0001
1000
0000
0010
0000
0010
0000
,  // measure 29
0100
0010
0100
0010
0100
0000
1001
0000
,  // measure 30
0100
0120
1030
1010
,  // measure 31
1000
0010
1020
0000
0130
0000
0101
0000
,  // measure 32
0100
0000
1010
0000
1000
0010
1000
0010
,  // measure 33
1000
0010
1000
0010
1000
0000
1001
0000
,  // measure 34
0100
0010
0120
0000
1030
0000
1001
0000
,  // measure 35
1000
0010
1010
0000
0100
0000
0110
0000
,  // measure 36
1000
1001
0100
0110
,  // measure 37
1000
0001
1001
0000
0100
0000
0110
0000
,  // measure 38
1000
1010
0100
1001
,  // measure 39
0100
0010
0110
0000
1000
0000
1010
0000
,  // measure 40
0100
0101
1000
0110
,  // measure 41
1000
0100
0110
0000
0110
0000
0110
0000
,  // measure 42
1000
0100
0110
0000
0001
0000
1010
0000
,  // measure 43
0100
0010
0110
0000
1000
0000
1001
0000
,  // measure 44
0100
1010
0100
1001
,  // measure 45
1000
0010
1010
0000
0100
0000
0110
0000
,  // measure 46
1000
1001
0100
0110
,  // measure 47
1000
0001
1001
0000
0100
0000
0110
0000
,  // measure 48
0100
0000
0110
0000
1000
1000
0100
0100
,  // measure 49
0010
0010
0001
0001
0010
0010
0100
0100
,  // measure 50
1000
1000
0100
0100
0010
0010
0001
0001
,  // measure 51
0010
0010
0100
0100
1000
1000
0010
0010
,  // measure 52
0100
0100
0001
0001
1000
1000
0001
0001
,  // measure 53
0100
0100
0010
0010
1000
1000
0100
0100
,  // measure 54
0010
0010
0001
0001
1000
1000
0010
0010
,  // measure 55
0100
0100
0001
0001
1000
1000
0010
0010
,  // measure 56
0200
0000
0301
0110
,  // measure 57
1000
0010
1010
0000
0100
0001
0100
0001
,  // measure 58
0200
0000
0310
0000
1000
0010
1000
0010
,  // measure 59
2000
0000
3010
0000
1000
0001
2000
0000
,  // measure 60
3001
0000
1001
0000
0100
0010
0100
0010
,  // measure 61
0200
0000
0310
0000
1000
0100
0020
0000
,  // measure 62
0031
0000
1001
0000
0100
0010
0100
0010
,  // measure 63
0200
0000
1300
0000
0100
0001
0020
0000
,  // measure 64
0130
0001
1001
0000
0100
0000
0010
0000
,  // measure 65
0100
0010
0110
0000
1000
0000
1001
0000
,  // measure 66
0100
0010
0100
0010
0100
0000
1010
0000
,  // measure 67
0100
0001
0101
0000
0100
0010
0100
0010
,  // measure 68
0100
0010
1010
0000
0100
0000
0110
0000
,  // measure 69
0100
0001
0101
0000
1000
0010
1010
0000
,  // measure 70
0100
0001
0101
0000
1000
0100
0010
0000
,  // measure 71
0100
0010
0100
0000
0001
0010
0100
0000
,  // measure 72
1000
0100
0010
0000
1000
1000
0001
0001
,  // measure 73
0100
0100
0010
0010
1000
1000
0001
0001
,  // measure 74
0200
0000
0000
0300
1010
0000
0000
0000
;
