#TITLE:Programmed Sun (xac Antarctic Ocean mix);
#SUBTITLE:(CHAOS Special);
#ARTIST:Remixed by xac;
#TITLETRANSLIT:;
#SUBTITLETRANSLIT:;
#ARTISTTRANSLIT:;
#GENRE:;
#CREDIT:;
#BANNER:Programmed Sun (xac Antarctic Ocean mix) (CHAOS Special).png;
#BACKGROUND:Programmed Sun (xac Antarctic Ocean mix) (CHAOS Special)-bg.png;
#LYRICSPATH:;
#CDTITLE:;
#MUSIC:Programmed Sun (xac Antarctic Ocean mix) (CHAOS Special).mp3;
#OFFSET:-0.177;
#SAMPLESTART:100.050;
#SAMPLELENGTH:12.000;
#SELECTABLE:YES;
#BPMS:0.000=140.000
;
#STOPS:
;
#BGCHANGES:;
#KEYSOUNDS:;
#ATTACKS:;

//---------------dance-single - ----------------
#NOTES:
     dance-single:
     :
     Challenge:
     15:
     0.895,0.892,0.267,0.047,0.852,758.000,34.000,6.000,0.000,0.000,0.000,0.895,0.892,0.267,0.047,0.852,758.000,34.000,6.000,0.000,0.000,0.000:
0000
0000
1001
0000
1000
0010
1000
0000
0100
0010
1000
0000
0100
0001
0010
0000
,
1000
0010
1000
0000
0001
0100
1000
0010
1000
0000
1000
0100
0010
0100
1000
0100
,
0010
0000
0010
0000
1000
0000
1000
0000
0001
0100
1000
0100
0010
0000
1000
0000
,
0000
0000
0100
0000
0010
0000
0100
0000
0010
1000
0100
0001
1000
0000
0100
0000
,
0010
0000
0100
0000
0010
0000
0100
0000
0010
1000
0100
0010
1000
0000
0100
0000
,
0010
0000
0001
0000
0010
0000
0100
0000
1000
0001
0100
1000
0010
0000
0100
0000
,
0010
0000
0100
0000
1000
0000
0100
0001
0010
0000
0100
1000
0010
0000
0100
0000
,
0010
0000
1000
0000
0100
0000
0010
0000
0001
0000
0010
1000
0100
0010
1000
0000
,
0100
0000
0010
0000
0100
0000
0001
0000
0100
0000
0010
0000
0100
0000
1000
0010
,
0100
1000
0010
0100
0001
0010
0100
1000
0010
0001
0100
1000
0010
0001
0100
0010
,
1000
0010
0100
1000
0010
1000
0100
1000
0100
0010
1000
0100
0010
0001
0100
0010
,
1000
0000
0010
0000
0100
0000
1000
0000
0100
0000
0010
1000
0001
0010
0100
0000
,
0010
0000
0100
0000
0010
0000
0100
0000
0010
0000
0100
0010
1000
0000
0100
0000
,
0010
0000
0001
0000
0100
0000
0010
0000
0100
0000
0010
1000
0100
0000
1000
0000
,
0100
0000
0010
0000
0001
0000
0010
0000
0100
0010
1000
0001
0100
1000
0010
0000
,
0000
0100
0001
0100
0010
0100
1000
0100
,
0010
0000
0001
0000
0100
0000
0010
0000
0100
0000
0010
0000
0100
0000
1000
0010
,
0100
1000
0010
0100
0001
0100
0010
0001
0100
0010
1000
0010
0100
1000
0010
0100
,
0001
1000
0010
0001
0100
0010
1000
0010
0100
1000
0010
0100
0001
0100
1000
0100
,
0010
0000
0001
0000
1000
0000
0010
0000
0100
0010
1000
0001
0100
0000
0010
0000
,
0001
0000
0010
0000
0100
0000
1000
0000
0100
0000
0010
1000
0001
0010
1000
0100
,
0010
0000
1000
0100
1000
0000
0100
1000
0100
0000
0010
0001
0010
0000
0001
0010
,
0001
0000
0010
0100
0010
0000
0100
0010
0100
0000
1000
0001
1000
0000
0001
1000
,
0001
0010
1000
0100
0010
0001
0010
0100
,
1000
0000
0010
0100
0010
1000
0100
0001
0010
1000
0100
0000
0010
0000
1000
0010
,
0100
0001
0010
0100
1000
0100
0010
0001
0100
1000
0010
0100
1000
0010
0100
1000
,
0010
0100
0001
0010
0100
1000
0010
0001
0100
1000
0010
0100
1000
0010
0001
0100
,
1000
0100
0001
0100
1000
0001
0010
1000
0100
1000
0010
1000
0100
0010
0001
0100
,
1000
0001
2002
0000
0000
0000
0000
0000
0000
0000
0000
0000
0000
0000
0000
0000
,
3003
0000
1000
0010
0100
0000
0010
0000
0110
0000
0000
0000
1000
0100
0010
0000
,
0110
0000
0000
0000
1000
0100
0001
0000
1001
0000
0100
0000
0010
0000
0100
0000
,
1000
0000
0100
1000
0010
0000
0001
0000
0101
0000
1000
0001
0100
0000
0010
0000
,
0110
0000
1000
0000
0100
0000
0001
0000
0010
0000
0100
0001
1000
0000
0100
0000
,
0010
0000
0100
1000
0010
0000
0100
0000
0110
0000
1000
0001
0100
0000
0010
0000
,
0110
0000
0001
0000
0010
0000
0100
0000
1000
0000
0100
0000
0010
0000
1000
0010
,
0100
0000
0110
0000
0100
0000
0010
0000
0001
0000
0010
0000
0100
0010
1000
0000
,
1100
0100
0010
0001
0010
0100
1000
0100
,
0010
0000
1000
0100
0001
0000
1000
0000
1010
0000
0100
0001
0010
0000
0100
0000
,
0101
1000
0100
0010
0001
0010
0100
1000
,
0100
0000
0010
0001
1000
0000
0001
0000
0101
0000
1000
0000
0010
0000
0100
0000
,
0110
1000
0100
0010
0001
0010
0100
1000
,
0100
0000
1000
0010
0100
0000
0010
0000
0110
0000
0010
1000
0001
0000
0010
0000
,
0110
0000
1000
0000
0100
0000
0010
0000
0001
0000
0010
1000
0100
0000
1010
0000
,
0100
0000
0110
0000
1000
0000
0100
0010
0100
0000
0001
0000
0100
1000
0010
0000
,
0101
0010
1000
0100
0010
0001
0100
0110
,
1000
0000
0001
0010
0100
0000
0010
0000
0100
0000
0010
0000
0100
0010
1000
0010
,
0100
0001
0010
0000
0001
0000
0100
0000
0010
0000
1000
0000
0100
0000
0010
1000
,
0001
0000
0100
1000
0010
0000
0100
0000
0010
0000
1000
0000
0100
0001
0010
1000
,
0001
0100
0010
1000
0100
0010
1000
0000
0100
0000
0010
0000
0001
0000
0010
0000
,
0100
0000
1000
0100
1000
0000
0100
1000
0100
0000
0010
0001
0010
0000
0001
0010
,
0001
0010
0010
0100
0100
1000
1000
0100
,
0100
0010
1000
0010
0100
0001
0010
0100
0001
0100
0010
1000
0100
0010
1000
0100
,
0001
0010
1000
0100
0010
1000
0100
0010
0001
0100
1000
0100
0010
1000
2002
0000
,
0000
3000
0103
1000
0010
0000
0100
0000
0010
0000
1000
0010
0100
1000
0010
0100
,
0001
0100
1000
0100
0001
0000
1000
0000
0001
0000
0100
0000
0010
0000
1000
0100
,
0001
1000
0100
0001
0010
1000
0100
0000
0010
0000
0100
0000
1000
0000
0100
0000
,
0010
0000
0001
0000
0100
0000
0010
0000
1000
0000
0100
0000
0010
1000
0001
0100
,
0010
0001
0100
0010
1000
0000
0100
0000
0010
0000
0100
1000
0010
0001
0100
0010
,
1000
0000
0100
0000
0010
1000
0001
0010
0100
1000
0010
0000
0100
0000
0010
0000
,
0001
1000
0010
0000
0100
0000
1000
0000
0100
1000
0010
0001
0100
1000
0010
1000
,
0100
0010
1000
0010
0100
1000
0010
0001
0100
0001
0010
1000
0100
0000
1000
0010
,
0100
1000
0011
0000
1000
0010
0100
0000
0010
1000
0100
0000
0001
0010
0100
0000
,
0010
1000
0100
0000
1000
0001
0100
0000
0010
0000
0001
0000
0100
0000
0010
0000
,
0100
0000
1000
0001
0100
0000
0010
0000
0011
0000
0100
1000
0010
0000
0100
0000
,
1010
0100
0010
0100
0001
0100
0010
0100
,
0010
0000
1000
0100
1100
0000
0100
0010
0110
0000
0010
0001
0011
0000
0010
0100
,
0110
0000
0100
1000
1100
0000
0100
0010
0110
0000
0010
0001
0011
0000
0010
0100
,
0110
0000
1000
0100
0010
1000
0010
0100
0001
0010
0100
1000
0010
0001
0100
0010
,
0001
0100
1000
0001
0100
1000
0010
0001
1000
0010
0001
1000
0100
0010
0001
0010
,
1000
0001
2002
0000
0000
0000
0000
0000
0000
0000
0000
0000
0000
0000
0000
0000
,
0000
0000
0000
0000
,
3003
0000
0000
0000
;
