#TITLE:My Secret;
#SUBTITLE:Kaichou wa Maid-sama! Opening Theme;
#ARTIST:Saaya Mizuno;
#TITLETRANSLIT:;
#SUBTITLETRANSLIT:;
#ARTISTTRANSLIT:;
#GENRE:;
#CREDIT:;
#BANNER:My Secret.png;
#BACKGROUND:My Secret-bg.png;
#LYRICSPATH:My Secret.lrc;
#CDTITLE:;
#MUSIC:My Secret.mp3;
#OFFSET:-0.087;
#SAMPLESTART:50.227;
#SAMPLELENGTH:12.000;
#SELECTABLE:YES;
#BPMS:0.000=184.000
;
#STOPS:
;
#BGCHANGES:;
#KEYSOUNDS:;
#ATTACKS:;

//---------------dance-single - ----------------
#NOTES:
     dance-single:
     :
     Hard:
     12:
     0.675,0.643,0.489,0.289,0.017,355.000,44.000,26.000,0.000,0.000,0.000,0.675,0.643,0.489,0.289,0.017,355.000,44.000,26.000,0.000,0.000,0.000:
0000
0000
0000
0000
1000
0010
0200
0000
,
0000
0000
0000
0000
0000
0000
0002
0300
,
0000
0000
0100
2000
,
0000
3003
1001
0110
,
1000
0110
0000
1000
0110
0000
1000
0000
,
0100
0010
1000
0001
0100
0010
1000
0001
,
0100
1000
0100
0010
0001
0010
0100
0001
,
1000
0010
0100
1000
0100
1100
0000
0100
,
0010
0100
0010
0100
0001
1000
0010
0100
,
0001
1000
0100
0010
0001
0011
0000
0100
,
0010
0100
0001
1000
0010
0100
2000
0000
,
0001
0001
0001
0001
,
3001
0001
0001
0002
,
1000
1000
1000
1000
,
1003
0000
0000
0000
1000
0100
0010
0000
0100
0000
0000
0000
0010
0000
0000
0000
,
1000
1000
1000
1000
,
1000
0000
1000
0001
1000
0001
1000
0000
,
2000
0001
0001
0001
,
0001
0000
3001
0100
0001
0100
0000
0000
,
0100
0100
0100
0100
,
0100
1000
1000
0002
,
0000
2003
0000
0000
3020
0000
0000
0000
,
0000
0030
1000
0001
1000
0001
1000
0000
,
0010
0000
0100
0100
0010
1000
0000
0001
,
0100
0000
0000
1000
0010
0100
0001
0000
,
2000
0000
0000
0000
0010
0010
0000
3001
,
0100
0010
1000
0001
0100
1000
0200
0000
,
0000
0320
0000
0000
2030
0000
0000
0000
,
3001
0100
0010
2000
,
0001
0001
0001
0001
,
3001
0100
0110
1001
,
0110
0011
0110
1000
,
0100
1100
0100
0110
,
0011
0110
1001
0110
,
0011
0010
0110
1100
,
0100
0110
1001
0101
,
0011
0000
0010
0000
0110
0000
1000
1100
,
0000
1000
1100
0000
0100
0110
0000
0100
,
0110
0000
0000
0000
1000
0010
0100
1000
0001
0000
0000
0000
0100
0000
0000
0000
,
1000
0100
1000
0100
0010
1000
0001
0100
,
0020
0000
1030
0000
0001
0100
0010
1000
,
0001
0100
0010
1100
0000
1000
0110
0100
,
0001
0000
0110
0000
1000
0000
0100
0010
,
1000
0001
0100
0010
1000
0001
0100
1000
,
0100
0010
0001
0100
0010
2000
0001
0000
,
0000
0000
0000
0000
3001
0200
0000
0000
,
0000
0000
0300
1000
0010
1000
0020
0000
,
0130
0001
0100
0001
1000
0010
0100
0001
,
1000
0100
0011
0000
0000
0000
0100
0000
,
1000
0010
0100
0001
1000
0020
0000
0130
,
0001
1000
0010
0100
0001
1000
0200
0000
,
0000
0000
0000
0010
0010
0300
0001
1000
,
0010
0100
0001
1000
0100
1000
0200
0000
,
0000
0000
0000
0000
0310
0000
1000
0110
,
0001
1000
0010
0100
0001
0100
0100
0000
,
1100
0000
0100
1000
0100
1000
1100
1100
,
0010
0100
0000
0110
0000
0001
1100
0000
,
1100
0000
1100
0100
1100
0000
0100
0010
,
0100
0010
0100
0010
0100
0000
0001
0000
,
1000
0010
0100
0001
1000
0010
0000
0100
,
0001
0100
0010
1000
0001
0100
0020
0000
,
1030
0001
0100
0010
0100
0002
0000
0003
,
1000
0110
0001
1000
0010
0100
1000
0100
,
0010
0100
0001
1000
0010
0100
0001
1000
,
0100
1000
0100
0010
0001
0010
0002
0000
,
0100
0100
0100
0100
,
0100
0000
0100
0000
0100
0003
2010
0000
,
0010
0000
0000
0000
0010
0020
0000
0000
,
3030
0000
0000
0000
;

//---------------dance-single - ----------------
#NOTES:
     dance-single:
     :
     Medium:
     8:
     0.467,0.526,0.356,0.133,0.000,250.000,32.000,12.000,0.000,0.000,0.000,0.467,0.526,0.356,0.133,0.000,250.000,32.000,12.000,0.000,0.000,0.000:
0000
0000
1000
0020
,
0000
0000
0030
2000
,
0000
0000
0000
0000
0000
3000
0002
0000
,
0000
0000
0003
1000
,
0000
1100
0000
0000
1100
0000
1000
0000
,
0100
0000
1000
0100
1000
0100
0000
0100
,
0000
0010
0000
0000
0000
0000
0100
0000
,
0100
0000
1000
0100
1000
0100
0000
0010
,
0100
0020
0000
0000
0000
0030
1000
0000
,
0100
1000
0100
1000
0100
0020
0000
0000
,
0000
0000
0000
0000
0000
0030
2000
0000
,
0000
0000
0000
0000
,
3000
0100
0100
0002
,
0000
0000
0000
0000
,
0003
0000
0100
0010
0100
0000
1000
0000
,
0100
1000
0100
1000
,
0100
0000
1000
0100
0010
0100
0001
0000
,
0100
0100
0100
0100
,
0100
0000
1000
0010
0100
0010
0001
0000
,
0001
0001
0001
0001
,
0001
0100
0010
1100
,
0000
0110
0000
0000
0110
0000
0000
0000
,
0000
1000
1100
0100
,
0010
0000
0100
0100
,
1000
0000
0100
1000
,
0100
0000
0000
0000
1000
0010
0000
0000
,
0100
1000
0100
0010
,
0000
0001
0010
0000
0000
0000
0000
0000
,
0001
0010
0001
1000
,
0010
0100
0001
1000
,
0010
0100
0001
1000
,
0100
0010
0011
0010
,
0100
1000
0110
0001
,
0010
0001
0110
1000
,
0100
0010
0001
0110
,
1000
0100
0010
0001
,
0010
0000
0001
0000
0010
0000
1000
1000
,
0000
0001
0001
0000
0100
0100
0000
0010
,
0010
0000
1000
0001
0101
0000
0010
0000
,
1000
0010
0000
0100
0000
0010
0000
1000
,
0010
0110
1000
0100
,
0010
1000
0000
0010
0000
0100
0000
0001
,
0010
0000
0011
0000
0100
0010
1000
0000
,
0100
0010
1000
0001
0100
0010
0000
1000
,
0100
0000
0010
0000
0001
0010
0002
0000
,
0000
0000
0000
0000
1003
2000
0000
0000
,
0000
3000
0100
1010
,
0100
0010
0100
0001
1000
0010
0000
0100
,
0001
0000
0011
0000
0000
0000
0000
0100
,
0010
1000
0000
0010
0100
0010
0000
1000
,
0010
0100
0000
0000
0000
1010
0000
0100
,
0000
0000
0010
0011
,
0010
0110
1001
0110
,
0001
0010
0011
0100
,
0110
1000
0100
1100
,
1100
0000
0010
0000
0100
0000
0110
0110
,
0000
0000
0000
1100
,
0100
0010
0100
0001
,
1010
0100
0011
0100
,
0110
0000
1000
0010
0100
0010
0000
0000
,
1000
0100
1000
0100
,
0010
0000
1000
0001
1000
0001
0000
0100
,
0010
0100
0000
1000
0001
0000
0100
0000
,
0010
0000
1000
0001
1000
0001
0000
0100
,
0010
0100
0000
0001
1000
0000
0020
0000
,
0000
0000
0000
0000
,
0000
0000
0030
2002
,
0000
0000
0000
0000
3003
0110
0000
0000
;

//---------------dance-single - ----------------
#NOTES:
     dance-single:
     :
     Easy:
     5:
     0.338,0.339,0.056,0.178,0.000,192.000,5.000,16.000,0.000,0.000,0.000,0.338,0.339,0.056,0.178,0.000,192.000,5.000,16.000,0.000,0.000,0.000:
0000
0000
0000
2000
,
0000
0000
0000
0000
3000
0000
0000
0200
,
0000
0000
0300
2000
,
0000
0000
3000
0100
,
0000
0100
0000
0000
0100
0000
1000
0000
,
0010
0100
0001
0000
0000
1000
0000
0000
,
0100
0000
0000
0100
0000
0100
0000
0000
,
0000
0000
1000
0000
0000
0100
0000
0100
,
0000
0100
0000
0000
0000
0000
0010
0000
,
0100
0010
1000
0000
,
0000
0100
0010
0100
,
1000
0000
0100
0000
,
0000
0000
0000
0001
,
0001
0000
0001
0000
0000
0010
0000
0010
,
0000
0100
0000
0000
0000
0000
0000
1000
,
0000
0100
0000
1000
0000
0100
0000
0100
,
0000
1000
0000
0000
0000
0000
0100
0000
,
1000
0000
0000
0000
,
0000
0010
0010
0200
,
0000
0300
2000
0000
,
3000
0100
0010
0002
,
0000
0003
2000
0000
,
3000
0100
0110
1000
,
0100
0000
0000
1100
0000
0100
0000
0000
,
0100
0000
0000
0010
,
0010
0000
0000
0000
0100
0110
0000
0000
,
0000
1000
0100
1000
,
0000
0010
0001
0000
,
0100
0010
0100
0020
,
0000
0000
0030
0010
,
0010
0010
0000
1000
,
0001
0100
0010
1000
,
0001
0001
0001
0100
,
0010
0010
0010
1000
,
0010
0100
0001
1000
,
0010
0010
0010
0100
,
0001
0000
1000
0000
0010
0000
1000
1100
,
0000
0100
0010
0000
0000
0001
0000
0000
,
0000
0010
0011
0100
,
0010
1000
0000
0001
0000
0100
0000
0010
,
1000
0000
0002
0000
0000
0003
0100
0000
,
0010
1000
0000
0001
0000
0100
0000
0010
,
0100
0000
0002
0000
0000
0003
1000
0000
,
1000
0100
0000
0010
0000
0001
0000
0010
,
0000
0000
0000
0100
,
0010
0000
1000
0000
0001
0200
0000
0000
,
0000
0300
1000
1000
,
0100
0010
0000
1000
0000
0100
0000
1000
,
0100
0000
0020
0000
0000
0030
1000
0000
,
0100
1000
0000
0000
0000
0100
0000
0010
,
1000
0001
0000
0000
0000
0100
0020
0000
,
0000
0000
0030
0100
,
0000
1000
1000
2000
,
0000
0000
0000
3000
,
0000
0000
0000
0000
0010
0100
0020
0000
,
0000
0000
0030
1000
,
0100
0000
0000
0010
,
0010
0100
0010
1000
,
0001
0100
0100
1000
,
0010
0100
0001
1000
,
0000
1000
0100
0010
,
0001
0001
0001
0001
,
0000
0100
0100
0100
,
1000
0100
0010
0001
,
0000
0100
0100
1000
,
0000
0100
0000
1000
,
0000
0100
0000
2000
,
0000
0000
0000
0000
0000
0001
3000
0000
;

//---------------dance-single - ----------------
#NOTES:
     dance-single:
     :
     Beginner:
     3:
     0.191,0.226,0.078,0.022,0.000,111.000,7.000,2.000,0.000,0.000,0.000,0.191,0.226,0.078,0.022,0.000,111.000,7.000,2.000,0.000,0.000,0.000:
0000
0000
1000
0100
,
0000
0000
0000
0001
,
0000
0000
0000
1000
,
0000
0000
0000
0001
,
0000
0000
0000
0000
,
0000
1000
1000
1000
,
0000
0000
0000
0010
,
0000
0000
0100
0100
,
0000
0000
0000
0001
,
0000
0000
1000
1000
,
0000
0000
0000
0110
,
0000
0000
0000
0000
,
0000
0000
0000
1001
,
0000
0000
0000
0000
,
0000
0000
0000
1000
,
0100
0000
0000
0000
,
0010
0010
0010
0000
,
0000
0001
0001
0001
,
0000
0000
0100
0100
,
0100
0000
0000
0000
,
1000
1000
1000
0000
,
0000
0000
0010
0000
,
0000
0000
0001
0000
,
0000
0000
0000
0100
,
0000
0000
0000
0010
,
0000
0000
0000
1000
,
0000
0000
0000
0001
,
0000
0000
0000
1000
,
0000
0000
0000
0010
,
0000
0000
0000
1000
,
1000
1000
0000
0100
,
0100
1000
1000
0000
,
0000
0000
0010
0010
,
0001
0001
0000
0000
,
0000
0100
0100
0010
,
0010
0000
0000
0000
,
0000
1000
1000
0001
,
0000
0000
0000
1000
,
0000
0000
0000
0110
,
0000
0000
0000
1000
,
0100
1100
0000
0000
,
0000
0000
0000
0010
,
0100
0110
0000
0000
,
0000
0000
0001
0010
,
0001
0000
0000
2000
,
0000
3000
0000
0002
,
0000
0003
0000
0100
,
0100
0100
0000
0000
,
0010
0110
0000
1000
,
0000
0000
0000
0100
,
0100
0100
0000
1000
,
0000
0000
0000
0100
,
0100
0100
0000
0001
,
0000
0000
0000
1000
,
1000
1000
0000
0010
,
0010
0010
0000
0100
,
0100
0000
0000
1000
,
0000
0001
0000
1000
,
0000
0000
0000
0001
,
0001
0001
0001
0000
,
0000
0000
0100
0100
,
0000
0000
0000
0010
,
0000
1000
0100
0010
,
0000
0000
0000
0001
,
0000
0000
0000
0001
,
0001
0001
0000
0000
,
0000
0000
0000
0000
,
1000
0000
1000
0000
0000
1001
0000
0000
;
